osu file format v9

[General]
AudioFilename: Kimi no WIND SONG.mp3
AudioLeadIn: 2000
PreviewTime: 79172
Countdown: 0
SampleSet: Soft
StackLeniency: 0.7
Mode: 0
LetterboxInBreaks: 0

[Editor]
Bookmarks: 172530
DistanceSpacing: 1
BeatDivisor: 2
GridSize: 4

[Metadata]
Title:Kimi no WIND SONG
Artist:Aoyama Misao
Creator:kosiga
Version:Normal
Source:Osu! Banchou 2
Tags:daito giken mythol

[Difficulty]
HPDrainRate:3
CircleSize:3
OverallDifficulty:3
ApproachRate:4
SliderMultiplier:1
SliderTickRate:1

[Events]
//Background and Video events
0,0,"BG.jpg"
//Break Periods
2,111843,124652
//Storyboard Layer 0 (Background)
//Storyboard Layer 1 (Fail)
//Storyboard Layer 2 (Pass)
//Storyboard Layer 3 (Foreground)
//Storyboard Sound Samples
//Background Colour Transformations
3,100,163,162,255

[TimingPoints]
599,447.761194029851,4,1,1,50,1,0
4628,-100,4,1,1,5,0,0
5076,-100,4,1,1,50,0,0
6419,-100,4,1,1,5,0,0
6867,-100,4,1,1,50,0,0
7651,-100,4,1,1,60,0,0
14927,-100,4,2,1,5,0,0
16606,-100,4,2,2,40,0,0
17501,-100,4,2,1,60,0,0
17949,-100,4,2,2,60,0,0
18173,-100,4,2,1,60,0,0
18509,-100,4,2,1,70,0,1
18621,-100,4,2,1,70,0,0
24666,-100,4,2,2,70,0,0
25337,-100,4,2,1,70,0,0
30934,-100,4,2,2,70,0,0
31158,-100,4,2,1,70,0,0
32278,-100,4,2,2,70,0,0
32501,-100,4,2,1,40,0,0
33285,-100,4,2,1,5,0,0
34181,-100,4,2,1,40,0,0
34516,-100,4,2,1,60,0,0
34740,-100,4,2,2,40,0,0
41681,-100,4,2,1,50,0,0
41904,-100,4,2,2,40,0,0
47054,-100,4,2,1,50,0,0
47501,-100,4,2,1,60,0,0
48845,-100,4,2,1,70,0,0
55337,-100,4,2,1,60,0,0
55561,-100,4,2,1,70,0,0
61606,-100,4,2,1,50,0,0
62278,-100,4,2,2,30,0,0
62501,-100,4,2,2,40,0,0
62725,-100,4,2,2,50,0,0
63173,-100,4,2,1,70,0,0
75822,-100,4,2,1,50,0,0
79404,-100,4,2,1,90,0,1
79516,-100,4,2,1,80,0,1
86009,-100,4,2,2,70,0,1
86233,-100,4,2,1,80,0,1
91830,-100,4,2,2,60,0,1
92054,-100,4,2,1,70,0,1
93285,-100,4,2,2,70,0,0
93397,-100,4,2,1,70,0,0
93733,-100,4,2,1,90,0,1
93845,-100,4,2,1,80,0,1
100337,-100,4,2,2,70,0,1
100561,-100,4,2,1,80,0,1
106158,-100,4,2,2,60,0,1
106494,-100,4,2,1,70,0,1
106830,-100,4,2,2,60,0,1
108061,-100,4,2,2,10,0,0
109404,-100,4,2,2,70,0,1
110300,-100,4,2,2,60,0,1
110748,-100,4,2,2,50,0,1
111196,-100,4,2,2,40,0,1
111643,-100,4,2,2,5,0,0
125860,-100,4,2,1,70,0,0
132352,-100,4,2,1,60,0,0
132576,-100,4,2,1,70,0,0
139516,-100,4,2,1,80,0,0
140412,-100,4,2,1,70,0,0
152725,-100,4,2,1,50,0,0
156419,-100,4,2,1,90,0,1
156531,-100,4,2,1,80,0,1
163024,-100,4,2,2,70,0,1
163248,-100,4,2,1,80,0,1
168845,-100,4,2,2,60,0,1
169069,-100,4,2,1,70,0,1
170300,-100,4,2,2,70,0,0
170412,-100,4,2,1,70,0,0
170748,-100,4,2,1,90,0,1
170860,-100,4,2,1,80,0,1
177352,-100,4,2,2,70,0,1
177576,-100,4,2,1,80,0,1
183173,-100,4,2,2,50,0,1
183733,-100,4,2,1,80,0,1
184964,-100,4,2,1,50,0,1
185860,-100,4,2,1,70,0,1
186307,-100,4,2,2,70,0,1
186755,-100,4,2,2,60,0,1
186979,-100,4,2,1,50,0,1
188658,-100,4,2,1,50,0,0

[Colours]
Combo1 : 255,134,134
Combo2 : 128,255,128
Combo3 : 255,164,209
Combo4 : 128,255,255

[HitObjects]
256,100,599,2,0,B|356:80,1,100
420,156,1494,2,0,B|487:232,1,100
448,324,2390,2,0,B|351:291,1,100
276,228,3285,2,0,B|199:295,1,100,2|0
112,340,4181,6,0,B|65:319|35:269|36:211|66:169,1,200
224,292,5972,2,0,B|266:322|324:323|374:293|395:246,1,200,0|2
420,48,7763,5,0
460,140,8210,1,0
368,180,8658,1,0
408,272,9106,1,0
328,332,9554,2,0,B|276:334|237:299,1,100
256,200,10449,2,0,B|216:164|164:166,1,100,2|0
88,232,11345,5,0
148,312,11793,1,0
244,284,12240,2,0,B|269:237|255:187,1,100
256,192,13136,12,0,14927
256,60,16718,5,2
256,160,17166,1,2
256,260,17613,2,0,B|268:308,1,50,8|8
316,324,18061,2,0,B|363:337,1,50,8|8
408,312,18509,6,0,B|446:276|449:224,1,100,4|4
436,124,19404,1,2
356,64,19852,1,8
276,124,20300,2,0,B|254:170|204:200|146:199|104:169,1,200,2|0
152,80,21643,1,8
106,170,22091,6,0,B|80:212|80:212|96:260,1,100,4|8
176,320,22987,2,0,B|202:278|202:278|186:230,1,100,2|8
200,132,23882,2,0,B|236:96|293:85|347:105|377:148,1,200,2|0
396,244,25225,2,0,B|408:296,2,50,8|8|4
444,156,26121,5,8
384,76,26569,1,2
292,36,27016,1,8
192,44,27464,2,0,B|141:48|95:85|77:140|90:190,1,200,2|0
128,280,28807,1,8
208,340,29255,6,0,B|247:362|302:335|296:316|291:296|346:269|385:292,2,200,4|2|4
128,280,31494,2,0,B|96:244,2,50,12|8|8
208,340,32390,1,8
220,240,32837,2,0,B|207:163|286:127|315:161|344:194|423:159|410:80,1,300,4|8
320,36,34628,6,0,B|270:52|217:54,1,100,4|4
128,88,35524,1,0
88,180,35972,1,4
80,280,36419,2,0,B|165:336|267:348,1,200
368,176,38210,5,0
368,76,38658,1,4
468,76,39106,1,0
468,176,39554,1,4
468,276,40001,2,0,B|447:324|399:345,1,100,0|4
300,344,40897,2,0,B|279:323|251:315,2,50,4|0|4
348,256,41793,6,0,B|348:156,1,100,4|4
304,64,42688,2,0,B|256:52|256:52|208:64,1,100,0|4
164,156,43584,2,0,B|164:256,1,100,0|4
68,284,44479,2,0,B|68:184,1,100,0|4
92,88,45375,6,0,B|117:43|170:17|227:24|267:57,1,200,2|0
296,252,47166,2,0,B|284:276|256:288|228:276|216:252,2,100,4|4|4
336,160,48509,1,8
380,136,48733,1,8
424,160,48957,6,0,B|455:202|448:254,1,100,4|8
392,336,49852,1,0
304,288,50300,1,8
216,336,50748,2,0,B|163:342|121:311,1,100,2|8
52,240,51643,2,0,B|94:208|146:215,1,100,0|8
240,252,52539,5,2
336,224,52987,1,8
344,124,53434,2,0,B|320:79|270:51|211:56|170:88,1,200,0|2
188,188,54778,1,8
216,284,55225,2,0,B|228:332,2,50,0|8|8
188,188,56121,5,4
92,160,56569,1,8
164,92,57016,1,0
260,64,57464,1,8
360,56,57912,2,0,B|410:62|454:99|471:155|455:205,1,200,2|0
304,336,59703,6,0,B|254:330|210:293|193:237|209:187,2,200,2|0|4
392,288,61942,1,8
452,208,62390,2,0,B|457:187|448:158,1,50,4|4
400,148,62837,2,0,B|398:126|380:102,1,50,4|4
332,88,63285,6,0,B|238:47|136:53,1,200,4|2
76,132,64628,1,8
84,232,65076,2,0,B|178:273|280:267,1,200,2|0
340,188,66419,1,8
428,140,66867,6,0,B|472:116|472:116|480:64,2,100,4|8|0
428,240,68210,1,8
380,328,68658,2,0,B|337:355|280:355|231:323|211:274,1,200,0|8
120,316,70001,1,8
96,272,70225,1,8
76,228,70449,6,0,B|61:182|59:129,1,100,4|8
144,84,71345,2,0,B|159:130|161:183,1,100,2|8
228,256,72240,2,0,B|281:254|327:239,1,100,2|8
424,260,73136,2,0,B|409:306|407:359,2,100,0|8|4
452,164,74479,5,8
364,116,74927,2,0,B|352:92|324:80|296:92|284:116,1,100,2|8
256,192,75822,12,4,77613
148,268,79404,6,0,B|160:292|188:304|216:292|228:268,1,100,4|8
276,180,80300,1,2
332,96,80748,1,8
388,12,81196,2,0,B|439:1|484:28,2,100,2|10|2
300,60,82539,1,8
252,148,82987,6,0,B|228:164|204:148|180:132|156:148,1,100,4|8
116,240,83882,2,0,B|140:224|164:240|188:256|212:240,1,100,0|8
312,228,84778,1,0
388,164,85225,1,8
448,84,85673,2,0,B|460:36,2,50,8|8|8
488,176,86569,6,0,B|499:227|472:272,1,100,4|8
412,352,87464,2,0,B|362:367|314:344,1,100,2|8
232,288,88360,1,2
136,316,88807,1,10
56,256,89255,1,2
48,156,89703,1,8
76,60,90151,6,0,B|113:25|169:16|223:39|251:83,2,200,4|0|4
84,160,92390,1,4
124,252,92837,2,0,B|112:280|94:292,2,50,8|8|8
148,208,93509,1,8
172,252,93733,6,0,B|196:296|196:296|240:320,1,100,4|4
328,272,94628,2,0,B|352:228|352:228|396:204,1,100,2|8
476,144,95524,1,2
484,244,95972,1,10
408,308,96419,1,2
316,348,96867,6,0,B|282:306|230:299,2,100,8|4|8
408,308,98210,2,0,B|435:261|424:210,1,100,0|8
396,116,99106,1,0
316,56,99554,1,8
216,48,100001,2,0,B|188:44|166:53,2,50,8|8|8
256,140,100897,6,0,B|271:186|273:239,1,100,4|8
256,336,101793,1,2
168,288,102240,1,8
80,336,102688,2,0,B|36:309|13:257|21:199|56:161,1,200,2|2
152,188,104031,1,8
200,100,104479,5,4
400,100,105375,1,0
320,40,105822,1,8
292,136,106270,2,0,B|266:181|266:181|219:192,1,100,4|4
136,136,107166,6,0,B|148:84,1,50,4|4
196,76,107613,2,0,B|220:48|220:48|256:52,1,75,4|4
256,192,108061,12,0,109404
256,192,109852,12,0,111643
255,260,125972,6,0,B|220:297|167:302,1,100,4|8
84,244,126867,2,0,B|119:206|172:201,1,100,0|8
256,260,127763,1,2
336,200,128210,1,8
416,260,128658,2,0,B|462:236|489:187|486:128|455:87,1,200,0|2
368,40,130001,5,8
268,32,130449,1,0
172,60,130897,1,8
92,120,131345,2,0,B|65:166|76:216,1,100,2|8
156,276,132240,2,0,B|174:264|186:236,2,50,8|8|8
76,336,133136,6,0,B|44:240,1,100,4|8
80,148,134031,2,0,B|174:116,1,100,0|8
236,196,134927,2,0,B|224:246|244:298|292:334|343:337,1,200,2|0
488,200,136718,6,0,B|500:150|480:98|432:62|381:59,1,200,2|0
344,152,138061,1,8
384,244,138509,2,0,B|348:280|348:280|296:280,1,100,4|8
260,248,139181,2,0,B|228:208,1,50,0|8
184,232,139628,2,0,B|152:271,2,50,8|8|8
160,188,140300,6,0,B|247:134|300:46,1,200,4|2
392,84,141643,1,8
472,144,142091,1,2
392,204,142539,2,0,B|362:242|342:291,2,100,8|0|8
392,104,143882,5,4
312,44,144330,1,8
232,104,144778,1,0
152,44,145225,1,8
72,104,145673,2,0,B|104:135|92:195|71:196|51:195|40:255|71:287,1,200,0|8
164,324,147016,1,8
180,276,147240,1,0
196,228,147464,6,0,B|216:180|216:180|248:144,1,100,4|8
256,44,148360,2,0,B|304:64|304:64|340:96,1,100,2|8
340,196,149255,2,0,B|388:176|388:176|424:144,1,100,2|8
464,52,150151,1,0
504,144,150598,1,8
476,240,151046,6,0,B|465:290|425:329|366:341|319:322,1,200,4|0
256,244,152390,1,8
256,192,152837,12,4,154628
192,61,156419,5,4
256,136,156867,2,0,B|279:180|329:199,2,100,8|2|8
192,61,158210,2,0,B|176:39|146:32|120:49|113:74,1,100,2|10
88,172,159106,1,2
80,272,159554,1,8
172,232,160001,6,0,B|264:192,1,100,4|8
324,272,160897,2,0,B|232:312,1,100,0|8
172,232,161793,2,0,B|164:182|164:182|121:155,1,100,0|8
36,208,162688,2,0,B|8:248,2,50,8|8|8
36,108,163584,6,0,B|55:61|104:38,1,100,4|8
204,32,164479,1,2
304,48,164927,1,8
384,108,165375,1,2
444,188,165822,2,0,B|463:235|453:290|411:333|362:345,1,200,10|8
280,288,167166,6,0,B|264:264|280:240|296:216|280:192,1,100,4|8
188,152,168061,2,0,B|204:176|188:200|172:224|188:248,2,100,0|8|4
140,64,169404,1,4
96,40,169628,1,8
52,64,169852,2,0,B|39:81|37:111,1,50,8|8
76,144,170300,2,0,B|74:174|62:191,2,50,8|8|4
140,64,171196,5,8
236,36,171643,1,2
332,64,172091,1,8
420,112,172539,2,0,B|468:202|470:304,1,200,2|2
384,356,173882,1,8
336,268,174330,6,0,B|360:256|372:227|360:199|336:187,1,100,4|8
244,148,175225,2,0,B|219:159|207:188|219:216|243:228,1,100,0|8
336,188,176121,1,0
424,140,176569,1,8
500,76,177016,2,0,B|500:24,2,50,8|8|8
424,140,177912,6,0,B|405:93|356:70,1,100,4|8
260,40,178807,1,2
160,32,179255,1,8
64,64,179703,1,2
32,160,180151,1,10
48,260,180598,2,0,B|49:310|87:349,1,100,2|8
148,268,181494,6,0,B|168:221|217:187|273:187|316:214,1,200,4|0
380,292,182837,1,8
460,232,183285,2,0,B|444:132,1,100,4|4
396,120,183957,5,8
348,136,184181,2,0,B|304:156,1,50,8|8
256,136,184628,2,0,B|232:141|216:129|205:110|212:88,1,75,8|0
256,312,185972,5,8
256,212,186419,1,8
256,112,186867,1,4
256,192,187091,12,6,188658
