osu file format v9

[General]
AudioFilename: Kimi no WIND SONG.mp3
AudioLeadIn: 2000
PreviewTime: 79172
Countdown: 0
SampleSet: Normal
StackLeniency: 0.7
Mode: 0
LetterboxInBreaks: 0

[Editor]
DistanceSpacing: 1.1
BeatDivisor: 4
GridSize: 4

[Metadata]
Title:Kimi no WIND SONG
Artist:Aoyama Misao
Creator:kosiga
Version:Hard
Source:Osu! Banchou 2
Tags:daito giken mythol

[Difficulty]
HPDrainRate:5
CircleSize:4
OverallDifficulty:6
ApproachRate:7
SliderMultiplier:1.4
SliderTickRate:1

[Events]
//Background and Video events
0,0,"BG.jpg"
//Break Periods
2,111843,123281
//Storyboard Layer 0 (Background)
//Storyboard Layer 1 (Fail)
//Storyboard Layer 2 (Pass)
//Storyboard Layer 3 (Foreground)
//Storyboard Sound Samples
//Background Colour Transformations
3,100,163,162,255

[TimingPoints]
599,447.761194029851,4,1,1,50,1,0
7315,-100,4,1,1,60,0,0
7763,-100,4,1,1,70,0,0
12688,-100,4,1,1,80,0,0
14927,-100,4,2,1,30,0,0
16270,-100,4,2,1,10,0,0
16606,-100,4,2,2,40,0,0
17501,-100,4,2,1,60,0,0
17949,-100,4,2,2,60,0,0
18173,-100,4,2,1,60,0,0
18509,-100,4,2,1,70,0,1
18621,-100,4,2,1,70,0,0
24666,-100,4,2,2,70,0,0
25337,-100,4,2,1,70,0,0
30934,-100,4,2,2,70,0,0
31158,-100,4,2,1,70,0,0
32278,-100,4,2,2,70,0,0
32501,-100,4,2,1,70,0,0
32837,-100,4,2,1,40,0,0
34516,-100,4,2,1,60,0,0
34740,-100,4,2,2,40,0,0
41681,-100,4,2,1,50,0,0
41904,-100,4,2,2,40,0,0
47054,-100,4,2,1,50,0,0
47501,-100,4,2,1,60,0,0
48957,-100,4,2,1,70,0,0
55337,-100,4,2,1,60,0,0
55561,-100,4,2,1,70,0,0
61606,-100,4,2,1,50,0,0
62278,-100,4,2,2,30,0,0
62501,-100,4,2,2,40,0,0
62725,-100,4,2,2,50,0,0
63285,-100,4,2,1,70,0,0
78509,-100,4,2,1,30,0,0
78621,-100,4,2,1,50,0,0
78845,-100,4,2,2,70,0,0
79069,-100,4,2,1,70,0,0
79404,-100,4,2,1,90,0,1
79516,-100,4,2,1,80,0,1
86009,-100,4,2,2,70,0,1
86233,-100,4,2,1,80,0,1
91830,-100,4,2,2,60,0,1
92054,-100,4,2,1,70,0,1
93285,-100,4,2,2,70,0,0
93397,-100,4,2,1,70,0,0
93733,-100,4,2,1,90,0,1
93845,-100,4,2,1,80,0,1
100337,-100,4,2,2,70,0,1
100561,-100,4,2,1,80,0,1
106158,-100,4,2,2,60,0,1
106494,-100,4,2,1,70,0,1
106830,-100,4,2,2,60,0,1
108061,-100,4,2,2,10,0,0
109404,-100,4,2,2,70,0,1
110300,-100,4,2,2,60,0,1
110748,-100,4,2,2,50,0,1
111196,-100,4,2,2,40,0,1
111643,-100,4,2,2,5,0,0
124181,-133.333333333333,4,2,0,50,0,0
125076,-100,4,2,2,50,0,0
125860,-100,4,2,1,70,0,0
132352,-100,4,2,1,60,0,0
132576,-100,4,2,1,70,0,0
139516,-100,4,2,1,80,0,0
140412,-100,4,2,1,70,0,0
152725,-100,4,2,2,50,0,0
153173,-100,4,2,1,70,0,0
154740,-100,4,2,2,50,0,0
155972,-100,4,2,2,70,0,0
156419,-100,4,2,1,90,0,1
156531,-100,4,2,1,80,0,1
163024,-100,4,2,2,70,0,1
163248,-100,4,2,1,80,0,1
168845,-100,4,2,2,60,0,1
169069,-100,4,2,1,70,0,1
170300,-100,4,2,2,70,0,0
170412,-100,4,2,1,70,0,0
170748,-100,4,2,1,90,0,1
170860,-100,4,2,1,80,0,1
177352,-100,4,2,2,70,0,1
177576,-100,4,2,1,80,0,1
183173,-100,4,2,2,50,0,1
183733,-100,4,2,1,80,0,1
184964,-100,4,2,1,50,0,1
185860,-100,4,2,1,70,0,1
186419,-100,4,2,2,70,0,1
186531,-100,4,2,2,60,0,1
186979,-100,4,2,1,50,0,1
188658,-100,4,2,1,50,0,0

[Colours]
Combo1 : 255,134,134
Combo2 : 128,255,128
Combo3 : 255,164,209
Combo4 : 128,255,255

[HitObjects]
232,36,599,1,0
355,52,1046,1,0
431,152,1494,1,0
415,276,1942,1,0
315,352,2390,1,0
191,336,2837,1,0
112,236,3285,1,0
129,111,3733,1,0
232,36,4181,6,0,B|306:6|355:69,1,140
424,224,5076,2,0,B|350:254|301:191,1,140
140,136,5972,2,0,B|62:160|65:240,1,140
200,340,6867,2,0,B|278:316|275:236,2,140,2|2|0
88,256,8210,5,0
208,184,8658,1,0
88,112,9106,1,0
216,56,9554,2,0,B|283:13|342:67,1,140
396,228,10449,2,0,B|399:307|323:331,1,140,2|0
152,336,11345,2,0,B|149:257|225:233,1,140
396,228,12240,2,0,B|399:149|323:125,1,140
168,196,13136,6,0,B|186:248|235:274,2,105
132,128,14031,1,0
208,128,14255,2,0,B|208:88,2,35
284,128,14703,2,0,B|284:168,1,35
256,192,14927,12,0,16270
216,304,16718,5,2
216,304,17166,1,2
256,156,17613,5,8
212,68,17837,1,8
124,28,18061,2,0,B|88:20,3,35,8|8|8|8
52,28,18509,6,0,B|19:95|26:169,1,140,4|4
40,240,19181,1,0
88,300,19404,2,0,B|128:308|128:308|164:298|179:267,2,105,2|2|0
40,240,20300,5,2
100,192,20524,1,0
176,196,20748,1,8
252,184,20972,2,0,B|272:148,2,35,2|0|0
288,252,21419,1,0
288,252,21643,1,8
356,216,21867,1,0
392,148,22091,6,0,B|350:85|282:54,1,140,4|8
104,160,22987,2,0,B|146:223|214:254,1,140,2|8
412,304,23882,2,0,B|370:241|302:210,1,140,2|8
172,52,24778,6,0,B|164:16,2,35
232,100,25225,1,8
268,168,25449,1,8
272,176,25561,1,8
276,184,25673,6,0,B|338:155|380:92,1,140,4|8
336,28,26345,1,0
380,92,26569,2,0,B|488:76,2,105,2|2|0
308,120,27464,5,2
280,192,27688,1,0
220,240,27912,1,8
148,212,28136,2,0,B|116:196,2,35,2|0|0
160,288,28584,1,0
220,240,28807,1,8
292,268,29031,1,0
280,192,29255,6,0,B|262:118|213:69,1,140,4|8
116,256,30151,2,0,B|158:319|221:348,1,140,2|8
404,248,31046,2,0,B|447:213|456:159,1,105,4|0
432,132,31494,6,0,B|400:124|400:124|368:104,1,70,12|8
300,32,31942,2,0,B|272:12,2,35,8|0|0
272,128,32390,1,8
248,224,32613,2,0,B|276:244,2,35,8|8|4
256,192,32949,12,8,34181
256,304,34628,6,0,B|329:323|395:304,1,140,4|4
256,80,35524,2,0,B|182:60|116:79,1,140,0|4
60,128,36196,1,0
60,204,36419,2,0,B|112:252,1,70
188,260,36867,2,0,B|256:227|294:170,2,140,4|0|4
324,100,38210,5,0
294,171,38434,1,0
244,112,38658,2,0,B|206:55|138:22,2,140,4|0|4
294,171,39778,1,0
368,192,40001,6,0,B|432:220,1,70
340,272,40449,2,0,B|312:336,1,70,4|0
200,336,40897,2,0,B|176:308,2,35,4|0|0
256,260,41345,1,4
256,260,41793,6,0,B|199:199|242:132,1,140,4|4
284,68,42464,1,0
360,56,42688,1,0
424,100,42912,1,0
416,176,43136,1,4
352,220,43360,6,0,B|368:288,1,70
320,348,43807,1,0
252,312,44031,2,0,B|176:192,2,140,4|0|4
320,348,45151,1,0
368,288,45375,6,0,B|380:237|370:203|370:203|323:170,1,140,0|4
252,148,46046,2,0,B|212:88,1,70
160,148,46494,2,0,B|95:116,1,70,0|4
28,152,46942,1,0
40,228,47166,5,4
340,112,47613,1,4
340,112,47837,5,8
340,112,47949,1,8
340,112,48061,2,0,B|340:180,1,70,4|8
256,268,48509,1,8
172,182,48733,1,8
172,182,48845,1,8
172,182,48957,6,0,B|172:112,1,70,4|0
232,64,49404,2,0,B|292:28,1,70,8|0
368,44,49852,2,0,B|428:80,1,70
472,236,50300,6,0,B|412:272,1,70,8|0
348,316,50748,2,0,B|278:311,1,70,2|0
220,260,51196,2,0,B|165:215,1,70,8|0
136,144,51643,2,0,B|124:104,2,35,0|0|0
212,152,52091,1,8
212,152,52315,1,0
248,84,52539,6,0,B|295:34|368:13,1,140,2|8
448,144,53434,2,0,B|401:194|328:215,1,140,0|8
252,216,54106,1,0
204,156,54330,2,0,B|166:98|98:65,1,140,2|8
96,220,55225,5,0
140,308,55449,1,8
236,288,55673,1,8
192,200,55897,1,0
192,200,56009,1,0
192,200,56121,6,0,B|256:164,1,70,4|0
328,148,56569,2,0,B|365:211,1,70,8|0
440,80,57016,2,0,B|370:82,1,70
440,196,57464,2,0,B|485:142,1,70,8|0
370,82,57912,6,0,B|328:153|252:132,1,140,2|8
192,84,58584,1,0
132,132,58807,2,0,B|72:185|109:258,1,140,2|8
260,288,59703,6,0,B|384:220,1,140,2|8
256,132,60599,2,0,B|132:64,2,140,2|8|4
324,60,61718,6,0,B|352:28,4,35,0|0|8|0|8
256,132,62390,1,4
240,228,62613,1,4
284,316,62837,2,0,B|312:348,3,35,4|4|4|4
344,352,63285,6,0,B|423:355|447:279,1,140,4|8
384,136,64181,2,0,B|305:133|281:209,1,140,2|8
196,340,65076,2,0,B|118:356|81:285,1,140,2|8
124,136,65972,2,0,B|202:120|239:191,1,140,0|8
304,332,66867,6,0,B|372:312,1,70,4|0
384,236,67315,2,0,B|423:176,1,70,8|0
360,132,67763,2,0,B|360:60,1,70
292,24,68210,1,8
220,52,68434,1,0
208,128,68658,2,0,B|188:160|152:174,1,70,0|0
92,216,69106,2,0,B|99:252|128:278,1,70,8|0
196,308,69554,6,0,B|236:296,2,35,8|8|8
256,204,70001,1,8
364,256,70225,1,8
364,256,70337,1,0
364,256,70449,6,0,B|432:222|469:165,1,140,4|8
312,24,71345,2,0,B|244:58|207:115,1,140,2|8
124,308,72240,2,0,B|199:312|260:281,1,140,2|8
432,160,73136,1,0
224,128,73584,1,8
344,32,74031,5,4
344,32,74479,1,8
332,128,74703,1,0
284,212,74927,2,0,B|236:272|236:272|168:272,1,140,2|8
96,272,75598,1,0
48,212,75822,2,0,B|44:129|119:105,1,140,2|4
204,56,76494,6,0,B|236:32,2,35,8|0|8
256,139,76942,2,0,B|295:141,2,35,8|0|8
164,172,77390,1,8
180,268,77613,2,0,B|194:347|271:378|354:361|384:284,1,280,4|0
324,196,78733,5,8
392,116,78957,1,8
324,36,79181,1,8
308,32,79293,1,8
292,32,79404,6,0,B|229:75|201:136,1,140,4|8
156,200,80076,1,0
108,140,80300,2,0,B|124:110|119:71,1,70,2|0
56,28,80748,2,0,B|39:57|44:96,1,70,10|0
32,172,81196,6,0,B|58:194|66:231,1,70,2|2
168,328,81643,2,0,B|141:305|133:268,1,70,10|0
132,192,82091,1,2
180,132,82315,1,0
256,116,82539,1,8
420,248,82987,5,4
420,248,83434,1,8
92,60,83882,1,0
92,60,84330,1,8
132,292,84778,2,0,B|187:353|257:317,1,140,0|8
256,76,85673,6,0,B|264:36,2,35,8|0|8
228,192,86121,1,8
148,104,86345,1,0
148,104,86457,1,0
148,104,86569,6,0,B|96:160|96:160|72:220,1,140,4|8
80,296,87240,1,0
152,324,87464,2,0,B|220:304,1,70,2|0
288,340,87912,5,8
384,324,88136,1,2
440,244,88360,1,2
364,180,88584,1,2
448,128,88807,2,0,B|399:61|326:90,2,140,10|2|8
448,204,89927,1,0
412,272,90151,6,0,B|357:313|282:322,1,140,4|8
100,112,91046,2,0,B|155:71|230:62,1,140,0|8
200,248,91942,1,4
296,152,92278,2,0,B|328:124,1,35,0|4
216,152,92613,6,0,B|184:124,2,35,8|0|8
320,276,93061,1,8
164,316,93285,1,8
144,156,93509,1,8
144,156,93621,1,8
144,156,93733,6,0,B|142:73|65:54,1,140,4|4
4,100,94404,1,0
16,176,94628,2,0,B|48:236,1,70,2|0
124,228,95076,1,8
160,296,95300,1,2
236,284,95524,6,0,B|268:222,1,70,2|0
235,82,95972,2,0,B|268:144,1,70,10|0
269,222,96419,1,2
336,260,96643,1,0
408,232,96867,1,8
235,83,97315,6,0,B|163:48|108:110,1,140,4|8
277,301,98210,2,0,B|349:336|404:274,1,140,0|8
368,124,99106,1,0
144,260,99554,1,8
256,192,100001,6,0,B|224:172,2,35,8|0|8
364,244,100449,1,8
368,124,100673,1,8
368,124,100785,1,8
368,124,100897,6,0,B|298:244,1,140,4|8
228,280,101569,1,0
160,244,101793,2,0,B|96:220,2,70,2|0|8
188,172,102464,1,2
224,104,102688,2,0,B|224:36,2,70,2|2|10
260,172,103360,1,2
308,112,103584,2,0,B|372:65|437:116,1,140,2|8
488,172,104255,1,0
476,248,104479,6,0,B|433:301|363:329,1,140,4|8
36,136,105375,2,0,B|79:83|149:55,1,140,0|8
256,192,106270,1,4
368,220,106606,2,0,B|404:252,1,35,0|4
472,252,106942,1,4
408,128,107166,6,0,B|392:92,2,35,4|0|4
312,148,107613,1,4
224,192,107837,2,0,B|240:228,1,35,4|0
256,192,108061,12,8,109404
256,192,109852,12,0,111643
196,104,124181,6,0,B|184:40|256:8|328:40|316:104,1,209.999993741512,4|4
315,104,125524,1,4
315,104,125972,6,0,B|327:171|315:243,1,140,4|8
240,224,126643,1,0
166,335,126867,2,0,B|154:263|168:196,1,140,0|8
240,224,127539,5,0
228,148,127763,1,2
156,120,127987,1,0
88,156,128210,2,0,B|62:177|53:215,1,70,8|0
220,256,128658,2,0,B|182:247|161:221,1,70,0|0
228,148,129106,2,0,B|256:120|289:116,1,70,8|0
340,176,129554,6,0,B|398:212|474:213,2,140,2|8|0
172,176,130897,2,0,B|113:212|37:213,2,140,8|2|8
256,32,132240,1,0
256,152,132464,1,8
256,32,132688,1,8
256,32,133136,6,0,B|328:32,1,70,4|0
422,104,133584,2,0,B|352:104,1,70,8|0
284,140,134031,1,0
236,200,134255,1,0
236,276,134479,1,8
288,332,134703,1,0
348,284,134927,6,0,B|380:222|445:184,1,140,2|8
384,136,135598,1,0
384,136,135822,2,0,B|352:74|287:36,1,140,2|8
220,108,136494,5,0
200,204,136718,2,0,B|168:266|103:304,2,140,2|8|0
120,72,138061,1,8
320,292,138509,6,0,B|348:316|348:316|380:324,1,70,4|0
384,248,138957,2,0,B|401:200,2,35,8|0|8
292,216,139404,1,8
260,124,139628,1,8
204,44,139852,2,0,B|172:32,2,35,8|0|8
328,68,140300,6,0,B|397:76|455:124,1,140,4|8
428,196,140972,1,0
356,224,141196,2,0,B|300:265|274:335,1,140,2|8
200,356,141867,1,0
172,284,142091,2,0,B|146:214|90:173,1,140,2|8
40,88,142763,5,0
40,88,142987,1,0
96,36,143210,1,0
156,84,143434,1,8
216,36,143658,1,0
276,84,143882,6,0,B|261:120|270:152,1,70,4|0
344,176,144330,2,0,B|353:208|338:244,1,70,8|0
280,296,144778,2,0,B|244:281|212:290,1,70,0|0
172,356,145225,2,0,B|99:374|34:352,2,140,8|0|8
392,180,146569,6,0,B|416:144,2,35,8|8|8
328,280,147016,1,8
248,192,147240,1,8
248,192,147352,1,8
248,192,147464,6,0,B|314:147|288:69,1,140,4|8
212,112,148136,1,0
176,32,148360,2,0,B|110:77|136:155,1,140,2|8
212,112,149031,1,0
212,112,149255,2,0,B|263:47|336:78,1,140,2|8
368,148,149927,6,0,B|382:183|411:200,1,70
332,256,150375,2,0,B|318:221|288:204,2,70,0|8|0
392,304,151046,2,0,B|448:263|474:193,1,140,4|8
424,100,151718,1,0
344,168,151942,2,0,B|204:168,1,140,0|8
128,168,152613,1,0
76,84,152837,5,4
316,300,153285,1,4
412,320,153509,6,0,B|432:348,2,35,8|0|8
316,300,153957,1,8
256,224,154181,2,0,B|248:188,4,35,8|0|8|0|4
256,192,154740,12,8,155972
256,300,156419,6,0,B|208:324|160:308|160:308|136:276,1,140,4|8
96,208,157091,1,0
68,136,157315,2,0,B|116:79|183:59,1,140,2|10
248,100,157987,6,0,B|312:132,1,70,0|2
396,180,158434,2,0,B|464:180,2,70,2|10|2
396,80,159106,1,2
396,180,159330,1,0
310,131,159554,1,8
168,264,160001,6,0,B|173:343|254:360,1,140,4|8
256,192,160897,2,0,B|251:113|170:96,1,140,0|8
336,64,161793,1,0
444,192,162240,1,8
336,320,162688,6,0,B|304:344,2,35,8|0|8
308,204,163136,1,8
196,244,163360,1,8
196,244,163472,1,8
196,244,163584,6,0,B|189:169|222:108,1,140,4|8
284,64,164255,1,0
222,108,164479,2,0,B|162:143|130:212,1,140,2|8
134,288,165151,1,2
196,244,165375,6,0,B|256:208,1,70,2|2
328,232,165822,2,0,B|315:301,1,70,10|0
312,156,166270,2,0,B|344:87|404:52,1,140,2|8
484,120,166942,1,0
404,52,167166,5,4
404,52,167613,1,8
108,180,168061,1,0
108,180,168509,1,8
324,240,168957,2,0,B|384:276|384:276|424:336,1,140,4|4
480,272,169628,6,0,B|492:236,2,35,8|0|8
324,240,170076,1,8
380,92,170300,1,8
228,136,170524,1,8
228,136,170636,1,8
228,136,170748,6,0,B|192:96|136:96|136:96|108:120,1,140,4|8
64,184,171419,1,0
64,260,171643,2,0,B|76:328,1,70,2|0
148,300,172091,2,0,B|200:344,1,70,8|2
204,248,172539,6,0,B|192:180,1,70,2|2
268,164,172987,2,0,B|312:111,1,70,10|2
352,44,173434,1,2
428,32,173658,1,0
464,100,173882,1,8
348,276,174330,6,0,B|323:204|267:162,1,140,4|8
96,44,175225,2,0,B|46:101|37:171,1,140,0|8
196,308,176121,2,0,B|263:341|333:332,2,140,0|8|0
188,296,177128,5,0
184,284,177240,1,8
212,168,177464,1,8
312,232,177688,1,8
312,232,177800,1,8
312,232,177912,6,0,B|255:282|185:291,1,140,4|8
120,252,178584,1,0
84,184,178807,2,0,B|143:137|165:69,1,140,2|8
224,24,179479,1,2
284,72,179703,2,0,B|326:126|398:149,2,140,2|10|2
224,24,180822,1,0
196,96,181046,1,8
224,168,181270,1,0
300,156,181494,6,0,B|381:143|413:216,1,140,4|8
356,268,182166,2,0,B|323:280|303:312,1,70
209,312,182613,2,0,B|189:280|156:268,2,70,0|8|0
256,372,183285,2,0,B|256:232,1,140,4|4
316,128,183957,5,8
220,148,184181,2,0,B|192:180,2,35,8|0|8
176,60,184628,2,0,B|140:44,3,35,8|0|8|0
336,60,185524,5,8
316,164,185748,2,0,B|340:188,2,35,0|8|8
192,64,186307,2,0,B|168:40,1,35,8|8
224,152,186643,1,4
260,244,186867,1,4
256,192,186979,12,6,188658
