osu file format v9

[General]
AudioFilename: Kimi no WIND SONG.mp3
AudioLeadIn: 2000
PreviewTime: 79172
Countdown: 0
SampleSet: Soft
StackLeniency: 0.7
Mode: 0
LetterboxInBreaks: 0

[Editor]
Bookmarks: 590,14918,34619,63276,79395,93724,111858,140291,156410,170739,188649
DistanceSpacing: 0.8
BeatDivisor: 4
GridSize: 4

[Metadata]
Title:Kimi no WIND SONG
Artist:Aoyama Misao
Creator:kosiga
Version:Collab
Source:Osu! Banchou 2
Tags:daito giken mythol

[Difficulty]
HPDrainRate:7
CircleSize:4
OverallDifficulty:7
ApproachRate:8
SliderMultiplier:1.8
SliderTickRate:1

[Events]
//Background and Video events
0,0,"BG.jpg"
//Break Periods
2,111843,122087
//Storyboard Layer 0 (Background)
//Storyboard Layer 1 (Fail)
//Storyboard Layer 2 (Pass)
//Storyboard Layer 3 (Foreground)
Sprite,Foreground,Centre,"mythol.png",320,240 M,0,-72,,140,90 F,0,-72,375,0,1 F,0,14479,14927,1,0 F,0,34404,34628,0,1 F,0,62837,63061,1,0 F,0,79181,79404,0,1 F,0,93285,93509,1,0 F,0,140076,140300,0,1 F,0,155524,155972,1,0 F,0,170524,170748,0,1 F,0,188210,188658,1,0
Sprite,Foreground,Centre,"kosiga.png",320,240 M,0,16270,,140,90 F,0,16270,16718,0,1 F,0,34181,34404,1,0 F,0,63061,63285,0,1 F,0,78957,79181,1,0 F,0,93509,93733,0,1 F,0,111419,111867,1,0 F,0,122390,122837,0,1 F,0,139852,140076,1,0 F,0,156196,156419,0,1 F,0,170300,170524,1,0
//Storyboard Sound Samples
//Background Colour Transformations
3,100,163,162,255

[TimingPoints]
599,447.761194029851,4,2,2,50,1,0
7315,-100,4,2,2,60,0,0
7763,-100,4,2,2,70,0,0
12688,-100,4,2,2,80,0,0
14927,-100,4,2,2,30,0,0
16270,-100,4,2,2,10,0,0
16606,-100,4,2,2,40,0,0
17501,-100,4,2,1,60,0,0
17949,-100,4,2,1,60,0,0
18509,-100,4,2,1,70,0,1
18621,-100,4,2,1,70,0,0
24666,-100,4,2,2,70,0,0
25337,-100,4,2,1,70,0,0
30934,-100,4,2,2,70,0,0
31158,-100,4,2,1,70,0,0
32278,-100,4,2,2,70,0,0
32501,-100,4,2,1,70,0,0
32837,-200,4,2,1,40,0,0
33285,-200,4,2,1,5,0,0
33733,-200,4,2,1,40,0,0
34069,-200,4,1,1,30,0,0
34628,-100,4,2,1,60,0,0
34740,-100,4,2,2,40,0,0
41681,-100,4,2,1,50,0,0
41904,-100,4,2,2,40,0,0
47054,-100,4,2,1,50,0,0
47501,-100,4,2,1,60,0,0
48845,-100,4,2,1,70,0,0
55337,-100,4,2,1,60,0,0
55561,-100,4,2,1,70,0,0
61606,-100,4,2,1,50,0,0
62278,-100,4,2,2,30,0,0
62501,-100,4,2,2,40,0,0
62725,-100,4,2,2,50,0,0
63285,-100,4,2,1,70,0,0
77613,-133.333333333333,4,2,1,70,0,0
78509,-100,4,2,1,30,0,0
78621,-100,4,2,1,50,0,0
78845,-100,4,2,2,70,0,0
79069,-100,4,2,1,70,0,0
79404,-100,4,2,1,90,0,1
79516,-100,4,2,1,80,0,1
86009,-100,4,2,2,70,0,1
86233,-100,4,2,1,80,0,1
91830,-100,4,2,2,60,0,1
92725,-100,4,2,1,70,0,1
93285,-100,4,2,2,70,0,0
93397,-100,4,2,1,70,0,0
93733,-100,4,2,1,90,0,1
93845,-100,4,2,1,80,0,1
100337,-100,4,2,2,70,0,1
100561,-100,4,2,1,80,0,1
106158,-100,4,2,2,60,0,1
106494,-100,4,2,1,70,0,1
106830,-100,4,2,2,60,0,1
108061,-100,4,2,2,60,0,0
109404,-100,4,2,2,70,0,1
109852,-100,4,2,1,70,0,1
110300,-100,4,2,2,60,0,1
110748,-100,4,2,2,50,0,1
111196,-100,4,2,2,40,0,1
111643,-100,4,2,2,5,0,0
122725,-100,4,2,1,60,0,0
122949,-100,4,1,1,50,0,0
123621,-100,4,2,2,60,0,0
124181,-200,4,2,0,50,0,0
125076,-100,4,2,2,50,0,0
125860,-100,4,2,1,70,0,0
132352,-100,4,2,1,60,0,0
132576,-100,4,2,1,70,0,0
139516,-100,4,2,1,80,0,0
140412,-100,4,2,1,70,0,0
152837,-100,4,2,1,50,0,0
154740,-100,4,2,2,60,0,0
155972,-100,4,2,2,70,0,0
156419,-100,4,2,1,90,0,1
156531,-100,4,2,1,80,0,1
163024,-100,4,2,2,70,0,1
163248,-100,4,2,1,80,0,1
168845,-100,4,2,2,60,0,1
169404,-100,4,2,1,70,0,1
170300,-100,4,2,2,70,0,0
170412,-100,4,2,1,70,0,0
170748,-100,4,2,1,90,0,1
170860,-100,4,2,1,80,0,1
177352,-100,4,2,2,70,0,1
177576,-100,4,2,1,80,0,1
183173,-100,4,2,2,50,0,1
184069,-100,4,2,1,80,0,1
184964,-100,4,2,1,50,0,1
185860,-100,4,2,1,70,0,1
186867,-100,4,2,1,50,0,1
188658,-100,4,2,1,50,0,0

[Colours]
Combo1 : 255,134,134
Combo2 : 128,255,128
Combo3 : 255,164,209
Combo4 : 128,255,255

[HitObjects]
24,284,375,1,0
24,284,487,1,0
24,284,599,2,0,B|124:336|204:244,1,180,4|4
240,164,1270,1,0
324,232,1494,2,0,B|364:256|416:240,1,90,4|0
452,224,1830,2,0,B|500:176|496:72,1,135,0|0
400,28,2390,5,4
296,84,2613,1,0
184,48,2837,2,0,B|136:36|88:72,2,90,4|0|4
108,268,3733,1,4
184,316,3957,5,0
184,316,4069,1,0
184,316,4181,2,0,B|236:340|292:320,1,90,4|0
306,316,4516,1,0
328,68,4852,5,0
328,68,4964,1,0
328,68,5076,2,0,B|276:44|220:64,1,90,4|0
207,73,5412,1,0
112,168,5748,5,0
104,212,5860,1,0
101,255,5972,2,0,B|93:303|117:351,1,90,4|0
248,352,6419,2,0,B|256:304|232:256,1,90,4|0
252,176,6867,2,0,B|272:116,3,45,6|0|0|0
292,96,7315,2,0,B|352:68,3,45,6|0|0|0
376,72,7763,6,0,B|468:116|464:252,1,180,4|4
404,308,8434,1,0
300,276,8658,2,0,B|248:256|200:280,1,90,4|0
168,268,8994,2,0,B|120:212|132:136,1,135
184,72,9554,5,4
264,28,9778,1,0
264,116,10001,1,4
348,80,10225,1,0
348,80,10337,2,0,B|360:160|436:228,1,135
480,256,10897,1,4
368,324,11121,5,0
368,324,11233,1,0
368,324,11345,2,0,B|276:276|184:320,1,180,4|4
108,296,12016,5,0
28,254,12240,1,4
41,167,12464,1,0
128,154,12688,1,4
168,233,12912,1,0
41,167,13136,6,0,B|2:98|34:10,1,135,4|4
244,120,13807,1,4
244,120,14031,2,0,B|283:189|251:277,1,135,4|4
247,285,14479,1,4
152,337,14703,1,4
116,329,14815,1,4
256,192,14927,12,0,16270
164,108,16718,5,2
164,108,17166,1,2
404,328,17613,1,8
288,276,17837,1,8
288,148,18061,1,8
288,136,18173,1,8
288,124,18285,1,8
288,112,18397,1,8
288,100,18509,6,0,B|296:53|340:24|394:18|430:47,1,180,4|8
484,120,19181,1,0
484,120,19404,2,0,B|444:148|440:196,1,90,2|0
420,236,19740,1,2
380,256,19852,2,0,B|351:216|303:212,1,90,0|0
188,356,20300,5,2
100,264,20524,1,0
224,236,20748,1,8
100,352,20972,1,2
100,352,21084,1,0
100,352,21196,1,0
148,192,21419,1,0
264,312,21643,1,8
416,312,21867,1,0
416,312,22091,6,0,B|416:220,1,90,4|0
416,184,22427,1,0
416,148,22539,1,8
304,184,22763,1,0
304,68,22987,2,0,B|392:68,1,90,2|0
432,68,23322,1,0
468,68,23434,1,8
416,222,23658,5,0
408,244,23770,1,0
396,264,23882,2,0,B|338:342|241:350,1,180,2|8
117,225,24554,1,0
256,265,24778,1,0
256,265,24890,1,0
256,265,25001,1,0
252,176,25225,1,8
172,296,25449,1,8
167,151,25673,6,0,B|152:60|152:60|64:44,1,180,4|8
16,120,26345,1,0
40,208,26569,1,2
84,288,26793,2,0,B|93:311|114:324,1,45,0|2
156,328,27016,2,0,B|177:283|224:271,1,90,8|0
436,192,27464,6,0,B|414:236|367:248,1,90,2|0
288,200,27912,1,8
240,124,28136,1,2
216,104,28248,1,0
184,104,28360,1,0
136,232,28584,1,0
224,276,28807,6,0,B|220:318|173:358|113:351|86:318,1,180,8|4
288,108,29703,2,0,B|292:66|339:26|399:33|426:66,1,180,0|0
376,152,30375,1,0
136,152,30599,1,8
256,284,30822,1,0
256,108,31046,5,4
256,108,31382,1,0
256,108,31494,2,0,B|256:200,1,90,12|0
256,211,31830,1,8
256,224,31942,1,8
256,237,32054,1,8
256,250,32166,1,8
188,174,32390,2,0,B|188:82,1,90,8|8
188,84,32725,1,8
188,84,32837,6,0,B|212:16|300:16|324:84,1,180,4|8
472,52,34181,1,0
436,32,34293,1,0
400,24,34404,1,0
364,32,34516,1,0
332,52,34628,6,0,B|308:100|344:164,1,90,4|0
400,200,35076,2,0,B|424:248|388:312,1,90,4|0
372,320,35412,2,0,B|312:368|220:336,1,135
212,256,35972,2,0,B|168:228|108:252,1,90,4|0
44,288,36419,5,0
4,188,36643,1,0
48,88,36867,2,0,B|88:56|140:72,1,90,4|0
168,96,37203,2,0,B|244:112|300:56,1,135
396,36,37763,1,4
396,36,37875,1,0
396,36,37987,1,0
448,132,38210,6,0,B|468:184|448:236,1,90,0|0
360,296,38658,2,0,B|340:244|360:192,1,90,4|0
328,168,38994,2,0,B|272:116|192:144,1,135
124,184,39554,1,4
48,140,39778,1,0
44,228,40001,6,0,B|20:280|36:344,1,90
108,360,40449,1,4
188,316,40673,1,0
188,316,40785,2,0,B|256:284|360:308,1,135
412,292,41345,2,0,B|460:308,2,45,4|0|0
384,256,41681,1,0
372,212,41793,6,0,B|352:164|368:112,1,90,4|0
410,25,42240,1,4
304,48,42464,1,0
304,48,42576,2,0,B|232:28|168:68,1,135
132,168,43136,2,0,B|184:188|240:148,1,90,4|0
308,164,43584,6,0,B|360:176|396:232,1,90
288,264,44031,2,0,B|252:304|180:296,1,90,4|0
160,296,44367,1,0
117,280,44479,2,0,B|65:258,2,45
172,196,44927,1,4
288,264,45151,1,0
232,116,45375,6,0,B|304:56|416:88,1,180,0|4
476,136,46046,1,0
400,188,46270,2,0,B|320:232|320:344,1,180,0|4
216,308,46942,1,0
112,340,47166,6,0,B|68:316|60:252,1,90,4|0
164,228,47613,2,0,B|192:184|176:124,1,90,4|8
168,100,47949,1,8
140,64,48061,2,0,B|76:40,2,45,4|0|8
268,24,48509,1,8
388,84,48733,1,8
328,152,48957,6,0,B|308:204|328:264,1,90,4|0
240,280,49404,2,0,B|220:328|160:340,1,90,8|0
132,324,49740,2,0,B|64:292|-4:320,1,135
61,239,50300,2,0,B|81:191|57:135,1,90,8|0
5,69,50748,5,2
96,28,50972,1,0
168,96,51196,1,8
252,148,51419,1,0
252,148,51531,2,0,B|312:188|388:168,1,135
476,140,52091,2,0,B|504:100,2,45,8|0|0
436,232,52539,6,0,B|432:336|332:376,1,180,2|8
260,336,53210,1,0
180,296,53434,2,0,B|132:316|80:292,1,90
240,230,53882,2,0,B|288:210|340:234,1,90,8|0
165,212,54330,6,0,B|149:168|169:112,1,90,2|0
244,64,54778,1,8
312,124,55001,1,0
312,124,55113,2,0,B|380:156|452:124,1,135,0|8
396,52,55673,2,0,B|344:136|404:236,1,180,8|4
460,288,56345,5,0
312,216,56569,2,0,B|264:200|216:216,1,90,8|0
228,168,56904,2,0,B|260:96|232:24,1,135
152,68,57464,2,0,B|100:88|60:64,1,90,8|0
16,172,57912,6,0,B|-20:268|40:360,1,180,2|8
152,308,58584,1,0
224,204,58807,2,0,B|260:108|200:16,1,180,2|8
60,96,59479,5,0
60,96,59591,1,0
60,96,59703,2,0,B|104:124|168:104,1,90,2|0
212,44,60151,1,8
258,170,60375,1,0
379,111,60599,2,0,B|407:79|411:23,1,90,2|0
258,170,61046,2,0,B|286:214|358:206,1,90,8|0
359,313,61494,6,0,B|435:293|459:189,2,135,4|0|8
316,328,62278,1,0
276,308,62390,2,0,B|240:284,3,45,8|0|4|0
196,296,62837,2,0,B|158:320,3,45,4|4|4|4
116,304,63285,6,0,B|47:233|55:137,1,180,4|8
100,60,63957,1,0
192,60,64181,2,0,B|372:60,1,180,2|8
436,124,64852,1,0
404,208,65076,6,0,B|383:253|336:265,1,90,2|0
108,208,65524,2,0,B|129:253|176:265,1,90,8|0
212,264,65860,1,0
248,264,65972,1,0
236,136,66196,1,0
108,208,66419,1,8
168,344,66643,1,0
296,272,66867,6,0,B|372:224,1,90,4|0
184,160,67315,2,0,B|108:208,1,90,8|0
212,56,67763,2,0,B|304:56,1,90
376,108,68210,1,8
444,168,68434,1,0
308,260,68658,1,0
308,168,68882,1,0
444,260,69106,1,8
376,320,69330,1,0
376,228,69554,5,8
376,204,69666,1,8
376,180,69778,1,8
240,320,70001,1,8
240,208,70225,1,8
164,292,70449,6,0,B|92:358|-4:349,1,180,4|8
32,236,71121,1,0
32,236,71345,2,0,B|104:170|200:179,1,180,2|8
264,240,72016,1,0
352,216,72240,2,0,B|438:170|462:80,2,180,2|8|0
256,64,73584,5,8
256,320,74031,1,4
256,320,74479,5,8
176,276,74703,1,0
140,192,74927,2,0,B|161:147|208:135,1,90
348,216,75375,1,8
416,156,75598,2,0,B|449:123|445:74,1,90,0|2
296,140,76046,1,0
440,248,76270,5,4
276,248,76494,1,8
264,248,76606,1,8
252,248,76718,1,8
240,248,76830,1,8
228,248,76942,1,8
224,336,77166,1,8
212,336,77278,1,8
200,336,77390,1,8
188,336,77501,1,8
176,336,77613,6,0,B|88:324|64:248|88:172|176:160,1,269.999991953373,4|0
196,248,78733,1,8
44,152,78957,1,8
176,336,79181,5,8
176,336,79293,1,8
176,336,79404,2,0,B|276:350|337:258,1,180,4|8
352,144,80076,2,0,B|396:120|448:136,1,90,0|2
500,244,80524,1,2
500,244,80636,1,2
500,244,80748,1,8
440,312,80972,6,0,B|396:332|348:304,1,90,2|2
320,224,81419,2,0,B|272:192|220:224,1,90,2|10
172,284,81867,1,2
140,312,81979,1,2
100,328,82091,2,0,B|40:328,2,45
96,200,82539,1,8
180,108,82763,5,0
180,108,82875,1,0
180,108,82987,2,0,B|216:68|272:72,1,90,4|0
304,76,83322,1,0
408,164,83658,1,0
408,164,83770,1,0
408,164,83882,2,0,B|372:204|316:200,1,90,2|0
284,196,84218,1,0
136,316,84554,6,0,B|64:316,2,45,0|0|2
208,212,85001,1,0
124,116,85225,1,8
204,16,85449,1,0
304,52,85673,5,8
316,64,85785,1,0
328,76,85897,1,8
436,84,86121,1,8
412,188,86345,1,0
400,200,86457,1,0
388,212,86569,6,0,B|348:240|348:312,1,90,4|0
292,380,87016,2,0,B|252:352|252:280,1,90,8|0
196,232,87464,2,0,B|152:204|92:220,1,90,2|0
64,220,87800,2,0,B|16:168|32:92,1,135,2|2
164,32,88360,5,2
120,132,88584,1,2
228,120,88807,2,0,B|280:108|328:144,1,90,10|2
351,161,89143,1,2
378,197,89255,2,0,B|413:256,2,45
257,235,89703,1,8
338,331,89927,5,0
380,346,90039,1,0
424,343,90151,2,0,B|475:340|506:299,1,90,4|0
476,266,90487,2,0,B|443:201|468:106,1,135
384,58,91046,2,0,B|305:144,1,90
128,58,91494,2,0,B|207:144,1,90,8|0
190,293,91942,2,0,B|255:325|333:290,2,135,4|4|4
155,190,92837,5,8
255,114,93061,1,8
353,193,93285,1,8
255,273,93509,1,8
255,273,93621,1,8
255,273,93733,5,4
360,84,94181,1,4
256,32,94404,1,0
152,84,94628,1,2
180,168,94852,1,2
180,168,94964,2,0,B|244:195|313:191,1,135,2|2
148,248,95524,6,0,B|108:225|62:225,1,90,2|2
172,332,95972,2,0,B|212:355|258:355,1,90,10|2
300,340,96307,1,2
320,300,96419,2,0,B|341:255|388:243,2,90,0|0|8
404,332,97091,1,0
272,208,97315,6,0,B|212:140,1,90,4|0
168,132,97651,2,0,B|136:164,1,45,0|8
32,132,97987,1,0
32,132,98098,1,0
32,132,98210,2,0,B|92:64,1,90,2|0
124,32,98546,1,0
168,24,98658,2,0,B|213:19|255:39,1,90,8|0
288,124,99106,5,2
376,104,99330,1,0
408,188,99554,1,8
320,208,99778,1,0
288,124,100001,5,8
288,124,100113,1,0
288,124,100225,1,8
480,188,100449,1,8
408,84,100673,1,0
360,228,100897,6,0,B|323:319|232:351,1,180,4|8
144,340,101569,2,0,B|100:324|83:277,1,90,0|2
140,208,102016,1,2
140,208,102128,1,2
140,208,102240,2,0,B|183:192|200:145,1,90,8|2
144,44,102688,6,0,B|100:60|83:107,1,90,2|2
140,208,103136,1,10
220,292,103360,1,2
220,292,103472,2,0,B|279:331|347:301,1,135,2|0
348,132,104031,1,8
288,240,104255,1,0
408,172,104479,6,0,B|439:133|424:72|371:44|326:63,1,180,4|8
256,196,105151,1,0
104,212,105375,2,0,B|73:251|88:312|141:340|186:321,1,180,0|8
256,264,106046,1,0
276,176,106270,6,0,B|293:129|337:113,1,90,4|0
336,113,106606,1,0
336,113,106718,1,4
397,241,106942,2,0,B|420:279,2,45,4|0|4
414,156,107390,1,4
310,253,107613,2,0,B|287:291,3,45,4|0|6|4
125,218,108733,6,0,B|148:256,2,45,0|4|4
136,100,109181,1,4
248,76,109404,1,8
256,192,109628,1,2
256,192,109740,1,0
256,192,109852,1,4
256,192,109964,12,0,111643
256,88,122837,5,4
268,176,123061,1,0
272,204,123173,1,0
276,232,123285,1,0
280,260,123397,1,0
284,288,123509,1,0
420,336,123733,1,8
420,336,124181,6,0,B|471:300|478:220|433:176,1,180,4|4
434,177,125524,1,4
434,177,125972,6,0,B|401:144|356:132,1,90,4|0
268,116,126419,1,8
220,192,126643,1,0
144,240,126867,2,0,B|99:228|66:195,1,90
220,192,127315,2,0,B|265:204|298:237,1,90,8|0
452,284,127763,2,0,B|443:333|402:356,1,90,2|0
297,236,128210,2,0,B|305:186|346:163,1,90,8|0
448,128,128658,5,0
448,128,128770,1,0
448,128,128882,1,0
292,316,129106,1,8
112,328,129330,1,0
196,260,129554,6,0,B|249:178|223:84,2,180,2|8|0
116,300,130673,2,0,B|32:328,1,90,0|8
152,196,131121,2,0,B|236:168,1,90,0|2
324,140,131569,1,0
408,172,131793,1,8
368,252,132016,2,0,B|348:292,2,45,0|0|0
412,356,132464,1,8
300,212,132688,1,8
328,124,132912,1,0
328,124,133024,1,0
328,124,133136,6,0,B|340:78|373:46,1,90,4|0
476,148,133584,2,0,B|464:194|431:226,1,90,8|0
388,236,133919,1,0
352,208,134031,2,0,B|307:121|213:96,1,180,0|8
132,128,134703,1,0
84,204,134927,1,2
84,204,135375,5,8
176,204,135598,1,0
264,204,135822,2,0,B|356:204,2,90,0|0|8
220,284,136494,1,0
220,124,136718,6,0,B|202:66|119:36|69:69,1,180,2|8
112,188,137390,1,0
4,252,137613,2,0,B|22:310|105:340|155:307,1,180,2|8
256,232,138285,1,0
320,340,138509,5,4
444,356,138733,2,0,B|466:317,5,45,0|0|8|8|8|8
484,276,139404,1,8
336,236,139628,1,8
232,360,139852,1,8
212,236,140076,1,8
327,333,140300,6,0,B|408:343|476:267,2,135,4|2|2
185,333,141196,2,0,B|104:343|36:267,2,135,2|2|2
149,211,142091,1,2
255,143,142315,1,0
363,211,142539,1,8
418,281,142763,5,0
418,281,142875,1,0
418,281,142987,2,0,B|465:308|514:292,1,90
469,154,143434,2,0,B|422:127|373:143,1,90,8|0
335,62,143882,6,0,B|234:33|166:122,1,180,4|8
172,248,144554,1,0
304,217,144778,2,0,B|405:188|473:277,1,180,0|8
495,352,145449,1,0
386,352,145673,2,0,B|291:318,1,90,0|0
210,321,146121,2,0,B|126:352,1,90,8|0
55,295,146569,5,8
32,266,146681,1,8
22,231,146793,1,8
25,195,146904,1,8
36,160,147016,1,8
112,83,147240,1,8
112,83,147352,1,8
112,83,147464,6,0,B|184:65|249:112,2,135,4|2|2
165,177,148360,2,0,B|231:209|251:287,2,135,2|2|2
37,133,149255,1,2
11,265,149479,1,0
145,277,149703,1,8
175,145,149927,1,0
251,97,150151,2,0,B|293:70|343:85,1,90
423,176,150598,2,0,B|381:203|331:188,1,90,8|0
247,200,151046,6,0,B|212:248|248:288|280:324|248:372,1,180,4|8
172,324,151718,1,0
324,244,151942,2,0,B|400:236|448:292,2,135,2|2|2
256,192,152837,12,4,154628
256,192,154740,12,8,155972
188,244,156419,5,4
320,68,156867,1,8
276,168,157091,1,0
176,124,157315,2,0,B|148:84|107:66,1,90,2|2
108,66,157651,1,2
108,66,157763,1,0
32,116,157987,1,2
52,204,158210,6,0,B|90:231|138:218,1,90,2|0
312,164,158658,2,0,B|263:151|225:178,1,90,10|2
282,248,159106,1,2
396,220,159330,1,0
380,104,159554,1,8
396,220,159778,1,0
312,164,160001,6,0,B|275:74|187:42,1,180,4|8
200,220,160897,2,0,B|237:310|325:342,2,180,2|8|2
200,220,162240,1,8
224,132,162464,1,0
108,220,162688,5,8
108,220,162800,1,0
108,220,162912,1,8
180,356,163136,1,8
328,312,163360,1,0
308,224,163584,6,0,B|294:164|351:97|411:100,1,180,4|8
496,124,164255,1,0
500,216,164479,2,0,B|496:262|455:290,1,90,2|0
416,312,164815,2,0,B|349:342|288:300,1,135,2|2
148,148,165375,5,2
212,212,165598,1,2
276,148,165822,1,10
340,212,166046,1,2
340,212,166158,2,0,B|308:273|252:315,1,135,2|0
172,276,166718,1,8
112,344,166942,1,0
48,280,167166,6,0,B|27:235|32:191,1,90,4|0
32,192,167501,1,0
32,192,167613,1,8
68,108,167837,2,0,B|44:72,2,45
132,172,168285,1,0
159,257,168509,1,8
277,171,168733,1,0
204,119,168957,1,4
204,119,169293,5,4
204,119,169404,1,4
249,257,169628,1,8
380,148,169852,1,8
408,272,170076,2,0,B|396:316|350:337,1,90,8|8
380,148,170524,6,0,B|404:112,2,45,8|8|4
156,300,171196,2,0,B|76:240|96:136,1,180,4|2
178,73,171867,1,2
178,73,171979,1,2
178,73,172091,1,8
263,139,172315,1,2
358,87,172539,6,0,B|407:70|453:87,1,90,2|2
403,184,172987,2,0,B|419:236|401:288,2,90,10|2|2
263,139,173658,1,0
167,246,173882,1,8
72,133,174106,5,0
72,133,174218,1,0
72,133,174330,2,0,B|106:95|157:99,1,90,4|0
188,98,174666,1,0
167,246,175001,1,0
167,246,175113,1,0
167,246,175225,2,0,B|206:284|266:282,1,90,2|0
283,281,175561,1,0
407,199,175897,6,0,B|451:171,2,45,0|0|2
319,120,176345,1,0
230,196,176569,1,8
139,121,176793,1,0
56,202,177016,1,8
28,225,177128,1,8
15,258,177240,1,8
12,366,177464,1,8
115,335,177688,5,0
146,351,177800,1,0
181,356,177912,2,0,B|231:379|268:348|303:321|361:354,2,180,4|8|2
213,272,179031,2,0,B|253:229,1,45,0|2
285,221,179255,2,0,B|331:199|394:225,1,90,8|2
480,203,179703,6,0,B|505:163|489:99,1,90,2|2
411,43,180151,2,0,B|339:22|285:60,1,90,10|2
282,62,180487,1,2
238,51,180598,2,0,B|213:41|185:55,2,45,2|0|0
240,177,181046,1,8
126,232,181270,5,0
126,232,181382,1,0
126,232,181494,2,0,B|75:249|16:221,1,90,4|0
8,195,181830,2,0,B|-12:120|19:60,1,135
116,108,182390,2,0,B|166:121|209:104,1,90
318,193,182837,2,0,B|268:206|225:189,1,90,8|0
127,293,183285,6,0,B|196:327|273:284,2,135,4|4|4
48,218,184181,1,8
48,218,184293,1,0
48,218,184404,1,8
129,146,184628,1,8
165,146,184740,1,8
201,146,184852,1,8
237,146,184964,1,0
368,324,185748,5,2
368,324,185860,1,8
368,324,185972,2,0,B|448:308|468:220,2,135,8|8|8
256,192,186867,12,6,188658
