osu file format v9

[General]
AudioFilename: 01 Distance In Your Love.mp3
AudioLeadIn: 2500
PreviewTime: 215604
Countdown: 0
SampleSet: Soft
StackLeniency: 0.7
Mode: 0
LetterboxInBreaks: 0
EpilepsyWarning: 1

[Editor]
Bookmarks: 94556,184556,198611,215395,243926
DistanceSpacing: 0.8
BeatDivisor: 4
GridSize: 4

[Metadata]
Title:Distance In Your Love
Artist:Aoyama Misao
Creator:kosiga
Version:Normal
Source:Daito music
Tags:osu! banchou giken

[Difficulty]
HPDrainRate:2
CircleSize:3
OverallDifficulty:3
ApproachRate:4
SliderMultiplier:1.2
SliderTickRate:1

[Events]
//Background and Video events
0,0,"wallpaper-623419.jpg"
//Break Periods
2,795,5988
2,94780,106687
2,168627,173820
2,184781,197316
//Storyboard Layer 0 (Background)
//Storyboard Layer 1 (Fail)
//Storyboard Layer 2 (Pass)
//Storyboard Layer 3 (Foreground)
//Storyboard Sound Samples
//Background Colour Transformations
3,100,163,162,255

[TimingPoints]
595,419.58041958042,4,2,1,90,1,0
7622,-100,4,2,1,40,0,0
12238,-100,4,1,1,90,0,0
12448,-100,4,2,1,90,0,0
13916,-100,4,1,1,90,0,0
14126,-100,4,2,1,90,0,0
15595,-100,4,1,1,70,0,0
17692,-100,4,1,1,80,0,0
18112,-100,4,1,1,50,0,0
18322,-100,4,1,1,60,0,0
18532,-100,4,1,1,70,0,0
18741,-100,4,1,1,80,0,0
18951,-100,4,1,1,90,0,0
19476,-100,4,1,1,100,0,0
23147,-100,4,2,1,60,0,0
23986,-100,4,2,2,80,0,0
24091,-100,4,2,2,80,0,1
24196,-100,4,2,2,80,0,0
36783,-100,4,2,2,70,0,0
36993,-100,4,2,2,60,0,0
37203,-100,4,2,2,50,0,0
37413,-100,4,2,2,40,0,0
39091,-100,4,1,1,70,0,0
39511,-100,4,2,1,70,0,0
51469,-100,4,2,2,60,0,0
52098,-100,4,2,2,70,0,0
52308,-100,4,2,2,80,0,0
52727,-100,4,2,1,70,0,0
57657,-100,4,2,1,50,0,0
59231,-100,4,2,1,70,0,0
62588,-100,4,1,1,40,0,0
63007,-100,4,1,1,50,0,0
63427,-100,4,1,1,60,0,0
63846,-100,4,1,1,70,0,0
64266,-100,4,1,1,80,0,0
65734,-100,4,1,1,70,0,0
65944,-100,4,1,1,60,0,0
67622,-100,4,1,1,70,0,0
67727,-100,4,1,1,70,0,1
67832,-100,4,2,1,80,0,1
73497,-100,4,1,1,50,0,1
73706,-100,4,2,1,80,0,1
77692,-100,4,2,2,60,0,1
77797,-100,4,2,2,60,0,0
79371,-100,4,2,1,70,0,0
79790,-100,4,2,2,50,0,0
81049,-100,4,2,1,80,0,0
81154,-100,4,2,1,80,0,1
86923,-100,4,2,2,80,0,1
87762,-100,4,2,1,80,0,1
91119,-100,4,1,1,50,0,1
92797,-100,4,2,1,100,0,1
93636,-100,4,2,1,70,0,1
94056,-100,4,2,1,90,0,1
94581,-100,4,2,2,90,0,0
107902,-100,4,1,1,40,0,0
108741,-100,4,2,1,80,0,0
109056,-100,4,1,1,40,0,0
109581,-100,4,1,1,70,0,0
110000,-100,4,2,1,70,0,0
115874,-100,4,1,1,50,0,0
116294,-100,4,2,1,70,0,0
122378,-100,4,2,2,70,0,0
123007,-100,4,2,1,70,0,0
126364,-100,4,2,2,70,0,0
128357,-100,4,1,1,50,0,0
129720,-100,4,2,1,70,0,0
132238,-100,4,1,1,40,0,0
133077,-100,4,1,1,50,0,0
133916,-100,4,1,1,60,0,0
134755,-100,4,1,1,70,0,0
135385,-100,4,1,1,80,0,0
135595,-100,4,1,1,90,0,0
136224,-100,4,1,1,60,0,0
137692,-100,4,2,1,90,0,0
138217,-100,4,1,1,70,0,1
138322,-100,4,2,1,80,0,1
143567,-100,4,2,2,80,0,1
144825,-100,4,2,1,80,0,1
149860,-100,4,2,2,50,0,1
149965,-100,4,2,2,50,0,0
150699,-100,4,1,1,50,0,0
151539,-100,4,2,1,80,0,0
151643,-100,4,2,1,80,0,1
156574,-100,4,2,2,80,0,1
158252,-100,4,2,1,80,0,1
160140,-100,4,1,1,50,0,1
160350,-100,4,2,1,80,0,1
161608,-100,4,1,1,50,0,1
161818,-100,4,2,1,80,0,1
162448,-100,4,1,1,50,0,1
162657,-100,4,2,1,80,0,1
163287,-100,4,1,1,70,0,1
163601,-100,4,1,1,60,0,1
163916,-100,4,1,1,70,0,1
164126,-100,4,1,1,60,0,1
164336,-100,4,1,1,50,0,1
164546,-100,4,1,1,40,0,1
164755,-100,4,1,1,30,0,1
164965,-100,4,1,1,20,0,1
166643,-100,4,1,1,70,0,1
167063,-100,4,1,1,80,0,1
167483,-100,4,1,1,90,0,1
168427,-100,4,2,1,50,0,0
175035,-100,4,1,1,40,0,0
179650,-100,4,2,1,80,0,0
180070,-100,4,1,1,80,0,0
182168,-100,4,1,1,70,0,0
182588,-100,4,1,1,60,0,0
183007,-100,4,1,1,50,0,0
183427,-100,4,1,1,40,0,0
183846,-100,4,1,1,30,0,0
184266,-100,4,1,1,20,0,0
184581,-100,4,2,1,10,0,0
198532,-100,4,1,1,50,0,0
198741,-100,4,1,1,100,0,0
199895,-100,4,1,1,90,0,0
200105,-100,4,1,1,80,0,0
200315,-100,4,1,1,70,0,0
200525,-100,4,1,1,60,0,0
200734,-100,4,1,1,50,0,0
200944,-100,4,1,1,40,0,0
201154,-100,4,1,1,30,0,0
201364,-100,4,1,1,20,0,0
201574,-100,4,1,1,10,0,0
205245,-100,4,2,1,60,0,0
210280,-100,4,2,1,70,0,0
211958,-100,4,2,1,80,0,0
212797,-100,4,2,1,90,0,0
213636,-100,4,2,1,100,0,0
213846,-100,4,1,1,80,0,0
214476,-100,4,2,1,90,0,0
217098,-100,4,1,1,70,0,1
217203,-100,4,2,1,80,0,1
220350,-100,4,2,2,80,0,1
223706,-100,4,2,1,80,0,1
228741,-100,4,1,1,50,0,1
228846,-100,4,1,1,50,0,0
230420,-100,4,1,1,70,0,0
230525,-100,4,1,1,70,0,1
230839,-100,4,1,1,40,0,1
233776,-100,4,2,2,80,0,1
237133,-100,4,2,1,80,0,1
242168,-100,4,1,1,60,0,1
243427,-100,4,1,1,10,0,1
243532,-100,4,1,1,10,0,0

[Colours]
Combo1 : 255,36,36
Combo2 : 0,255,64
Combo3 : 26,26,255
Combo4 : 252,252,252
Combo5 : 255,255,51

[HitObjects]
256,192,595,1,4
256,192,7308,5,4
352,192,7727,1,2
160,192,8567,1,2
336,268,9406,1,2
204,128,10246,1,2
256,312,11084,1,2
256,120,11923,1,2
256,216,12343,5,4
208,216,12553,1,0
160,216,12762,2,0,B|96:216,2,60
160,120,13601,1,0
256,120,14021,5,4
304,120,14231,1,0
352,120,14441,2,0,B|416:120,2,60
352,216,15280,1,0
300,296,15699,5,4
108,296,16539,1,4
108,104,17378,5,4
204,104,17797,1,4
300,104,18217,2,0,B|368:104,3,60,4|4|4|4
256,192,19056,12,8,20734
256,304,23252,6,0,B|252:296|252:296|260:296|260:296|252:288|252:288|260:288|260:288|252:280|252:280|260:280|260:280|252:272|252:272|260:272|260:272|256:264|256:264|256:212,1,120,0|8
256,132,24091,5,2
192,60,24511,2,0,B|144:108|172:180,2,120,8|0|8
288,60,25769,2,0,B|352:60,2,60,0|0|8
288,156,26608,1,0
384,156,27028,2,0,B|384:228|296:256,1,120,8|0
288,156,27867,5,8
192,156,28287,2,0,B|192:84|280:56,1,120,0|8
352,64,29126,1,0
352,64,29546,1,8
352,160,29965,2,0,B|360:200|360:200|348:240|348:240|352:276,2,120,0|2|4
264,120,31224,5,8
184,172,31643,2,0,B|112:176|96:244,1,120,0|8
188,264,32483,1,0
188,264,32902,1,8
284,264,33322,2,0,B|416:264,2,120
324,176,34581,6,0,B|304:120|304:120|268:72,1,120,8|0
172,72,35420,1,8
108,144,35839,2,0,B|120:192|120:192|156:236,2,90,8|8|8
256,192,36678,12,0,38357
256,152,39196,5,4
176,204,39615,2,0,B|147:143|81:144,2,120,2|0|2
88,240,40874,2,0,B|108:312|176:324|244:312|264:240,1,240
304,152,42133,1,2
344,240,42553,6,0,B|372:292|372:292|428:328,1,120,0|2
468,240,43392,2,0,B|440:188|440:188|384:152,1,120,0|2
452,80,44231,2,0,B|403:23|336:41|280:80|292:154,1,240
256,344,45909,5,4
168,304,46329,2,0,B|116:271|116:271|88:219,1,120,2|0
40,136,47168,2,0,B|48:108|88:96|128:108|136:136,1,120,2|0
200,208,48007,2,0,B|208:236|248:248|288:236|296:208,2,120,2|0|2
248,124,49266,5,0
184,52,49685,1,2
276,24,50105,1,0
320,44,50315,1,0
340,88,50525,1,2
340,136,50734,6,0,B|345:210|286:245|218:257|174:196,1,240,0|8
96,140,51993,2,0,B|96:72,2,60,8|8|8
96,188,52622,5,4
68,280,53042,2,0,B|100:328|100:328|168:356,1,120,2|0
252,332,53881,1,2
316,260,54301,1,0
328,164,54720,2,0,B|388:148|388:148|440:84,2,120,2|0|2
336,68,55979,6,0,B|276:84|276:84|224:148,1,120,0|2
248,224,56818,2,0,B|188:208|188:208|136:144,2,120,0|2|0
312,152,58077,2,0,B|312:20,2,120,4|4|4
224,112,59336,5,4
224,208,59755,2,0,B|232:272|292:304,2,120,2|0|2
320,212,61014,1,0
408,172,61434,2,0,B|408:108,2,60,2|0|0
468,248,62273,6,0,B|448:308|448:308|404:344,1,120,2|4
312,316,63112,1,4
216,316,63532,1,4
136,264,63951,1,4
200,192,64371,5,4
200,144,64581,2,0,B|200:80,2,60
248,144,65210,2,0,B|344:144,2,90,4|4|0
248,96,66049,5,2
84,56,67727,5,4
44,144,68147,2,0,B|44:204|44:204|84:256,1,120,2|0
136,172,68986,1,2
224,212,69406,6,0,B|224:336,1,120,0|2
320,332,70245,2,0,B|320:268,2,60,0|0|2
412,300,71084,5,0
452,212,71504,1,2
452,116,71923,1,0
380,52,72343,1,2
348,144,72762,5,0
252,152,73182,1,2
204,152,73392,1,0
156,152,73601,2,0,B|52:152,2,90,8|0|0
156,104,74441,5,4
236,52,74860,2,0,B|236:172,1,120,2|0
324,212,75699,2,0,B|324:92,2,120,2|0|2
416,240,76958,2,0,B|388:316|300:308,1,120,0|2
232,308,77797,6,0,B|224:336|184:348|144:336|136:308,1,120,0|8
88,224,78636,2,0,B|96:196|136:184|176:196|184:224,1,120,0|8
280,224,79476,2,0,B|299:245|340:239|371:212|367:183,1,120,4|8
288,128,80315,2,0,B|196:128,2,90,8|8|8
336,128,81154,5,4
412,184,81574,2,0,B|432:240|432:240|424:312,1,120,2|0
344,252,82413,2,0,B|323:307|323:307|270:357,1,120,2|0
200,296,83252,1,2
108,268,83671,1,0
64,248,83881,1,0
28,216,84091,2,0,B|28:140,2,60,2|0|0
116,176,84930,5,2
184,108,85350,1,0
264,56,85769,1,2
356,28,86189,2,0,B|416:28|416:28|472:76,1,120,0|2
424,156,87028,2,0,B|500:232,2,90,4|2|2
388,124,87867,5,4
296,152,88287,2,0,B|277:131|236:137|205:164|209:193,1,120,2|0
288,248,89126,1,2
335,332,89546,2,0,B|328:360|288:372|248:360|240:332,3,120,0|2|0|2
152,292,91224,6,0,B|148:280|148:280|156:272|156:272|148:264|148:264|156:256|156:256|148:248|148:248|156:240|156:240|148:232|148:232|156:224|156:224|152:216|152:216|152:176,1,120,4|0
244,168,92063,2,0,B|248:180|248:180|240:188|240:188|248:196|248:196|240:204|240:204|248:212|248:212|240:220|240:220|248:228|248:228|240:236|240:236|244:244|244:244|244:284,1,120,4|0
332,224,92902,2,0,B|332:132,2,90,4|0|0
332,272,93741,1,4
256,332,94161,6,0,B|232:292|232:292|256:264|244:232|244:212,1,120,8|8
256,192,108007,6,0,B|256:272,2,60,4|4|4
256,96,108846,2,0,B|204:88|204:88|188:104|164:100,2,90,8|4|0
304,96,109685,5,4
392,136,110105,2,0,B|444:168|444:168|480:216,1,120,2|0
384,232,110944,1,2
296,272,111364,2,0,B|276:344|208:356|140:344|120:272,1,240
208,100,113042,5,0
208,196,113462,2,0,B|332:196,2,120,2|0|2
216,292,114720,2,0,B|143:310|99:257|75:192|128:139,1,240
192,68,115979,5,2
264,132,116399,5,4
236,224,116818,2,0,B|180:260|104:228,1,120,2|0
56,164,117657,2,0,B|112:128|188:160,1,120,2|0
236,224,118497,2,0,B|292:260|368:228,2,120,2|0|2
264,132,119755,6,0,B|244:64|176:60,1,120,0|2
100,116,120595,1,0
80,160,120804,1,0
76,208,121014,1,2
80,256,121224,2,0,B|73:330|133:364|201:377|245:316,1,240
256,220,122483,2,0,B|256:144,2,60,8|8|8
296,248,123112,5,4
388,220,123532,2,0,B|388:340,1,120,2|0
480,316,124371,1,2
480,220,124790,2,0,B|480:96,2,120,0|2|0
388,192,126049,6,0,B|388:128,2,60,2|0|8
300,152,126888,1,8
236,80,127308,1,8
144,52,127727,2,0,B|124:116|192:168,1,120
248,228,128567,2,0,B|201:266|201:266|141:266,2,120,0|4|4
248,132,129825,5,4
336,92,130245,1,2
332,188,130664,2,0,B|376:204|376:204|392:240|432:264,1,120,0|2
472,344,131504,2,0,B|465:372|425:384|385:372|377:344,2,120,0|2|4
424,260,132762,5,0
352,196,133182,1,4
300,276,133601,1,0
212,316,134021,1,4
140,252,134441,1,0
192,172,134860,5,4
228,140,135070,2,0,B|228:56,2,60,4|0|0
276,140,135699,2,0,B|372:140,2,90,4|4|0
276,188,136539,5,2
356,240,136958,1,0
444,280,137378,1,0
444,232,137588,1,0
444,184,137797,2,0,B|440:160|440:160|388:136|388:84,1,120,8|4
304,40,138636,6,0,B|272:104|320:160,1,120,2|0
360,236,139476,2,0,B|353:264|313:276|273:264|265:236,1,120,2|0
196,168,140315,2,0,B|189:140|149:128|109:140|101:168,2,120,2|0|2
196,264,141574,5,0
196,264,141993,1,2
292,264,142413,1,0
292,264,142832,1,2
388,264,143252,5,0
388,216,143462,1,0
388,168,143671,2,0,B|388:40,2,120,2|4|2
300,128,144930,5,4
232,60,145350,2,0,B|172:48|172:48|92:60,1,120,2|0
52,132,146189,2,0,B|112:144|112:144|192:132,1,120,2|0
268,136,147028,2,0,B|260:212|184:232,2,120,2|0|2
336,68,148287,6,0,B|392:32|448:68,1,120,0|2
488,156,149126,2,0,B|524:212|488:268,1,120,0|2
408,212,149965,6,0,B|320:212,2,90,4|8|8
408,260,150804,1,4
340,328,151224,1,4
296,348,151434,1,4
248,348,151643,5,0
283,257,152063,1,2
224,180,152483,2,0,B|164:164|164:164|120:120,1,120,0|2
212,84,153322,2,0,B|272:100|272:100|316:144,1,120,0|2
312,236,154161,2,0,B|296:296|296:296|252:340,1,120,0|2
216,248,155000,5,0
216,248,155420,1,2
120,248,155839,1,0
120,248,156259,1,2
72,164,156678,2,0,B|72:76,2,90,2|2|2
120,164,157518,2,0,B|212:164,2,90,2|2|0
120,116,158357,5,4
212,88,158776,1,2
304,116,159196,2,0,B|311:144|351:156|391:144|399:116,2,120,0|2|0
236,184,160455,2,0,B|229:212|189:224|149:212|141:184,2,120,2|0|2
236,88,161713,6,0,B|236:24,2,60,4|0|0
320,136,162553,2,0,B|320:200,2,60,4|0|0
416,136,163392,6,0,B|416:40,2,90,4|4|4
256,192,164231,12,4,166329
256,232,166748,5,4
256,232,167168,1,4
208,148,167588,2,0,B|215:120|255:108|295:120|303:148,2,120,4|4|0
256,192,175140,5,4
256,192,176189,5,4
160,192,176608,2,0,B|160:268,1,60,4|4
256,192,177867,5,4
352,192,178287,2,0,B|352:116,1,60,4|4
256,352,179546,5,4
256,304,179755,1,0
256,256,179965,1,0
256,208,180175,6,0,B|256:112,2,90,4|4|4
208,208,181014,2,0,B|120:208,2,90,4|4|4
256,192,181853,12,0,184581
256,192,198636,12,0,201993
140,144,205350,5,4
372,144,208706,1,4
152,300,210385,1,4
360,300,212063,1,4
360,108,212902,1,4
168,108,213741,5,4
168,156,213951,2,0,B|168:216,2,60,4|0|0
216,156,214581,2,0,B|248:152|248:152|272:160|272:160|296:152|296:152|324:160,2,90,0|0|0
256,332,216678,1,8
256,236,217098,6,0,B|312:216|312:216|384:236,1,120,4|2
444,292,217937,2,0,B|464:236|464:236|444:164,1,120,0|2
372,120,218776,1,0
280,92,219196,1,2
216,164,219615,2,0,B|160:200|104:164,1,120,0|2
160,84,220455,5,2
256,84,220874,2,0,B|321:75|357:131,1,120,2|2
272,176,221713,2,0,B|307:232|373:223,1,120,2|2
452,168,222553,2,0,B|488:224|452:280,2,120,2|0|0
380,104,223811,6,0,B|320:104|320:104|256:136,1,120,4|2
324,208,224650,2,0,B|268:244|212:208,1,120,0|2
152,132,225490,2,0,B|96:156|96:156|64:232,1,120,0|2
88,304,226329,2,0,B|144:280|144:280|176:204,1,120,0|2
256,188,227168,6,0,B|256:112,2,60,0|0|2
296,276,228007,1,0
384,316,228427,1,2
456,252,228846,6,0,B|456:188,1,60,4|4
456,144,229266,2,0,B|456:64,2,60,4|0|0
408,144,229895,1,4
360,144,230105,2,0,B|292:144,1,60,4|4
268,108,230525,5,2
180,144,230944,1,4
84,136,231364,1,4
128,224,231783,1,4
71,303,232203,2,0,B|128:340|184:304,1,120,4|0
236,224,233042,2,0,B|293:187|349:223,1,120,4|0
372,316,233881,6,0,B|424:296|424:296|432:264|464:232,1,120,2|2
388,172,234720,2,0,B|336:152|336:152|328:120|296:88,1,120,2|2
212,68,235560,2,0,B|160:88|160:88|152:120|120:152,1,120,2|2
164,232,236399,2,0,B|208:220|208:220|220:180|236:172,2,90,2|2|2
116,232,237238,5,4
116,328,237657,1,2
212,328,238077,2,0,B|340:328,1,120,0|2
404,264,238916,6,0,B|404:192,2,60,0|0|2
312,232,239755,1,0
224,192,240175,1,2
132,160,240595,6,0,B|132:232,2,60,0|0|2
204,96,241434,1,0
296,68,241853,1,2
368,132,242273,5,4
368,180,242483,2,0,B|368:244,2,60,4|0|0
320,180,243112,2,0,B|304:172|304:172|292:188|292:188|280:172|280:172|268:188|268:188|260:180|260:180|224:180,1,120,4|4
