osu file format v9

[General]
AudioFilename: 01 Distance In Your Love.mp3
AudioLeadIn: 2500
PreviewTime: 215604
Countdown: 0
SampleSet: Soft
StackLeniency: 0.7
Mode: 0
LetterboxInBreaks: 0
EpilepsyWarning: 1

[Editor]
Bookmarks: 15674,16514,37493,62667,93192,93507,94556,184556,192213,198611,201968,215395,243507,243926
DistanceSpacing: 1.5
BeatDivisor: 4
GridSize: 4

[Metadata]
Title:Distance In Your Love
Artist:Aoyama Misao
Creator:kosiga
Version:Love
Source:Daito music
Tags:osu! banchou giken

[Difficulty]
HPDrainRate:6
CircleSize:4
OverallDifficulty:6
ApproachRate:8
SliderMultiplier:1.6
SliderTickRate:1

[Events]
//Background and Video events
0,0,"wallpaper-623419.jpg"
//Break Periods
2,795,6558
2,94780,107257
2,170305,174390
2,184780,197886
//Storyboard Layer 0 (Background)
//Storyboard Layer 1 (Fail)
//Storyboard Layer 2 (Pass)
//Storyboard Layer 3 (Foreground)
//Storyboard Sound Samples
//Background Colour Transformations
3,100,163,162,255

[TimingPoints]
595,419.58041958042,4,2,1,90,1,0
7622,-100,4,2,1,40,0,0
12238,-100,4,1,1,90,0,0
12448,-100,4,2,1,90,0,0
13916,-100,4,1,1,90,0,0
14126,-100,4,2,1,90,0,0
15595,-100,4,1,1,70,0,0
15804,-100,4,2,1,70,0,0
16434,-100,4,1,1,70,0,0
16643,-100,4,2,1,70,0,0
17273,-100,4,1,1,70,0,0
17483,-100,4,2,1,70,0,0
17692,-100,4,1,1,80,0,0
17902,-100,4,2,1,80,0,0
18112,-100,4,1,1,50,0,0
18322,-100,4,1,1,60,0,0
18532,-100,4,1,1,70,0,0
18741,-100,4,1,1,80,0,0
18951,-100,4,1,1,90,0,0
19476,-100,4,1,1,100,0,0
23147,-100,4,2,1,60,0,0
23986,-100,4,2,2,80,0,0
24091,-100,4,2,2,80,0,1
24196,-100,4,2,2,80,0,0
36783,-100,4,2,2,70,0,0
36993,-100,4,2,2,60,0,0
37203,-100,4,2,2,50,0,0
37413,-100,4,2,2,40,0,0
39091,-100,4,1,1,70,0,0
39511,-100,4,2,1,70,0,0
50944,-100,4,2,1,40,0,0
51259,-100,4,2,2,50,0,0
51888,-100,4,2,2,60,0,0
52098,-100,4,2,2,70,0,0
52308,-100,4,2,2,80,0,0
52727,-100,4,2,1,70,0,0
57657,-100,4,2,1,50,0,0
59231,-100,4,2,1,70,0,0
62588,-100,4,1,1,40,0,0
63007,-100,4,1,1,50,0,0
63427,-100,4,1,1,60,0,0
63846,-100,4,1,1,70,0,0
64266,-100,4,1,1,80,0,0
65105,-100,4,1,1,50,0,0
65315,-100,4,1,1,60,0,0
65525,-100,4,1,1,70,0,0
65734,-100,4,1,1,80,0,0
65944,-100,4,1,1,60,0,0
66049,-200,4,1,1,60,0,0
66259,-200,4,1,1,70,0,0
66469,-200,4,1,1,80,0,0
66888,-200,4,1,1,90,0,0
67098,-200,4,1,1,100,0,0
67518,-100,4,2,1,50,0,0
67622,-100,4,1,1,70,0,0
67727,-100,4,1,1,70,0,1
67832,-100,4,2,1,80,0,1
73497,-100,4,1,1,50,0,1
73706,-100,4,2,1,80,0,1
77483,-100,4,1,1,50,0,1
77692,-100,4,2,2,60,0,1
77797,-100,4,2,2,60,0,0
79371,-100,4,2,1,70,0,0
79790,-100,4,2,2,50,0,0
81049,-100,4,2,1,80,0,0
81154,-100,4,2,1,80,0,1
90280,-100,4,1,1,30,0,1
91119,-100,4,1,1,50,0,1
92797,-100,4,2,1,100,0,1
93636,-100,4,2,1,70,0,1
93741,-200,4,2,1,70,0,1
93951,-200,4,2,1,30,0,1
94161,-66.6666666666667,4,2,1,90,0,1
94581,-100,4,2,2,90,0,0
107902,-100,4,1,1,40,0,0
108741,-100,4,2,1,80,0,0
109056,-100,4,1,1,40,0,0
109581,-100,4,1,1,70,0,0
110000,-100,4,2,1,70,0,0
115874,-100,4,1,1,50,0,0
116294,-100,4,2,1,70,0,0
121643,-100,4,1,1,40,0,0
122378,-100,4,2,2,70,0,0
123007,-100,4,2,1,70,0,0
126364,-100,4,2,2,70,0,0
128357,-100,4,1,1,50,0,0
128881,-100,4,2,1,70,0,0
132238,-100,4,1,1,40,0,0
133077,-100,4,1,1,50,0,0
133916,-100,4,1,1,60,0,0
134755,-100,4,1,1,70,0,0
135385,-100,4,1,1,80,0,0
135595,-100,4,1,1,90,0,0
135804,-100,4,1,1,60,0,0
136014,-100,4,1,1,70,0,0
136224,-100,4,1,1,60,0,0
136539,-200,4,1,1,60,0,0
137588,-133.333333333333,4,2,1,90,0,0
138217,-100,4,1,1,70,0,1
138322,-100,4,2,1,80,0,1
140210,-100,4,2,2,80,0,1
141469,-100,4,2,1,80,0,1
149860,-100,4,2,2,50,0,1
149965,-100,4,2,2,50,0,0
150699,-100,4,1,1,50,0,0
151643,-100,4,2,1,80,0,1
156574,-100,4,2,2,80,0,1
157727,-100,4,2,1,80,0,1
160140,-100,4,1,1,50,0,1
160350,-100,4,2,1,80,0,1
161608,-100,4,1,1,50,0,1
161818,-100,4,2,1,80,0,1
162448,-100,4,1,1,50,0,1
162657,-100,4,2,1,80,0,1
163287,-100,4,1,1,70,0,1
163601,-100,4,1,1,60,0,1
163916,-100,4,1,1,70,0,1
164126,-100,4,1,1,60,0,1
164336,-100,4,1,1,50,0,1
164546,-100,4,1,1,40,0,1
164755,-100,4,1,1,30,0,1
164965,-100,4,1,1,20,0,1
166643,-100,4,1,1,40,0,1
166853,-100,4,1,1,50,0,1
167063,-100,4,1,1,60,0,1
167273,-100,4,1,1,80,0,1
167483,-100,4,1,1,90,0,1
167588,-66.6666666666667,4,1,1,90,0,1
168427,-133.333333333333,4,2,1,50,0,0
168741,-133.333333333333,4,2,1,40,0,0
169161,-133.333333333333,4,2,1,30,0,0
169581,-133.333333333333,4,2,1,20,0,0
170105,-100,4,2,1,10,0,0
175035,-100,4,1,1,40,0,0
179650,-133.333333333333,4,2,1,80,0,0
180070,-100,4,1,1,80,0,0
181853,-200,4,1,1,80,0,0
182168,-200,4,1,1,70,0,0
182588,-200,4,1,1,60,0,0
183007,-200,4,1,1,50,0,0
183427,-200,4,1,1,40,0,0
183846,-200,4,1,1,30,0,0
184266,-200,4,1,1,20,0,0
184581,-100,4,2,1,10,0,0
198532,-100,4,1,1,50,0,0
198741,-100,4,1,1,100,0,0
199895,-100,4,1,1,90,0,0
200105,-100,4,1,1,80,0,0
200315,-100,4,1,1,70,0,0
200525,-100,4,1,1,60,0,0
200734,-100,4,1,1,50,0,0
200944,-100,4,1,1,40,0,0
201154,-100,4,1,1,30,0,0
201364,-100,4,1,1,20,0,0
201574,-100,4,1,1,10,0,0
205245,-100,4,2,1,60,0,0
210280,-100,4,2,1,70,0,0
211958,-100,4,2,1,80,0,0
212797,-100,4,2,1,90,0,0
213636,-100,4,2,1,100,0,0
213846,-100,4,1,1,80,0,0
214581,-66.6666666666667,4,2,1,90,0,0
215420,-133.333333333333,4,2,1,90,0,0
217098,-100,4,1,1,70,0,1
217203,-100,4,2,1,80,0,1
220350,-100,4,2,2,80,0,1
223706,-100,4,2,1,80,0,1
228741,-100,4,1,1,50,0,1
228846,-100,4,1,1,50,0,0
230525,-100,4,1,1,70,0,1
230839,-100,4,1,1,40,0,1
233776,-100,4,2,2,80,0,1
237133,-100,4,2,1,80,0,1
242168,-100,4,1,1,60,0,1
243112,-66.6666666666667,4,1,1,60,0,1
243322,-100,4,1,1,60,0,1
243427,-100,4,1,1,10,0,1
243532,-100,4,1,1,10,0,0

[Colours]
Combo1 : 255,36,36
Combo2 : 0,255,64
Combo3 : 26,26,255
Combo4 : 252,252,252
Combo5 : 255,255,51

[HitObjects]
256,192,595,1,4
256,192,7308,5,4
368,80,7727,1,2
144,304,8567,1,2
368,304,9406,1,2
144,80,10246,1,2
256,352,11084,1,2
256,32,11923,1,2
256,192,12343,5,4
176,192,12553,2,0,B|132:192,2,40
176,272,12972,1,0
256,272,13182,2,0,B|256:316,6,40
256,192,14021,5,4
336,192,14231,2,0,B|380:192,2,40
336,112,14650,1,0
256,112,14860,2,0,B|256:60,6,40
256,192,15699,5,4
200,248,15909,2,0,B|144:312,2,80
256,304,16539,1,4
312,248,16748,2,0,B|368:312,2,80
348,176,17378,6,0,B|404:176,2,40,4|0|0
308,108,17797,2,0,B|332:76,2,40,4|0|0
232,84,18217,1,4
158,111,18427,1,4
112,176,18636,1,4
124,256,18846,1,4
180,312,19056,6,0,B|180:364,7,40,4|0|0|0|0|0|0|0
256,192,19895,12,8,20734
388,336,23252,6,0,B|384:328|384:328|392:328|392:328|384:320|384:320|392:320|392:320|384:312|384:312|392:312|392:312|384:304|384:304|392:304|392:304|384:296|384:296|388:284,1,80
388,220,23671,1,8
260,124,24091,6,0,B|260:176,2,40,2|0|0
332,88,24511,1,8
268,40,24720,1,0
192,64,24930,2,0,B|108:64,2,80,0|0|8
192,144,25560,1,0
136,200,25769,6,0,B|104:236,2,40
192,144,26189,1,8
136,200,26399,1,0
212,220,26608,1,0
212,220,26713,1,0
280,180,26923,2,0,B|360:180,1,80
400,180,27238,2,0,B|440:180,4,40
376,256,27867,5,8
312,304,28077,2,0,B|392:368,2,80
232,304,28706,2,0,B|148:304,1,80,8|0
72,304,29126,6,0,B|28:280,2,40
152,304,29546,1,8
72,304,29755,1,0
112,236,29965,1,0
112,236,30070,1,0
48,188,30280,2,0,B|72:152|120:144|160:172,1,120
190,187,30699,1,0
224,208,30804,6,0,B|268:232,2,40,4|0|0
272,144,31224,1,8
324,84,31434,2,0,B|260:36,2,80
376,144,32063,1,8
376,144,32273,1,0
324,204,32483,6,0,B|324:260,2,40
272,144,32902,1,0
324,84,33112,1,0
376,144,33322,1,8
376,144,33427,1,0
324,84,33636,2,0,B|260:28|260:28|216:28,1,120
188,46,34056,1,0
161,76,34161,6,0,B|161:129,2,40
96,28,34581,1,8
32,76,34790,1,0
96,124,35000,1,0
96,124,35105,1,0
96,204,35315,2,0,B|96:328,1,120
164,364,35839,5,8
224,312,36049,1,8
300,336,36259,1,8
324,260,36469,1,8
404,256,36678,1,8
420,244,36783,1,0
408,228,36888,1,0
420,212,36993,1,0
404,200,37098,1,0
416,184,37203,1,0
400,172,37308,1,0
412,156,37413,1,0
396,144,37518,1,8
256,192,37622,12,0,38776
256,48,39196,5,4
100,84,39615,2,0,B|100:132|144:144,1,80,2|0
220,120,40035,2,0,B|262:131|262:179,1,80
220,248,40455,1,2
220,248,40664,1,0
140,264,40874,2,0,B|152:320|220:352|288:300,2,160,0|2|0
140,104,42133,1,2
204,56,42343,6,0,B|204:8,2,40
268,104,42762,1,0
332,56,42972,1,2
396,104,43182,1,0
332,152,43392,5,0
428,80,43601,1,0
332,8,43811,1,2
236,80,44021,1,0
332,152,44231,2,0,B|332:312,1,160,0|2
256,340,44860,1,0
180,312,45070,2,0,B|180:152,1,160,0|2
52,56,45909,5,4
136,192,46329,2,0,B|224:192,1,80,2|0
320,268,46748,2,0,B|240:268,1,80
336,192,47168,2,0,B|416:192,1,80,2|0
336,112,47588,2,0,B|316:72|272:56|228:72|208:112,2,160,0|2|0
336,112,48846,1,2
476,36,49266,5,0
408,180,49685,1,2
248,168,50105,1,0
272,244,50315,1,0
208,292,50525,1,2
128,292,50734,2,0,B|94:249|103:202|148:177|193:153|201:105|168:63,1,240,0|8
292,36,51678,5,8
292,36,51783,1,8
372,124,51993,1,8
292,212,52203,1,8
212,124,52413,1,8
292,212,52622,6,0,B|352:268,1,80,4|0
416,220,53042,1,2
480,268,53252,2,0,B|512:236,2,40
416,316,53671,1,0
416,316,53881,1,2
336,316,54091,1,0
272,268,54301,6,0,B|224:200,1,80
180,268,54720,2,0,B|228:336,2,80,2|0|0
108,304,55350,1,0
32,280,55560,1,2
8,204,55769,1,0
88,220,55979,5,0
160,188,56189,1,0
84,208,56399,1,2
152,68,56608,1,0
52,136,56818,1,0
132,144,57028,1,0
64,44,57238,1,2
184,28,57448,1,0
224,28,57553,6,0,B|284:28|384:60|416:128,1,200,0|0
340,156,58287,1,0
340,156,58497,1,0
448,208,58706,1,0
448,208,58916,1,0
444,328,59126,1,0
348,256,59336,6,0,B|244:256,1,80,4|0
212,332,59755,2,0,B|292:332,1,80,2|0
172,260,60175,2,0,B|120:192,2,80,0|0|2
216,192,60804,2,0,B|216:112,1,80
124,32,61224,2,0,B|124:112,1,80,0|2
32,192,61643,2,0,B|32:112,2,80
104,228,62273,2,0,B|104:316,1,80,2|0
168,356,62692,5,4
328,356,63112,1,4
412,220,63532,1,4
328,84,63951,1,4
256,228,64371,5,4
192,276,64581,2,0,B|192:324,2,40,4|0|0
112,276,65000,1,0
40,240,65210,1,4
32,220,65315,1,0
44,204,65420,1,0
44,184,65525,1,0
60,172,65629,1,0
60,152,65734,1,0
80,144,65839,1,0
80,124,65944,1,0
96,112,66049,6,2,B|128:48|216:20|304:48|336:112,1,280,2|0
280,164,67727,6,0,B|248:136,2,40,4|0|0
232,228,68147,2,0,B|180:288,1,80,2|0
252,324,68567,1,0
252,324,68671,1,0
316,276,68881,2,0,B|444:276,1,120,0|0
484,212,69406,6,0,B|484:132,1,80,4|0
408,156,69825,2,0,B|376:76,1,80,2|0
312,128,70245,2,0,B|224:76,1,80,0|0
216,164,70664,2,0,B|124:164,1,80,2|0
100,236,71084,5,0
100,236,71504,1,2
236,320,71923,1,0
236,320,72343,1,2
372,236,72762,5,0
372,236,72867,1,0
372,236,72972,1,0
296,212,73182,2,0,B|296:124,1,80,2|0
376,132,73601,1,8
296,132,73811,1,0
216,132,74021,2,0,B|216:184,2,40
216,52,74441,5,4
56,52,74860,2,0,B|56:136,1,80,2|0
136,204,75280,2,0,B|136:124,1,80
216,200,75699,2,0,B|216:280,1,80,2|0
296,208,76119,2,0,B|324:120,1,80
392,168,76539,2,0,B|460:108,1,80,2|0
492,184,76958,2,0,B|492:236|472:292|404:304,1,160,0|2
340,260,77588,1,8
292,324,77797,6,0,B|256:351|210:347|177:314|175:269,1,160,0|8
176,108,78636,2,0,B|140:80|94:84|61:117|59:162,1,160,0|8
220,188,79476,2,0,B|255:215|301:211|334:178|336:133,1,160,4|8
276,80,80105,1,0
340,32,80315,1,8
444,92,80629,1,8
444,92,80734,1,8
492,156,80944,1,8
448,224,81154,5,4
324,328,81574,2,0,B|236:328,1,80,2|0
180,280,81993,2,0,B|88:280,2,80,0|0|2
244,232,82622,1,0
304,128,82832,5,0
184,128,83042,1,0
288,192,83252,1,2
244,80,83462,1,0
200,192,83671,1,0
120,180,83881,1,0
100,176,83986,1,0
80,180,84091,1,2
64,192,84196,1,0
48,204,84301,2,0,B|16:252,2,40
120,272,84720,5,0
176,328,84930,2,0,B|264:328,1,80,2|0
336,248,85350,2,0,B|256:248,1,80
176,168,85769,2,0,B|256:168,1,80,2|0
340,92,86189,6,0,B|340:48,2,40
420,92,86608,1,2
468,156,86818,1,0
420,220,87028,1,0
420,220,87133,1,0
356,268,87343,2,0,B|352:316|308:332,1,80
272,332,87657,1,0
208,284,87867,5,4
52,248,88287,2,0,B|52:156,1,80,2|0
128,192,88706,2,0,B|128:100,1,80
204,140,89126,2,0,B|204:48,1,80,2|0
276,24,89546,5,0
276,24,89965,1,2
428,76,90385,1,4
380,140,90595,1,4
404,216,90804,1,4
404,216,90909,1,4
404,216,91014,1,4
308,288,91224,6,0,B|308:344,2,40,4|0|0
244,240,91643,1,0
96,180,92063,2,0,B|96:128,2,40,4|0|0
168,216,92483,1,0
192,140,92692,1,0
240,76,92902,5,4
416,40,93217,1,4
480,208,93532,1,4
404,300,93741,2,0,B|400:336|360:348,1,60
308,344,94161,6,0,B|280:320|280:320|292:292|292:292|256:264|256:264|268:232|268:232|236:204|236:204|236:132,1,239.999992847443,8|8
320,144,108007,5,4
256,192,108217,1,4
192,240,108427,2,0,B|192:288,2,40,4|0|0
128,192,108846,2,0,B|148:164|148:164|144:116|180:84,1,120,8|4
216,76,109266,1,4
292,52,109476,1,4
368,76,109685,5,4
480,192,110105,2,0,B|492:244|452:276,1,80,2|0
404,212,110525,2,0,B|374:234|386:286,1,80
408,364,110944,2,0,B|357:375|334:346,1,80,2|0
296,276,111364,2,0,B|249:243|189:239|144:256,2,160,0|2|0
356,128,112622,1,2
292,80,112832,6,0,B|292:32,2,40
216,108,113252,2,0,B|136:108,1,80,0|2
56,188,113671,2,0,B|136:188,2,80
20,116,114301,1,2
56,188,114511,1,0
104,252,114720,2,0,B|151:285|211:289|256:272,2,160,0|2|0
256,64,115979,5,2
432,228,116399,5,4
320,340,116818,2,0,B|236:340,1,80,2|0
204,268,117238,2,0,B|248:264|276:224,1,80
204,188,117657,2,0,B|160:184|132:144,1,80,2|0
204,108,118077,2,0,B|227:73|271:69,1,80
272,152,118497,2,0,B|295:186|339:190,1,80,2|0
340,112,118916,2,0,B|416:116|440:184|404:240,1,160,0|2
332,240,119546,1,0
412,240,119755,6,0,B|441:201|420:132|344:124,1,160,0|2
272,152,120385,1,0
136,152,120595,1,0
244,228,120804,1,0
164,228,121014,1,2
204,108,121224,6,0,B|212:176|212:176|196:260|196:260|204:308,1,200,0|4
224,340,121853,1,4
304,348,122063,1,0
304,348,122168,1,0
304,348,122273,1,0
368,300,122483,1,8
448,300,122692,1,8
424,224,122902,1,8
400,148,123112,6,0,B|360:64,1,80,4|0
295,115,123532,2,0,B|261:43,2,80,2|0|0
216,124,124161,2,0,B|250:196,1,80,0|2
172,216,124581,2,0,B|206:288,2,80
92,208,125210,1,2
68,284,125420,2,0,B|24:272|-24:192|56:132,1,160
100,108,126049,1,2
100,108,126259,1,0
164,60,126469,5,8
320,28,126888,1,8
448,124,127308,1,8
480,280,127727,1,8
400,280,127937,1,0
400,280,128042,6,0,B|324:256|304:320|224:292,1,160,0|4
208,280,128567,1,4
156,340,128776,1,0
52,280,128986,1,0
156,220,129196,1,0
84,124,129406,1,0
176,48,129615,1,0
248,144,129825,5,4
408,144,130245,1,2
312,272,130664,2,0,B|336:312|400:312,1,80
200,272,131084,2,0,B|176:312|112:312,1,80,2|0
256,312,131504,2,0,B|240:252|272:208|256:144,2,160,0|2|4
256,312,132762,5,0
384,216,133182,1,4
256,312,133601,1,0
196,80,134021,1,4
256,312,134441,1,0
108,252,134860,5,4
44,204,135070,2,0,B|44:164,2,40,4|0|0
120,176,135490,1,0
169,68,135699,5,4
272,128,135909,1,0
292,132,136014,1,0
312,124,136119,1,0
332,132,136224,1,0
352,132,136329,1,0
364,148,136434,1,0
372,168,136539,6,2,B|380:248|336:280|276:284|236:256,1,200,2|8
292,192,137797,2,0,B|232:120,1,89.9999973177911,8|0
192,128,138217,6,0,B|140:200,1,80,4|0
29,216,138636,2,0,B|76:152,1,80,2|0
76,72,139056,2,0,B|76:32,2,40
116,72,139371,2,0,B|200:72,1,80
236,72,139685,1,0
300,24,139895,5,4
300,144,140105,1,0
364,192,140315,5,2
300,292,140525,1,0
236,340,140734,5,2
236,220,140944,1,0
172,172,141154,2,0,B|172:120,2,40,2|0|0
108,220,141574,5,0
108,220,141678,1,0
108,220,141783,1,0
108,300,141993,1,2
172,348,142203,2,0,B|252:348,1,80
300,284,142622,2,0,B|380:284,2,80,0|2|0
300,204,143252,6,0,B|300:148,2,40
220,204,143671,1,2
380,204,143881,1,0
380,44,144091,1,0
380,44,144196,1,0
332,108,144406,1,0
252,108,144615,2,0,B|252:168,2,40
252,68,144930,5,4
96,104,145350,2,0,B|24:156,1,80,2|0
100,192,145769,2,0,B|72:280,1,80
156,264,146189,2,0,B|192:352,2,80,2|0|0
192,192,146818,5,0
160,76,147028,1,2
276,108,147238,1,0
308,224,147448,1,0
308,224,147657,1,0
356,288,147867,2,0,B|356:348,2,40,2|0|0
404,224,148287,5,0
404,224,148392,1,0
404,224,148497,1,0
404,144,148706,1,2
404,144,148916,1,0
356,80,149126,2,0,B|320:108|260:88,1,80
216,44,149546,2,0,B|175:29|139:57,1,80,2|0
140,136,149965,5,8
140,316,150280,1,8
140,136,150595,1,8
156,216,150804,1,4
172,224,150909,1,0
176,244,151014,1,0
192,252,151119,1,0
200,268,151224,1,0
220,276,151329,1,0
228,296,151434,1,0
248,304,151539,1,0
264,316,151643,5,4
424,292,152063,2,0,B|480:228,1,80,2|0
452,147,152483,2,0,B|400:208,1,80
360,216,152797,2,0,B|336:300,1,80
304,316,153112,1,0
200,216,153322,6,0,B|144:152,1,80,4|0
224,132,153741,2,0,B|280:68,1,80,2|0
200,48,154161,1,0
200,48,154371,1,0
124,72,154581,2,0,B|80:72,2,40,2|0|0
124,152,155000,5,0
124,152,155105,1,0
124,152,155210,1,0
60,200,155420,1,2
60,200,155629,1,0
96,272,155839,2,0,B|96:296|120:352|200:348,2,120,0|0|0
240,220,156678,5,2
240,220,156783,1,0
240,220,156888,1,0
176,268,157098,1,2
176,268,157308,1,0
192,156,157518,1,2
192,156,157622,1,0
112,152,157832,2,0,B|112:128|136:72|216:76,1,120
256,28,158357,5,4
308,180,158776,2,0,B|320:224|376:240,1,80,2|0
240,220,159196,2,0,B|228:264|172:280,1,80
304,300,159615,2,0,B|316:344|372:360,2,80,2|0|0
304,220,160245,5,0
368,172,160455,1,2
260,120,160664,5,0
196,72,160874,1,2
124,168,161084,5,0
188,216,161294,2,0,B|188:264,2,40,2|0|0
252,168,161713,6,0,B|252:108,2,40,4|0|0
316,216,162133,1,2
316,216,162343,1,0
380,264,162553,2,0,B|380:324,2,40,4|0|0
444,216,162972,1,2
444,216,163182,1,0
400,104,163392,5,4
228,52,163706,1,4
228,232,164021,1,4
332,292,164231,1,4
324,312,164336,1,0
304,320,164441,1,0
292,336,164546,1,0
272,336,164650,1,0
256,344,164755,1,0
236,336,164860,1,0
220,344,164965,1,0
200,336,165070,1,0
256,192,165175,12,4,166329
256,232,166748,5,4
256,232,166958,1,4
256,232,167168,1,4
180,208,167378,1,4
116,256,167588,2,0,B|116:312,11,40
108,244,168427,6,0,B|96:200|84:140|164:84|240:112|244:172|336:200|408:168|440:48,1,479.999985694886
256,192,175140,5,4
256,192,176189,5,4
256,32,176608,1,4
256,112,176818,1,4
256,192,177867,5,0
256,352,178286,1,0
256,272,178496,1,0
256,192,179546,5,0
256,192,179755,2,0,B|252:184|252:184|260:184|260:184|252:176|252:176|260:176|260:176|252:168|252:168|260:168|260:168|252:160|252:160|260:160|260:160|252:152|252:152|260:152|260:152|252:144|252:144|260:144|260:144|256:136|256:136|256:112,1,119.999996423721,8|4
308,76,180385,2,0,B|336:40,2,40
188,100,180804,1,4
152,216,181014,5,4
88,264,181224,2,0,B|60:300,2,40
40,372,181643,1,4
140,348,181853,6,0,B|196:387|275:389|335:315|334:244|303:177|324:76|403:29|473:57,1,520,2|0
256,192,198636,12,0,201993
92,60,205350,5,4
420,60,208706,1,4
128,332,210385,1,4
384,332,212063,1,4
256,192,212902,1,4
256,32,213741,5,4
256,112,213951,1,0
256,152,214056,1,0
256,192,214161,2,0,B|256:240,2,40
176,200,214581,6,0,B|128:200,4,29.9999991059304
336,200,215000,2,0,B|384:200,4,29.9999991059304
256,352,216678,2,0,B|264:320|264:320|248:288|248:288|256:248,1,89.9999973177911,8|0
272,232,217098,6,0,B|328:176,1,80
408,164,217518,1,2
408,164,217727,1,0
384,88,217937,2,0,B|296:88,1,80
144,88,218357,2,0,B|224:88,1,80,2|0
232,168,218776,6,0,B|148:256,1,120
120,284,219196,1,2
44,308,219406,1,0
44,228,219615,2,0,B|44:148,1,80
116,112,220035,2,0,B|116:68,2,40,2|0|0
196,112,220455,5,2
304,60,220664,1,0
416,148,220874,5,2
300,180,221084,1,0
276,348,221294,5,2
372,276,221504,1,0
104,292,221713,5,2
224,288,221923,1,0
148,112,222133,5,2
52,184,222343,1,0
104,292,222553,1,2
224,288,222762,1,0
256,172,222972,5,2
432,244,223182,1,0
372,140,223392,1,2
356,336,223601,1,0
256,316,223811,6,0,B|196:268|196:268|176:216,1,120,4|0
172,188,224231,1,2
220,124,224441,1,0
300,124,224650,1,0
220,124,224860,1,0
156,76,225070,1,2
156,76,225280,1,0
92,124,225490,6,0,B|32:172|32:172|12:224,1,120
16,252,225909,1,2
16,332,226119,2,0,B|96:332|96:332|140:316,1,120
164,292,226539,1,0
164,212,226748,1,2
164,212,226958,1,0
228,164,227168,6,0,B|228:116,2,40
264,236,227588,1,2
328,284,227797,1,0
328,284,227902,1,0
328,284,228007,1,0
392,236,228217,1,0
472,236,228427,1,2
472,236,228636,1,0
472,156,228846,6,0,B|448:116|448:116|400:88,1,80,4|0
300,108,229266,2,0,B|324:148|324:148|372:176,2,80,4|4|4
236,60,229895,1,4
160,36,230105,1,4
140,40,230210,1,0
132,60,230315,1,0
112,68,230420,1,0
104,88,230525,5,2
228,188,230944,1,4
80,248,231364,1,4
216,332,231783,1,4
364,272,232203,2,0,B|488:156,1,160,4|4
372,44,233042,2,0,B|248:160,1,160,4|4
256,312,233881,5,2
180,288,234091,1,0
228,224,234301,1,2
304,248,234511,5,0
368,200,234720,1,2
296,164,234930,1,0
228,224,235140,5,2
164,176,235350,1,0
228,128,235560,1,2
296,164,235769,5,0
360,116,235979,1,2
312,52,236189,1,0
432,152,236399,5,2
312,52,236608,1,0
192,152,236818,1,2
72,52,237028,1,0
60,208,237238,6,0,B|72:288|72:288|108:320,1,120,4|0
140,324,237657,1,2
204,276,237867,2,0,B|280:220,1,80
400,224,238287,2,0,B|336:272,2,80,0|2|0
448,160,238916,5,0
448,160,239021,2,0,B|432:76|432:76|408:44,1,120,0|2
356,108,239546,1,0
276,108,239755,1,0
196,108,239965,1,0
132,60,240175,1,2
132,60,240385,1,0
132,180,240595,6,0,B|132:228,2,40
212,180,241014,2,0,B|292:180|292:180|336:204,1,120,2|0
344,236,241434,1,0
344,316,241643,1,0
324,240,241853,1,2
324,320,242063,1,0
256,220,242273,5,4
160,148,242483,2,0,B|120:112,2,40,0|0|4
160,188,242797,1,4
160,228,242902,1,4
160,308,243112,2,0,B|200:344,3,40
160,308,243532,5,4
