osu file format v14

[General]
AudioFilename: Platinum.mp3
AudioLeadIn: 0
PreviewTime: 135754
Countdown: 0
SampleSet: Soft
StackLeniency: 0.7
Mode: 0
LetterboxInBreaks: 0
WidescreenStoryboard: 0

[Editor]
DistanceSpacing: 1
BeatDivisor: 4
GridSize: 4
TimelineZoom: 1.7

[Metadata]
Title:Platinum
TitleUnicode:プラチナ
Artist:Aoyama Mio starring Yuuki Aoi
ArtistUnicode:青山美生 starring 悠木 碧
Creator:Bearizm
Version:Normal
Source:カードキャプターさくら
Tags:Cardcaptor Sakura Sakamoto Maaya 神のみぞ知るセカイ Kami Nomi zo Shiru Sekai Character Album Puella Magi Madoka Magica Platina
BeatmapID:744417
BeatmapSetID:181361

[Difficulty]
HPDrainRate:3
CircleSize:3
OverallDifficulty:4
ApproachRate:4
SliderMultiplier:1
SliderTickRate:2

[Events]
//Background and Video events
0,0,"Platinum.jpg",0,0
//Break Periods
2,10100,14434
2,89124,102239
2,168149,175409
//Storyboard Layer 0 (Background)
//Storyboard Layer 1 (Fail)
//Storyboard Layer 2 (Pass)
//Storyboard Layer 3 (Foreground)
//Storyboard Sound Samples

[TimingPoints]
1120,365.853658536585,4,2,1,5,1,0
4046,-100,4,2,1,60,0,0
15754,-100,4,2,1,70,0,0
16851,-100,4,2,2,70,0,0
17034,-100,4,2,1,70,0,0
19778,-100,4,2,2,70,0,0
19961,-100,4,2,1,70,0,0
22705,-100,4,2,2,70,0,0
22888,-100,4,2,1,70,0,0
25632,-100,4,2,2,70,0,0
25815,-100,4,2,1,70,0,0
28559,-100,4,2,2,70,0,0
28741,-100,4,2,1,70,0,0
31485,-100,4,2,2,70,0,0
31668,-100,4,2,1,70,0,0
34412,-100,4,2,2,70,0,0
34595,-100,4,2,1,70,0,0
36241,-100,4,2,1,80,0,0
37339,-100,4,2,2,80,0,0
37522,-100,4,2,1,80,0,0
40266,-100,4,2,2,80,0,0
40449,-100,4,2,1,80,0,0
43193,-100,4,2,2,80,0,0
43376,-100,4,2,1,80,0,0
46119,-100,4,2,2,80,0,0
46302,-100,4,2,1,80,0,0
47949,-100,4,2,1,90,0,1
77583,-100,4,2,1,90,0,0
103559,-100,4,2,1,70,0,0
104656,-100,4,2,2,70,0,0
104839,-100,4,2,1,70,0,0
107583,-100,4,2,2,70,0,0
107766,-100,4,2,1,70,0,0
110510,-100,4,2,2,70,0,0
110693,-100,4,2,1,70,0,0
113437,-100,4,2,2,70,0,0
113619,-100,4,2,1,70,0,0
116363,-100,4,2,2,70,0,0
116546,-100,4,2,1,70,0,0
119290,-100,4,2,2,70,0,0
119473,-100,4,2,1,70,0,0
122217,-100,4,2,2,70,0,0
122400,-100,4,2,1,70,0,0
124046,-100,4,2,1,80,0,0
125144,-100,4,2,2,80,0,0
125327,-100,4,2,1,80,0,0
128071,-100,4,2,2,80,0,0
128254,-100,4,2,1,80,0,0
130998,-100,4,2,2,80,0,0
131180,-100,4,2,1,80,0,0
133924,-100,4,2,2,80,0,0
134107,-100,4,2,1,80,0,0
135754,-100,4,2,1,90,0,1
165388,-100,4,2,1,90,0,0
176729,-100,4,2,1,70,0,0
185144,-100,4,2,1,80,0,0
188437,-100,4,2,1,90,0,0
200144,-100,4,2,1,90,0,1
229778,-100,4,2,1,90,0,0
238193,394.736842105263,4,2,1,60,1,0
238982,422.535211267606,4,2,1,60,1,0

[Colours]
Combo1 : 128,0,128
Combo2 : 128,255,255
Combo3 : 128,128,255
Combo4 : 0,128,128

[HitObjects]
112,56,4046,6,0,L|120:156,1,100,4|0,0:0|0:0,0:0:0:0:
156,192,4595,2,0,L|152:292,1,100,2|0,0:0|0:0,0:0:0:0:
280,368,5510,2,0,P|332:372|372:348,1,100,2|0,0:0|0:0,0:0:0:0:
424,264,6241,2,0,L|396:164,1,100,2|0,0:0|0:0,0:0:0:0:
300,140,6973,6,0,B|250:143|250:143|200:126,1,100,2|0,0:0|0:0,0:0:0:0:
152,136,7522,2,0,P|116:172|104:220,1,100,2|0,0:0|0:0,0:0:0:0:
196,336,8437,2,0,L|296:320,1,100,2|0,0:0|0:0,0:0:0:0:
336,292,8985,2,0,P|384:280|432:296,1,100
472,324,9534,1,2,0:0:0:0:
504,228,9900,5,4,0:0:0:0:
488,192,15754,5,4,0:0:0:0:
416,264,16119,1,8,0:0:0:0:
320,240,16485,2,0,P|308:192|320:144,1,100,8|8,0:0|0:0,0:0:0:0:
392,72,17217,2,0,P|320:96|256:64,1,150,8|0,0:0|0:0,0:0:0:0:
162,31,18132,2,0,P|118:39|90:55,2,75,2|2|2,0:0|0:0|0:0,0:0:0:0:
154,130,19046,5,8,0:0:0:0:
220,204,19412,1,8,0:0:0:0:
316,176,19778,2,0,B|364:164|364:164|392:168|412:180,1,100,8|8,0:0|0:0,0:0:0:0:
488,244,20510,2,0,L|476:344,1,100,8|8,0:0|0:0,0:0:0:0:
384,380,21241,1,10,0:0:0:0:
308,316,21607,6,0,L|156:300,1,150
60,288,22522,2,0,L|68:236,1,50,0|8,0:0|0:0,0:0:0:0:
112,148,23071,2,0,P|177:116|247:140,2,150,8|0|2,0:0|0:0|0:0,0:0:0:0:
184,216,24534,6,0,L|288:228,1,100,8|8,0:0|0:0,0:0:0:0:
384,224,25266,2,0,P|396:176|432:144,2,100,8|8|8,0:0|0:0|0:0,0:0:0:0:
412,264,26180,2,0,L|512:252,2,100,2|2|2,0:0|0:0|0:0,0:0:0:0:
272,324,27461,6,0,L|172:312,1,100,8|8,0:0|0:0,0:0:0:0:
112,232,28193,2,0,P|96:184|104:136,1,100,8|8,0:0|0:0,0:0:0:0:
122,89,28741,2,0,P|186:126|251:98,1,150,0|8,0:0|0:0,0:0:0:0:
300,8,29656,1,8,0:0:0:0:
392,48,30022,2,0,L|444:44,2,50,10|0|8,0:0|0:0|0:0,0:0:0:0:
328,124,30754,5,8,0:0:0:0:
376,212,31119,2,0,L|364:312,1,100,8|8,0:0|0:0,0:0:0:0:
356,360,31668,2,0,P|285:329|223:358,1,150,0|8,0:0|0:0,0:0:0:0:
128,328,32583,2,0,P|112:280|124:232,1,100,8|2,0:0|0:0,0:0:0:0:
160,140,33315,6,0,P|141:87|67:156,1,200,8|8,0:0|0:0,0:0:0:0:
123,233,34412,1,8,0:0:0:0:
123,233,34595,2,0,L|112:332,2,100,2|2|2,0:0|0:0|0:0,0:0:0:0:
216,196,35693,1,2,0:0:0:0:
288,264,36059,1,2,0:0:0:0:
288,264,36241,6,0,P|340:268|384:244,1,100,4|0,0:0|1:0,0:0:0:0:
440,164,36973,2,0,L|436:64,1,100,2|8,0:0|0:0,0:0:0:0:
392,40,37522,1,0,0:0:0:0:
392,40,37705,2,0,B|340:32|340:32|292:40|292:40|244:32,1,150,2|2,0:0|0:0,0:0:0:0:
156,80,38619,1,2,0:0:0:0:
72,24,38985,2,0,B|60:72|60:72|76:172,1,150,2|0,0:0|1:0,0:0:0:0:
124,260,39900,6,0,P|128:312|116:360,2,100,2|8|2,0:0|0:0|0:0,0:0:0:0:
160,164,40998,1,2,0:0:0:0:
160,164,41180,2,0,P|204:140|256:136,1,100,2|2,0:0|0:0,0:0:0:0:
340,184,41912,2,0,L|328:336,1,150,2|0,0:0|1:0,0:0:0:0:
232,356,42827,6,0,P|200:316|192:268,1,100,2|8,0:0|0:0,0:0:0:0:
240,180,43559,1,2,0:0:0:0:
340,184,43924,1,2,0:0:0:0:
340,184,44107,2,0,L|324:84,1,100,2|2,0:0|0:0,0:0:0:0:
180,44,45022,5,2,0:0:0:0:
180,44,45205,2,0,P|128:50|90:81,2,100,2|2|2,0:0|0:0|0:0,0:0:0:0:
204,88,46119,1,8,0:0:0:0:
204,88,46302,2,0,L|188:188,1,100,2|2,0:0|1:2,0:0:0:0:
280,224,47034,1,2,0:0:0:0:
280,224,47217,2,0,P|329:213|365:179,1,100,2|2,1:2|1:2,0:0:0:0:
424,96,47949,6,0,P|476:108|508:140,1,100,4|0,0:0|1:0,0:0:0:0:
508,192,48498,2,0,L|472:340,1,150,2|0,0:0|1:0,0:0:0:0:
384,292,49412,1,2,0:0:0:0:
288,320,49778,1,0,1:0:0:0:
192,288,50144,2,0,L|144:300,2,50,2|0|0,0:0|0:0|1:0,0:0:0:0:
256,212,50876,6,0,L|260:112,1,100,2|0,0:0|1:0,0:0:0:0:
260,64,51424,2,0,P|184:80|128:40,1,150,2|0,0:0|1:0,0:0:0:0:
32,68,52339,2,0,P|20:116|32:164,1,100,2|0,0:0|1:0,0:0:0:0:
56,260,53071,2,0,L|48:312,2,50,2|0|0,0:0|0:0|1:0,0:0:0:0:
128,188,53802,6,0,P|176:176|224:188,1,100,4|0,0:0|1:0,0:0:0:0:
264,220,54351,2,0,L|252:68,1,150,2|0,0:0|1:0,0:0:0:0:
352,68,55266,2,0,P|404:80|448:64,1,100,2|0,0:0|1:0,0:0:0:0:
488,36,55815,2,0,L|476:188,1,150,2|0,0:0|1:0,0:0:0:0:
424,272,56729,6,0,P|444:320|484:344,2,100,2|0|2,0:0|1:0|0:0,0:0:0:0:
336,220,57827,1,0,1:0:0:0:
336,220,58010,2,0,P|284:228|248:256,1,100,4|2,0:0|0:0,0:0:0:0:
212,292,58559,2,0,P|160:300|116:280,2,100,0|8|0,1:0|3:0|1:0,0:0:0:0:
176,198,59656,6,0,L|168:96,1,100,4|0,0:0|1:0,0:0:0:0:
164,48,60205,2,0,P|240:60|296:20,1,150,2|0,0:0|1:0,0:0:0:0:
396,26,61119,2,0,P|428:66|436:114,1,100,2|0,0:0|1:0,0:0:0:0:
452,212,61851,2,0,L|504:220,2,50,2|0|0,0:0|0:0|1:0,0:0:0:0:
360,176,62583,6,0,L|260:184,1,100,2|0,0:0|1:0,0:0:0:0:
236,228,63132,2,0,P|168:264|104:236,1,150,2|0,0:0|1:0,0:0:0:0:
52,152,64046,2,0,P|44:100|16:60,1,100,2|0,0:0|1:0,0:0:0:0:
108,16,64778,2,0,L|208:20,1,100,2|0,0:0|1:0,0:0:0:0:
252,44,65327,1,2,0:0:0:0:
252,44,65510,6,0,B|240:108|240:108|256:176|256:176|244:240,1,200,4|0,0:0|0:0,0:0:0:0:
324,308,66607,1,0,1:0:0:0:
324,308,66790,2,0,P|400:316|448:268,1,150,2|0,0:0|1:0,0:0:0:0:
448,216,67522,2,0,B|440:164|440:164|452:116|452:116|444:68,1,150,2|0,0:0|1:0,0:0:0:0:
348,92,68437,6,0,P|300:104|252:88,1,100,4|0,0:0|1:0,0:0:0:0:
208,68,68985,2,0,P|156:68|116:92,1,100,2|2,0:0|0:0,0:0:0:0:
112,142,69534,1,0,1:0:0:0:
112,142,69717,2,0,B|128:214|128:214|112:290,1,150,4|0,0:0|1:0,0:0:0:0:
200,336,70632,1,2,3:0:0:0:
284,284,70998,1,8,3:0:0:0:
284,184,71363,6,0,L|296:84,1,100,4|0,0:0|1:0,0:0:0:0:
204,44,72095,1,0,0:0:0:0:
204,44,72278,2,0,P|156:60|124:96,1,100,2|2,0:0|0:0,0:0:0:0:
24,104,73010,2,0,P|39:152|75:184,1,100,2|2,0:0|0:0,0:0:0:0:
84,284,73742,2,0,P|132:268|164:232,1,100,2|2,0:0|0:0,0:0:0:0:
184,188,74290,6,0,L|172:88,2,100,0|0|0,0:0|1:0|0:0,0:0:0:0:
264,248,75388,1,0,1:0:0:0:
264,248,75571,2,0,L|260:348,2,100,4|0|2,0:0|1:0|0:0,0:0:0:0:
320,168,76668,1,0,1:0:0:0:
420,152,77034,2,0,P|432:200|428:252,1,100,2|0,0:0|0:0,0:0:0:0:
407,297,77583,5,4,1:2:0:0:
256,192,77766,12,2,80144,0:0:0:0:
407,297,81241,5,0,1:0:0:0:
407,297,81424,2,0,L|392:148,1,150,2|0,0:0|1:0,0:0:0:0:
312,88,82339,2,0,P|260:84|208:96,1,100,0|0,0:0|1:0,0:0:0:0:
160,176,83071,1,0,3:0:0:0:
196,268,83437,6,0,B|248:264|248:264|344:292|344:292|392:288,1,200,4|0,1:2|1:0,0:0:0:0:
436,264,84351,2,0,P|448:216|428:120,1,150,2|0,0:0|1:0,0:0:0:0:
344,64,85266,2,0,L|244:72,1,100,2|0,0:0|1:0,0:0:0:0:
256,192,85998,12,4,88924,0:0:0:0:
359,199,103559,5,4,0:0:0:0:
284,268,103924,1,8,0:0:0:0:
196,220,104290,2,0,L|188:120,1,100,8|8,0:0|0:0,0:0:0:0:
256,48,105022,2,0,P|332:28|388:68,1,150,8|0,0:0|0:0,0:0:0:0:
485,83,105937,2,0,P|486:45|471:11,2,75,2|2|2,0:0|0:0|0:0,0:0:0:0:
420,160,106851,5,8,0:0:0:0:
360,240,107217,1,8,0:0:0:0:
276,184,107583,2,0,L|176:172,1,100,8|8,0:0|0:0,0:0:0:0:
172,272,108315,2,0,L|272:284,1,100,8|8,0:0|0:0,0:0:0:0:
360,240,109046,1,2,0:0:0:0:
312,152,109412,6,0,P|255:101|184:113,1,150,8|0,0:0|0:0,0:0:0:0:
116,184,110327,2,0,P|120:212|128:236,1,50,0|8,0:0|0:0,0:0:0:0:
220,268,110876,2,0,B|320:252|320:252|368:264,2,150,8|0|2,0:0|0:0|0:0,0:0:0:0:
140,208,112339,6,0,P|128:156|140:108,1,100,8|8,0:0|0:0,0:0:0:0:
196,28,113071,1,8,0:0:0:0:
236,120,113437,1,8,0:0:0:0:
138,111,113802,1,0,0:0:0:0:
138,111,113985,2,0,L|34:99,2,100,2|2|2,0:0|0:0|0:0,0:0:0:0:
240,220,115266,6,0,L|344:216,1,100,8|8,0:0|0:0,0:0:0:0:
440,216,115998,2,0,P|468:260|472:312,1,100,8|8,0:0|0:0,0:0:0:0:
440,344,116546,2,0,B|340:332|340:332|292:344,1,150,0|8,0:0|0:0,0:0:0:0:
192,352,117461,1,8,0:0:0:0:
116,288,117827,2,0,L|64:296,2,50,2|0|8,0:0|0:0|0:0,0:0:0:0:
212,256,118559,5,8,0:0:0:0:
248,160,118924,2,0,L|228:60,1,100,8|8,0:0|0:0,0:0:0:0:
220,12,119473,2,0,P|288:44|344:4,1,150,0|8,0:0|0:0,0:0:0:0:
444,20,120388,1,8,0:0:0:0:
476,116,120754,1,10,0:0:0:0:
511,207,121119,6,0,P|440:258|400:180,1,200,8|8,0:0|0:0,0:0:0:0:
356,88,122217,1,8,0:0:0:0:
356,88,122400,2,0,P|308:76|260:88,2,100,2|2|2,0:0|0:0|0:0,0:0:0:0:
400,178,123498,2,0,L|392:282,1,100,2|2,0:0|0:0,0:0:0:0:
352,308,124046,6,0,P|300:316|256:296,1,100,4|0,0:0|1:0,0:0:0:0:
184,228,124778,2,0,P|136:240|100:276,1,100,2|8,0:0|0:0,0:0:0:0:
84,320,125327,1,0,0:0:0:0:
84,320,125510,2,0,L|72:168,1,150,2|2,0:0|0:0,0:0:0:0:
128,88,126424,1,2,0:0:0:0:
172,180,126790,2,0,P|231:220|305:207,1,150,2|0,0:0|1:0,0:0:0:0:
404,224,127705,6,0,L|392:324,2,100,2|8|2,0:0|0:0|0:0,0:0:0:0:
364,132,128802,1,8,0:0:0:0:
364,132,128985,2,0,L|352:32,1,100,2|2,0:0|0:0,0:0:0:0:
268,88,129717,2,0,B|216:80|216:80|168:88|168:88|120:80,1,150,2|0,0:0|1:0,0:0:0:0:
52,154,130632,6,0,P|94:179|145:178,1,100,2|8,0:0|0:0,0:0:0:0:
233,222,131363,2,0,P|229:272|198:309,1,100,2|2,0:0|0:0,0:0:0:0:
152,329,131912,2,0,L|52:341,1,100,2|2,0:0|0:0,0:0:0:0:
12,196,132827,5,2,0:0:0:0:
12,196,133010,2,0,L|4:96,2,100,2|2|2,0:0|0:0|0:0,0:0:0:0:
52,228,133924,1,10,0:0:0:0:
52,228,134107,2,0,P|104:236|148:216,1,100,2|2,0:0|1:2,0:0:0:0:
244,204,134839,1,2,0:0:0:0:
244,204,135022,2,0,P|293:223|326:260,1,100,2|2,1:2|1:2,0:0:0:0:
420,288,135754,5,4,0:0:0:0:
476,204,136119,1,0,1:0:0:0:
476,204,136302,2,0,B|460:104|460:104|468:56,1,150,2|0,0:0|1:0,0:0:0:0:
368,72,137217,2,0,P|320:84|272:68,1,100,2|0,0:0|1:0,0:0:0:0:
176,44,137949,2,0,L|124:48,2,50,2|0|0,0:0|0:0|1:0,0:0:0:0:
196,140,138680,5,2,0:0:0:0:
272,204,139046,1,0,1:0:0:0:
272,204,139229,2,0,B|300:208|328:196|328:196|364:204|364:204|392:196|420:204,1,150,2|0,0:0|1:0,0:0:0:0:
392,300,140144,1,2,0:0:0:0:
292,304,140510,1,0,1:0:0:0:
196,272,140876,2,0,L|148:288,2,50,2|0|0,0:0|0:0|1:0,0:0:0:0:
272,204,141607,6,0,P|280:152|264:108,1,100,4|0,0:0|1:0,0:0:0:0:
224,80,142156,2,0,P|300:92|348:44,1,150,2|0,0:0|1:0,0:0:0:0:
444,72,143071,2,0,L|440:172,1,100,2|0,0:0|1:0,0:0:0:0:
404,208,143619,2,0,L|424:356,1,150,2|0,0:0|1:0,0:0:0:0:
332,316,144534,5,2,0:0:0:0:
232,328,144900,1,0,1:0:0:0:
148,272,145266,2,0,L|152:172,1,100,2|0,0:0|1:0,0:0:0:0:
132,124,145815,2,0,P|168:88|216:76,1,100,4|0,0:0|0:0,0:0:0:0:
260,96,146363,2,0,P|292:56|296:8,2,100,0|8|0,1:0|3:0|1:0,0:0:0:0:
280,196,147461,6,0,L|288:300,1,100,4|0,0:0|1:0,0:0:0:0:
292,344,148010,2,0,P|360:308|424:332,1,150,2|0,0:0|1:0,0:0:0:0:
496,260,148924,1,2,0:0:0:0:
428,188,149290,1,0,1:0:0:0:
492,112,149656,2,0,L|500:60,2,50,2|0|0,0:0|0:0|1:0,0:0:0:0:
428,188,150388,6,0,P|380:200|332:184,1,100,2|0,0:0|1:0,0:0:0:0:
288,160,150937,2,0,B|300:236|300:236|288:308,1,150,2|0,0:0|1:0,0:0:0:0:
188,320,151851,2,0,L|88:312,1,100,2|0,0:0|1:0,0:0:0:0:
44,220,152583,2,0,L|144:228,1,100,2|0,0:0|1:0,0:0:0:0:
188,204,153132,1,2,0:0:0:0:
188,204,153315,6,0,B|236:188|280:216|280:216|332:188|336:132,1,200,4|0,0:0|0:0,0:0:0:0:
272,60,154412,1,0,1:0:0:0:
272,60,154595,2,0,P|328:92|392:48,1,150,2|0,0:0|1:0,0:0:0:0:
420,8,155327,2,0,L|432:160,1,150,2|0,0:0|1:0,0:0:0:0:
336,184,156241,6,0,L|332:284,1,100,4|0,0:0|1:0,0:0:0:0:
300,323,156790,2,0,P|256:300|208:308,1,100,2|2,0:0|0:0,0:0:0:0:
180,264,157339,1,0,1:0:0:0:
180,264,157522,2,0,B|168:216|168:216|176:164|176:164|164:116,1,150,4|0,0:0|1:0,0:0:0:0:
140,20,158437,1,2,3:0:0:0:
68,92,158802,1,8,3:0:0:0:
164,117,159168,6,0,L|264:104,1,100,4|0,0:0|1:0,0:0:0:0:
348,52,159900,1,2,0:0:0:0:
348,52,160083,2,0,P|388:84|400:132,1,100,2|2,0:0|0:0,0:0:0:0:
488,176,160815,2,0,P|456:216|408:228,1,100,2|2,0:0|0:0,0:0:0:0:
364,317,161546,2,0,P|324:285|312:237,1,100,2|2,0:0|0:0,0:0:0:0:
320,188,162095,6,0,L|308:88,2,100,0|0|0,0:0|1:0|0:0,0:0:0:0:
228,228,163193,1,0,1:0:0:0:
228,228,163376,2,0,P|176:236|132:216,2,100,4|0|8,0:0|1:0|3:0,0:0:0:0:
190,135,164473,1,0,1:0:0:0:
292,136,164839,2,0,P|328:176|340:220,1,100,2|0,0:0|0:0,0:0:0:0:
340,268,165388,5,4,1:2:0:0:
256,192,165571,12,0,167949,1:0:0:0:
292,280,176729,5,4,0:0:0:0:
228,204,177095,1,0,1:0:0:0:
136,244,177461,2,0,P|84:240|48:212,2,100,0|0|0,1:0|1:0|1:0,0:0:0:0:
123,144,178559,1,0,1:0:0:0:
172,56,178924,2,0,L|272:52,1,100,0|0,1:0|1:0,0:0:0:0:
320,48,179473,1,2,0:0:0:0:
288,196,180022,5,0,1:0:0:0:
368,256,180388,2,0,P|420:264|464:248,1,100,0|0,1:0|1:0,0:0:0:0:
500,212,180937,2,0,L|488:60,1,150,2|0,0:0|1:0,0:0:0:0:
392,32,181851,2,0,L|388:132,1,100,0|0,1:0|1:0,0:0:0:0:
320,208,182583,5,4,1:2:0:0:
248,140,182949,2,0,B|196:136|196:136|148:148|148:148|100:144,2,150,0|2|0,1:0|0:0|1:0,0:0:0:0:
320,208,184412,1,0,1:0:0:0:
252,280,184778,1,0,1:0:0:0:
348,308,185144,1,0,1:0:0:0:
348,308,185327,6,0,B|448:324|448:324|496:312,1,150,4|0,0:0|1:0,0:0:0:0:
492,260,186059,2,0,B|476:232|480:200|480:200|464:196|464:196|468:168|452:124,1,150,4|0,0:0|1:0,0:0:0:0:
472,80,186790,2,0,P|400:100|344:56,1,150,4|0,0:0|1:0,0:0:0:0:
296,56,187522,2,0,B|288:108|288:108|296:156|296:156,1,100,4|0,0:0|1:0,0:0:0:0:
308,204,188071,1,0,1:0:0:0:
252,284,188437,6,0,P|204:296|156:280,1,100,4|0,0:0|1:0,0:0:0:0:
76,220,189168,2,0,L|84:120,1,100,2|0,0:0|1:0,0:0:0:0:
68,72,189717,2,0,P|120:76|160:52,1,100,2|0,0:0|0:0,0:0:0:0:
195,16,190266,1,0,1:0:0:0:
228,112,190632,1,2,0:0:0:0:
324,148,190998,1,0,1:0:0:0:
416,108,191363,6,0,P|448:148|456:196,1,100,2|0,0:0|1:0,0:0:0:0:
428,236,191912,2,0,P|412:288|420:336,2,100,2|2|2,0:0|0:0|0:0,0:0:0:0:
332,204,193010,1,0,0:0:0:0:
332,204,193193,2,0,L|232:208,1,100,0|2,1:0|0:0,0:0:0:0:
148,260,193924,1,0,1:0:0:0:
64,204,194290,6,0,P|52:154|68:108,1,100,4|0,0:0|1:0,0:0:0:0:
160,68,195022,2,0,B|212:72|212:72|260:60,1,100,2|0,0:0|1:0,0:0:0:0:
352,28,195754,1,0,0:0:0:0:
440,76,196119,1,0,1:0:0:0:
460,172,196485,2,0,L|448:272,1,100,2|0,0:0|1:0,0:0:0:0:
364,328,197217,5,2,0:0:0:0:
332,232,197583,1,0,1:0:0:0:
264,308,197949,1,2,0:0:0:0:
232,212,198315,1,0,1:0:0:0:
232,212,198498,2,0,L|240:60,1,150,2|0,0:0|1:0,0:0:0:0:
336,32,199412,2,0,L|331:134,1,100,8|0,3:0|1:0,0:0:0:0:
412,188,200144,6,0,P|420:240|404:284,1,100,4|0,0:0|1:0,0:0:0:0:
368,316,200693,2,0,L|216:304,1,150,2|0,0:0|1:0,0:0:0:0:
136,248,201607,1,2,0:0:0:0:
212,180,201973,1,0,1:0:0:0:
116,148,202339,2,0,L|64:156,2,50,2|0|0,0:0|0:0|1:0,0:0:0:0:
212,180,203071,6,0,P|260:168|292:132,1,100,2|0,0:0|1:0,0:0:0:0:
312,84,203619,2,0,L|316:236,1,150,2|0,0:0|1:0,0:0:0:0:
372,316,204534,1,2,0:0:0:0:
405,222,204900,1,0,1:0:0:0:
468,300,205266,2,0,L|458:351,2,50,2|0|0,0:0|0:0|1:0,0:0:0:0:
405,222,205998,6,0,L|400:120,1,100,4|0,0:0|1:0,0:0:0:0:
396,72,206546,2,0,P|328:104|268:68,1,150,2|0,0:0|1:0,0:0:0:0:
176,32,207461,2,0,P|132:60|112:104,1,100,2|0,0:0|1:0,0:0:0:0:
116,152,208010,2,0,B|128:200|128:200|120:252|120:252|128:300,1,150,2|0,0:0|1:0,0:0:0:0:
212,352,208924,6,0,P|264:360|308:340,1,100,2|0,0:0|1:0,0:0:0:0:
351,319,209473,1,2,0:0:0:0:
351,319,209656,2,0,P|401:312|447:330,1,100,2|0,0:0|1:0,0:0:0:0:
452,280,210205,2,0,L|440:180,1,100,4|2,0:0|0:0,0:0:0:0:
404,144,210754,2,0,L|416:44,2,100,0|8|0,1:0|3:0|1:0,0:0:0:0:
320,92,211851,6,0,P|268:84|224:100,1,100,4|0,0:0|1:0,0:0:0:0:
180,124,212400,2,0,B|142:116|115:91|115:91|75:96|50:132,1,150,2|0,0:0|1:0,0:0:0:0:
32,228,213315,1,2,0:0:0:0:
132,232,213680,1,0,1:0:0:0:
80,316,214046,2,0,L|28:324,2,50,2|0|0,0:0|0:0|1:0,0:0:0:0:
132,232,214778,6,0,P|184:232|224:256,1,100,2|0,0:0|1:0,0:0:0:0:
252,300,215327,2,0,L|400:280,1,150,2|0,0:0|1:0,0:0:0:0:
468,204,216241,2,0,P|472:152|452:108,1,100,2|0,0:0|1:0,0:0:0:0:
356,84,216973,2,0,P|303:78|266:47,1,100,2|0,0:0|1:0,0:0:0:0:
220,60,217522,1,2,0:0:0:0:
220,60,217705,6,0,B|204:92|220:132|220:132|208:180|208:180|228:212|220:256,1,200,4|0,0:0|0:0,0:0:0:0:
140,316,218802,1,0,1:0:0:0:
140,316,218985,2,0,B|112:308|88:308|64:316|64:316|72:292|68:268|56:244,1,150,2|0,0:0|1:0,0:0:0:0:
28,204,219717,2,0,B|36:152|36:152|28:104|28:104|36:56,1,150,2|0,0:0|1:0,0:0:0:0:
132,80,220632,6,0,P|180:92|228:76,1,100,4|0,0:0|1:0,0:0:0:0:
272,60,221180,2,0,P|324:68|360:96,1,100,2|2,0:0|0:0,0:0:0:0:
380,144,221729,1,0,1:0:0:0:
380,144,221912,2,0,L|368:296,1,150,4|0,0:0|1:0,0:0:0:0:
276,260,222827,1,2,3:0:0:0:
188,304,223193,1,8,3:0:0:0:
112,240,223559,6,0,P|96:192|108:144,1,100,4|0,0:0|1:0,0:0:0:0:
184,84,224290,1,2,0:0:0:0:
184,84,224473,2,0,L|284:68,1,100,2|2,0:0|0:0,0:0:0:0:
344,148,225205,2,0,L|244:164,1,100,2|2,0:0|0:0,0:0:0:0:
212,260,225937,2,0,L|312:244,1,100,2|2,0:0|0:0,0:0:0:0:
352,276,226485,6,0,P|396:296|452:288,2,100,0|0|0,0:0|1:0|0:0,0:0:0:0:
413,196,227583,1,0,1:0:0:0:
413,196,227766,2,0,L|400:96,2,100,4|0|8,0:0|1:0|3:0,0:0:0:0:
352,276,228863,1,0,1:0:0:0:
276,212,229229,2,0,L|176:200,1,100,2|0,0:0|0:0,0:0:0:0:
127,208,229778,5,4,1:2:0:0:
256,192,230144,12,2,232339,0:0:0:0:
127,208,233437,5,0,1:0:0:0:
127,208,233619,2,0,L|136:56,1,150,2|0,0:0|1:0,0:0:0:0:
232,80,234534,2,0,B|284:76|324:40,1,100,0|0,0:0|1:0,0:0:0:0:
424,32,235266,5,0,3:0:0:0:
472,120,235632,2,0,L|460:320,1,200,4|0,1:2|1:0,0:0:0:0:
420,348,236546,2,0,P|338:356|298:309,1,150,2|0,0:0|1:0,0:0:0:0:
284,208,237461,2,0,P|236:196|188:208,1,100,2|0,0:0|1:0,0:0:0:0:
100,232,238193,6,0,L|88:132,1,100,4|0,0:0|0:0,0:0:0:0:
144,56,238982,2,0,P|192:72|244:76,1,100,4|4,0:3|0:0,0:0:0:0:
256,192,239510,12,4,242573,0:0:0:0:
