osu file format v14

[General]
AudioFilename: Platinum.mp3
AudioLeadIn: 0
PreviewTime: 135754
Countdown: 0
SampleSet: Soft
StackLeniency: 0.7
Mode: 0
LetterboxInBreaks: 0
WidescreenStoryboard: 0

[Editor]
DistanceSpacing: 1.3
BeatDivisor: 4
GridSize: 4
TimelineZoom: 1.7

[Metadata]
Title:Platinum
TitleUnicode:プラチナ
Artist:Aoyama Mio starring Yuuki Aoi
ArtistUnicode:青山美生 starring 悠木 碧
Creator:Bearizm
Version:Hard
Source:カードキャプターさくら
Tags:Cardcaptor Sakura Sakamoto Maaya 神のみぞ知るセカイ Kami Nomi zo Shiru Sekai Character Album Puella Magi Madoka Magica Platina
BeatmapID:744415
BeatmapSetID:181361

[Difficulty]
HPDrainRate:5
CircleSize:4
OverallDifficulty:6
ApproachRate:7.5
SliderMultiplier:1.4
SliderTickRate:2

[Events]
//Background and Video events
0,0,"Platinum.jpg",0,0
//Break Periods
2,89124,102734
2,168149,175904
//Storyboard Layer 0 (Background)
//Storyboard Layer 1 (Fail)
//Storyboard Layer 2 (Pass)
//Storyboard Layer 3 (Foreground)
//Storyboard Sound Samples

[TimingPoints]
1120,365.853658536585,4,2,1,5,1,0
4046,-133.333333333333,4,2,1,60,0,0
15754,-100,4,2,1,70,0,0
16851,-100,4,2,2,70,0,0
17034,-100,4,2,1,70,0,0
19778,-100,4,2,2,70,0,0
19961,-100,4,2,1,70,0,0
22705,-100,4,2,2,70,0,0
22888,-100,4,2,1,70,0,0
25632,-100,4,2,2,70,0,0
25815,-100,4,2,1,70,0,0
28559,-100,4,2,2,70,0,0
28741,-100,4,2,1,70,0,0
31485,-100,4,2,2,70,0,0
31668,-100,4,2,1,70,0,0
34412,-100,4,2,2,70,0,0
34595,-100,4,2,1,70,0,0
36241,-100,4,2,1,80,0,0
37339,-100,4,2,2,80,0,0
37522,-100,4,2,1,80,0,0
38071,-100,4,2,2,80,0,0
38254,-100,4,2,1,80,0,0
40266,-100,4,2,2,80,0,0
40449,-100,4,2,1,80,0,0
43193,-100,4,2,2,80,0,0
43376,-100,4,2,1,80,0,0
46119,-100,4,2,2,80,0,0
46302,-100,4,2,1,80,0,0
47949,-100,4,2,1,90,0,1
77583,-100,4,2,1,90,0,0
103559,-100,4,2,1,70,0,0
104656,-100,4,2,2,70,0,0
104839,-100,4,2,1,70,0,0
107583,-100,4,2,2,70,0,0
107766,-100,4,2,1,70,0,0
110510,-100,4,2,2,70,0,0
110693,-100,4,2,1,70,0,0
113437,-100,4,2,2,70,0,0
113619,-100,4,2,1,70,0,0
116363,-100,4,2,2,70,0,0
116546,-100,4,2,1,70,0,0
119290,-100,4,2,2,70,0,0
119473,-100,4,2,1,70,0,0
122217,-100,4,2,2,70,0,0
122400,-100,4,2,1,70,0,0
124046,-100,4,2,1,80,0,0
125144,-100,4,2,2,80,0,0
125327,-100,4,2,1,80,0,0
128071,-100,4,2,2,80,0,0
128254,-100,4,2,1,80,0,0
130998,-100,4,2,2,80,0,0
131180,-100,4,2,1,80,0,0
133924,-100,4,2,2,80,0,0
134107,-100,4,2,1,80,0,0
135754,-100,4,2,1,90,0,1
165388,-100,4,2,1,90,0,0
176729,-100,4,2,1,70,0,0
185144,-100,4,2,1,80,0,0
188437,-100,4,2,1,90,0,0
200144,-100,4,2,1,90,0,1
229778,-100,4,2,1,90,0,0
238193,394.736842105263,4,2,1,60,1,0
238193,-133.333333333333,4,2,1,60,0,0
238982,422.535211267606,4,2,1,60,1,0

[Colours]
Combo1 : 128,0,128
Combo2 : 128,255,255
Combo3 : 128,128,255
Combo4 : 0,128,128

[HitObjects]
292,124,4046,6,0,L|288:72,2,52.5000020027161,4|0|0,0:0|0:0|0:0,0:0:0:0:
368,172,4595,2,0,L|364:276,1,105.000004005432,2|0,0:0|0:0,0:0:0:0:
363,276,5327,5,0,0:0:0:0:
277,249,5510,2,0,P|253:253|225:269,1,52.5000020027161,2|0,0:0|0:0,0:0:0:0:
160,324,5876,2,0,P|132:316|112:304,1,52.5000020027161,2|0,0:0|0:0,0:0:0:0:
80,220,6241,2,0,P|84:116|84:112,1,105.000004005432,2|0,0:0|0:0,0:0:0:0:
83,115,6973,6,0,P|104:100|132:92,1,52.5000020027161,2|0,0:0|0:0,0:0:0:0:
216,116,7339,1,0,0:0:0:0:
172,192,7522,2,0,L|184:296,1,105.000004005432,2|0,0:0|0:0,0:0:0:0:
184,296,8254,5,0,0:0:0:0:
260,340,8437,2,0,P|288:336|312:328,1,52.5000020027161,2|0,0:0|0:0,0:0:0:0:
368,260,8802,1,2,0:0:0:0:
320,184,8985,2,0,L|328:80,1,105.000004005432
244,44,9534,2,0,L|236:148,1,105.000004005432,2|4,0:0|0:0,0:0:0:0:
235,148,10266,5,0,0:0:0:0:
147,166,10449,2,0,L|95:162,1,52.5000020027161,2|0,0:0|0:0,0:0:0:0:
92,252,10815,2,0,L|144:256,1,52.5000020027161,2|0,0:0|0:0,0:0:0:0:
228,224,11180,2,0,L|336:216,2,105.000004005432,2|0|0,0:0|0:0|0:0,0:0:0:0:
154,273,12095,2,0,P|149:300|153:324,1,52.5000020027161
237,352,12461,2,0,P|241:324|237:300,1,52.5000020027161,2|0,0:0|0:0,0:0:0:0:
220,212,12827,6,0,L|210:176,2,35.0000013351441,2|0|0,0:0|0:0|0:0,0:0:0:0:
296,232,13193,2,0,L|308:268,2,35.0000013351441
332,164,13559,2,0,L|322:128,2,35.0000013351441
400,200,13924,2,0,L|412:236,2,35.0000013351441
455,145,14290,6,0,L|463:41,1,105.000004005432,8|0,3:0|0:0,0:0:0:0:
359,61,14839,2,0,L|371:165,1,105.000004005432,8|8,3:0|3:0,0:0:0:0:
412,244,15388,1,4,3:0:0:0:
232,216,15754,6,0,B|184:212|184:212|140:220|140:220|92:216,2,140,4|8|8,0:0|0:0|0:0,0:0:0:0:
304,268,16668,1,0,0:0:0:0:
314,177,16851,2,0,P|304:144|284:116,1,70,8|0,0:0|0:0,0:0:0:0:
208,64,17217,6,0,P|276:76|320:24,1,140,8|8,0:0|0:0,0:0:0:0:
400,68,17766,2,0,L|396:140,1,70,0|8,0:0|0:0,0:0:0:0:
314,177,18132,2,0,L|326:281,2,105,2|2|2,0:0|0:0|0:0,0:0:0:0:
240,124,18863,5,0,0:0:0:0:
168,180,19046,2,0,P|128:176|100:184,1,70,8|0,0:0|0:0,0:0:0:0:
16,148,19412,2,0,P|4:116|4:80,1,70,8|0,0:0|0:0,0:0:0:0:
99,184,19778,1,8,0:0:0:0:
48,260,19961,1,0,0:0:0:0:
92,340,20144,6,0,L|164:344,1,70,8|0,0:0|0:0,0:0:0:0:
232,288,20510,2,0,P|265:301|292:324,2,70,8|0|8,0:0|0:0|0:0,0:0:0:0:
196,204,21059,1,0,0:0:0:0:
240,124,21241,1,2,0:0:0:0:
320,164,21424,6,0,P|352:172|440:120,1,140
357,79,21973,1,8,0:0:0:0:
304,152,22156,2,0,L|320:292,1,140
260,360,22705,1,8,0:0:0:0:
192,300,22888,1,0,0:0:0:0:
120,356,23071,6,0,P|84:352|52:336,1,70,8|0,0:0|0:0,0:0:0:0:
16,252,23437,1,8,0:0:0:0:
68,180,23619,2,0,L|72:108,2,70,0|8|0,0:0|0:0|0:0,0:0:0:0:
144,232,24168,1,2,0:0:0:0:
152,140,24351,1,0,0:0:0:0:
124,248,24534,6,0,L|132:320,1,70,8|0,0:0|0:0,0:0:0:0:
216,356,24900,2,0,P|252:348|280:332,1,70,8|0,0:0|0:0,0:0:0:0:
368,304,25266,2,0,P|400:316|428:340,2,70,8|0|8,0:0|0:0|0:0,0:0:0:0:
300,244,25815,1,0,0:0:0:0:
358,174,25998,5,8,0:0:0:0:
444,200,26180,2,0,L|436:60,2,140,2|2|0,0:0|0:0|0:0,0:0:0:0:
355,223,27095,1,2,0:0:0:0:
296,152,27278,1,0,0:0:0:0:
296,152,27369,1,0,0:0:0:0:
296,152,27461,6,0,B|264:156|240:144|240:144|224:164|224:164|200:152|168:156,1,140,8|8,0:0|0:0,0:0:0:0:
168,155,28193,2,0,P|136:137|115:108,1,70,8|0,0:0|0:0,0:0:0:0:
76,28,28559,1,8,0:0:0:0:
20,100,28741,1,0,0:0:0:0:
62,180,28924,6,0,L|55:252,1,70
104,326,29290,2,0,P|140:330|172:322,1,70,8|0,0:0|0:0,0:0:0:0:
240,260,29656,2,0,P|276:272|300:292,1,70,8|0,0:0|0:0,0:0:0:0:
380,340,30022,1,2,0:0:0:0:
380,340,30205,1,0,0:0:0:0:
436,268,30388,6,0,L|424:128,1,140,8|8,0:0|0:0,0:0:0:0:
412,36,30937,1,0,0:0:0:0:
348,100,31119,2,0,P|312:104|280:96,1,70,8|0,0:0|0:0,0:0:0:0:
200,52,31485,1,8,0:0:0:0:
200,144,31668,2,0,L|205:214,1,70,0|8,0:0|0:0,0:0:0:0:
276,272,32034,6,0,L|268:344,2,70,0|8|0,0:0|0:0|0:0,0:0:0:0:
340,204,32583,2,0,P|332:168|336:136,1,70,8|0,0:0|0:0,0:0:0:0:
236,36,32949,2,0,P|244:72|240:104,1,70,10|0,0:0|0:0,0:0:0:0:
180,172,33315,6,0,P|242:144|306:168,1,140,8|8,0:0|0:0,0:0:0:0:
306,168,34046,2,0,L|296:28,1,140,8|8,0:0|0:0,0:0:0:0:
212,64,34595,2,0,P|176:64|144:48,1,70,0|8,0:0|0:0,0:0:0:0:
68,100,34961,6,0,L|72:172,1,70,0|8,0:0|0:0,0:0:0:0:
156,208,35327,2,0,L|148:348,2,140
237,249,36241,6,0,B|273:249|305:229|305:229|337:237|361:269,1,140,4|0,0:0|1:0,0:0:0:0:
441,305,36790,1,0,0:0:0:0:
504,240,36973,2,0,L|492:172,1,70
404,148,37339,2,0,L|412:76,1,70,8|0,0:0|0:0,0:0:0:0:
484,20,37705,6,0,P|416:40|360:4,1,140,0|8,0:0|0:0,0:0:0:0:
276,44,38254,2,0,L|288:184,1,140
240,260,38802,2,0,P|208:272|172:272,1,70,2|0,0:0|0:0,0:0:0:0:
92,232,39168,5,0,0:0:0:0:
112,144,39351,2,0,L|120:72,2,70,2|0|0,0:0|1:0|0:0,0:0:0:0:
92,232,39900,2,0,L|100:304,1,70,2|0,0:0|0:0,0:0:0:0:
184,336,40266,2,0,L|176:264,1,70,8|0,0:0|0:0,0:0:0:0:
212,184,40632,6,0,P|244:168|280:168,1,70,2|0,0:0|0:0,0:0:0:0:
264,260,40998,1,0,0:0:0:0:
304,176,41180,2,0,L|284:36,2,140
376,232,42095,5,0,0:0:0:0:
440,168,42278,2,0,L|448:96,2,70,2|0|0,0:0|1:0|0:0,0:0:0:0:
376,232,42827,2,0,L|384:308,1,70,2|0,0:0|0:0,0:0:0:0:
310,356,43193,2,0,L|302:280,1,70,8|0,0:0|0:0,0:0:0:0:
228,232,43559,6,0,P|232:196|252:168,1,70,2|0,0:0|0:0,0:0:0:0:
320,108,43924,1,8,0:0:0:0:
320,108,44107,2,0,P|252:128|208:84,2,140
372,32,45022,5,0,0:0:0:0:
411,113,45205,2,0,L|404:184,1,70,2|0,0:0|1:0,0:0:0:0:
380,272,45571,2,0,P|352:296|320:304,1,70,2|0,0:0|0:0,0:0:0:0:
236,268,45937,1,2,0:0:0:0:
160,316,46119,1,8,0:0:0:0:
156,224,46302,6,0,L|148:152,1,70,2|0,0:0|0:0,0:0:0:0:
224,36,46668,2,0,L|216:105,1,70,0|0,1:0|0:0,0:0:0:0:
284,168,47034,1,2,0:0:0:0:
284,168,47126,1,0,0:0:0:0:
284,168,47217,1,0,1:0:0:0:
400,28,47583,1,0,1:0:0:0:
464,200,47949,6,0,L|452:268,2,70,4|0|0,0:0|0:0|1:0,0:0:0:0:
396,140,48498,2,0,P|328:160|276:120,1,140,2|0,0:0|0:0,0:0:0:0:
188,96,49046,2,0,P|152:104|124:124,1,70,0|0,1:0|0:0,0:0:0:0:
84,204,49412,6,0,L|96:272,1,70,0|2,0:0|0:0,0:0:0:0:
176,320,49778,1,0,1:0:0:0:
236,252,49961,2,0,L|240:216,2,35,0|0|2,0:0|1:0|0:0,0:0:0:0:
296,320,50327,1,0,0:0:0:0:
384,344,50510,2,0,P|420:336|448:320,1,70,0|2,1:0|0:0,0:0:0:0:
476,232,50876,6,0,L|480:160,1,70,2|0,0:0|0:0,0:0:0:0:
420,92,51241,1,0,1:0:0:0:
340,136,51424,2,0,P|272:152|228:104,1,140,2|2,0:0|0:0,0:0:0:0:
140,80,51973,2,0,P|112:100|96:132,1,70,0|0,1:0|0:0,0:0:0:0:
140,212,52339,6,0,P|152:244|152:280,2,70,0|2|0,0:0|0:0|1:0,0:0:0:0:
48,212,52888,2,0,L|12:217,2,35,0|0|2,0:0|1:0|0:0,0:0:0:0:
96,131,53254,1,0,0:0:0:0:
172,80,53437,2,0,P|208:84|240:96,1,70,0|2,1:0|0:0,0:0:0:0:
251,186,53802,6,0,B|287:178|311:154|311:154|347:154|375:182,1,140,4|0,0:0|1:0,0:0:0:0:
433,251,54351,2,0,L|437:111,1,140,2|0,0:0|0:0,0:0:0:0:
408,24,54900,1,0,1:0:0:0:
328,72,55083,1,0,0:0:0:0:
248,28,55266,6,0,P|208:24|180:32,2,70,2|0|0,0:0|0:0|1:0,0:0:0:0:
328,72,55815,2,0,L|316:212,1,140,2|0,0:0|0:0,0:0:0:0:
256,280,56363,1,0,1:0:0:0:
188,216,56546,1,0,0:0:0:0:
104,252,56729,6,0,P|92:284|92:320,1,70,0|2,0:0|0:0,0:0:0:0:
188,216,57095,2,0,P|180:180|164:152,1,70,0|0,1:0|0:0,0:0:0:0:
220,32,57461,2,0,P|246:53|281:65,1,70,2|0,0:0|0:0,0:0:0:0:
356,14,57827,1,0,1:0:0:0:
336,152,58010,6,0,L|348:296,1,140,4|2,0:0|0:0,0:0:0:0:
272,344,58559,1,0,1:0:0:0:
200,288,58741,2,0,P|164:292|132:308,1,70,2|8,0:0|3:0,0:0:0:0:
64,248,59107,1,0,1:0:0:0:
64,248,59199,1,0,1:0:0:0:
64,248,59290,2,0,P|60:212|44:180,1,70,0|2,1:0|0:0,0:0:0:0:
8,100,59656,6,0,P|16:64|36:36,2,70,4|0|0,0:0|0:0|1:0,0:0:0:0:
100,104,60205,2,0,L|240:96,1,140,2|0,0:0|0:0,0:0:0:0:
320,144,60754,2,0,P|356:136|384:120,1,70,0|0,1:0|0:0,0:0:0:0:
472,96,61119,6,0,P|488:128|496:164,1,70,0|2,0:0|0:0,0:0:0:0:
440,236,61485,1,0,1:0:0:0:
468,324,61668,2,0,L|504:320,2,35,0|0|2,0:0|1:0|0:0,0:0:0:0:
380,304,62034,1,0,0:0:0:0:
304,352,62217,2,0,L|232:344,1,70,0|2,1:0|0:0,0:0:0:0:
160,288,62583,6,0,L|88:296,2,70,2|0|0,0:0|0:0|1:0,0:0:0:0:
248,260,63132,2,0,P|256:188|208:144,1,140,2|0,0:0|0:0,0:0:0:0:
132,188,63680,2,0,P|96:196|64:192,1,70,0|0,1:0|0:0,0:0:0:0:
24,108,64046,6,0,L|12:36,2,70,0|2|0,0:0|0:0|1:0,0:0:0:0:
63,191,64595,1,0,0:0:0:0:
63,191,64687,1,0,1:0:0:0:
63,191,64778,2,0,P|56:228|40:256,1,70,2|0,0:0|0:0,0:0:0:0:
104,324,65144,2,0,L|176:316,1,70,0|2,1:0|0:0,0:0:0:0:
252,268,65510,6,0,B|260:164|260:164|252:128,2,140,4|0|0,0:0|1:0|0:0,0:0:0:0:
252,268,66607,1,0,1:0:0:0:
320,328,66790,6,0,P|352:344|436:300,1,140,2|2,0:0|0:0,0:0:0:0:
480,220,67339,1,0,1:0:0:0:
408,164,67522,2,0,L|416:24,1,140,2|2,0:0|0:0,0:0:0:0:
328,52,68071,2,0,P|292:44|264:24,1,70,0|0,1:0|0:0,0:0:0:0:
244,21,68345,1,0,1:0:0:0:
244,21,68437,6,0,P|208:29|180:45,1,70,4|0,0:0|0:0,0:0:0:0:
135,125,68802,1,0,1:0:0:0:
48,96,68985,2,0,L|56:236,1,140,2|2,0:0|0:0,0:0:0:0:
36,324,69534,1,0,1:0:0:0:
76,244,69717,6,0,P|140:216|196:248,1,140,4|2,0:0|0:0,0:0:0:0:
276,296,70266,1,0,1:0:0:0:
328,220,70449,2,0,L|324:184,2,35,0|0|0,1:0|1:0|1:0,0:0:0:0:
400,276,70815,1,8,3:0:0:0:
484,244,70998,2,0,P|496:212|496:176,1,70,8|4,3:0|3:0,0:0:0:0:
460,92,71363,6,0,P|433:115|337:99,1,140,4|0,0:0|1:0,0:0:0:0:
260,48,71912,2,0,L|264:12,2,35,0|0|2,0:0|1:0|0:0,0:0:0:0:
176,84,72278,2,0,L|184:156,1,70,2|0,0:0|1:0,0:0:0:0:
96,184,72644,2,0,L|138:242,1,70,2|0,0:0|0:0,0:0:0:0:
84,316,73010,2,0,L|150:345,1,70,2|0,0:0|1:0,0:0:0:0:
236,365,73376,6,0,P|270:354|297:333,1,70,2|0,0:0|0:0,0:0:0:0:
216,200,73741,2,0,P|216:236|228:268,1,70,2|0,0:0|1:0,0:0:0:0:
304,216,74107,1,2,0:0:0:0:
304,216,74199,1,0,1:0:0:0:
304,216,74290,6,0,L|308:76,2,140,0|0|0,0:0|1:0|0:0,0:0:0:0:
328,304,75205,1,0,0:0:0:0:
416,282,75388,1,0,1:0:0:0:
456,200,75571,1,4,0:0:0:0:
456,200,75937,6,0,P|452:164|440:132,1,70,0|0,1:0|0:0,0:0:0:0:
348,136,76302,2,0,P|312:128|284:112,1,70,8|0,3:0|0:0,0:0:0:0:
232,36,76668,2,0,L|236:-1,2,35,0|0|0,1:0|1:0|1:0,0:0:0:0:
152,80,77034,1,0,0:0:0:0:
140,170,77217,1,0,3:0:0:0:
140,170,77583,6,0,L|152:310,1,140,4|0,1:2|0:0,0:0:0:0:
236,344,78132,1,0,0:0:0:0:
300,280,78315,1,0,1:0:0:0:
374,332,78498,6,0,P|444:313|467:255,1,140,2|0,0:0|0:0,0:0:0:0:
420,180,79046,2,0,L|432:76,1,105,0|0,1:0|1:0,0:0:0:0:
419,58,79412,2,0,P|386:40|354:36,1,70
292,104,79778,2,0,P|256:112|224:112,1,70,0|0,1:0|0:0,0:0:0:0:
133,92,80144,6,0,L|144:233,1,140,2|0,0:0|1:0,0:0:0:0:
164,320,80693,1,0,0:0:0:0:
236,264,80876,2,0,P|271:255|303:259,1,70
384,304,81241,1,0,1:0:0:0:
404,215,81424,6,0,L|388:75,1,140,2|0,0:0|0:0,0:0:0:0:
312,24,81973,2,0,L|208:36,1,105,0|0,1:0|1:0,0:0:0:0:
188,45,82339,2,0,P|180:81|188:113,1,70,0|0,0:0|1:0,0:0:0:0:
198,130,82613,1,0,1:0:0:0:
209,147,82705,2,0,P|206:185|195:215,1,70,0|0,1:0|0:0,0:0:0:0:
104,228,83071,1,0,3:0:0:0:
104,228,83437,6,0,L|108:88,1,140,4|2,1:2|0:0,0:0:0:0:
168,20,83985,1,0,0:0:0:0:
236,79,84168,1,0,1:0:0:0:
311,28,84351,6,0,B|348:26|348:26|412:46|412:46|448:42,1,140,2|0,0:0|0:0,0:0:0:0:
504,112,84900,2,0,L|500:216,1,105,0|0,1:0|1:0,0:0:0:0:
488,232,85266,2,0,P|452:236|420:228,1,70
360,160,85632,1,0,1:0:0:0:
360,160,85998,6,0,P|296:127|236:151,1,140,4|2,0:0|0:0,0:0:0:0:
192,228,86546,1,0,1:0:0:0:
248,300,86729,2,0,L|320:304,1,70
388,248,87095,1,4,0:0:0:0:
256,192,87278,12,4,88924,0:0:0:0:
208,248,103559,5,4,0:0:0:0:
208,248,103924,2,0,L|200:108,1,140,8|8,0:0|0:0,0:0:0:0:
260,40,104473,1,0,0:0:0:0:
340,84,104656,2,0,P|336:120|320:152,1,70,8|0,0:0|0:0,0:0:0:0:
308,240,105022,6,0,L|448:248,2,140,8|8|8,0:0|0:0|0:0,0:0:0:0:
248,312,105937,2,0,L|144:320,2,105,2|2|2,0:0|0:0|0:0,0:0:0:0:
308,240,106668,5,0,0:0:0:0:
240,180,106851,2,0,P|232:144|236:112,1,70,8|0,0:0|0:0,0:0:0:0:
288,36,107217,2,0,L|360:40,1,70,8|0,0:0|0:0,0:0:0:0:
236,111,107583,1,8,0:0:0:0:
176,44,107766,1,0,0:0:0:0:
108,104,107949,6,0,L|36:96,1,70,8|0,0:0|0:0,0:0:0:0:
4,180,108315,2,0,L|76:188,1,70,8|0,0:0|0:0,0:0:0:0:
164,196,108680,1,8,0:0:0:0:
252,216,108863,1,0,0:0:0:0:
228,128,109046,1,2,0:0:0:0:
160,208,109229,6,0,L|156:348,1,140
248,356,109778,1,8,0:0:0:0:
248,356,109961,2,0,P|276:336|296:308,1,70,0|8,0:0|0:0,0:0:0:0:
312,216,110327,2,0,L|300:148,1,70,0|8,0:0|0:0,0:0:0:0:
312,56,110693,6,0,P|372:20|436:40,2,140
228,92,111607,2,0,P|192:88|160:76,1,70,8|0,0:0|0:0,0:0:0:0:
80,36,111973,1,2,0:0:0:0:
83,126,112156,1,0,0:0:0:0:
87,216,112339,6,0,P|64:244|36:264,1,70,8|0,0:0|0:0,0:0:0:0:
92,336,112705,2,0,L|164:328,1,70,8|0,0:0|0:0,0:0:0:0:
252,316,113071,2,0,P|284:332|308:360,1,70,8|0,0:0|0:0,0:0:0:0:
376,296,113437,2,0,L|368:224,1,70,8|0,0:0|0:0,0:0:0:0:
284,196,113802,5,8,0:0:0:0:
216,256,113985,2,0,B|168:252|168:252|124:260|124:260|76:256,2,140,2|2|0,0:0|0:0|0:0,0:0:0:0:
292,308,114900,1,2,0:0:0:0:
348,236,115083,1,0,0:0:0:0:
348,236,115174,1,0,0:0:0:0:
348,236,115266,6,0,B|352:204|340:180|340:180|360:164|360:164|348:140|352:108,1,140,8|8,0:0|0:0,0:0:0:0:
351,108,115998,2,0,P|328:80|296:64,1,70,8|0,0:0|0:0,0:0:0:0:
208,68,116363,1,8,0:0:0:0:
136,124,116546,2,0,L|148:264,1,140
200,340,117095,6,0,P|236:344|268:336,1,70,8|0,0:0|0:0,0:0:0:0:
348,292,117461,2,0,P|380:308|404:332,1,70,8|0,0:0|0:0,0:0:0:0:
456,256,117827,1,2,0:0:0:0:
495,338,118010,1,0,0:0:0:0:
472,248,118193,6,0,L|484:108,1,140,8|8,0:0|0:0,0:0:0:0:
428,36,118741,1,0,0:0:0:0:
352,88,118924,2,0,P|316:80|288:60,1,70,8|0,0:0|0:0,0:0:0:0:
208,20,119290,1,8,0:0:0:0:
148,88,119473,2,0,L|160:228,1,140
228,288,120022,5,8,0:0:0:0:
268,204,120205,1,0,0:0:0:0:
344,256,120388,2,0,L|340:328,1,70,8|0,0:0|0:0,0:0:0:0:
268,204,120754,2,0,L|263:131,1,70,2|0,0:0|0:0,0:0:0:0:
192,80,121119,6,0,P|260:96|308:52,1,140,8|8,0:0|0:0,0:0:0:0:
307,52,121851,2,0,P|348:56|376:68,1,70,8|0,0:0|0:0,0:0:0:0:
452,116,122217,1,8,0:0:0:0:
420,200,122400,2,0,P|424:236|440:268,1,70,0|8,0:0|0:0,0:0:0:0:
380,336,122766,6,0,L|312:324,1,70,0|8,0:0|0:0,0:0:0:0:
252,252,123132,2,0,B|260:207|260:207|255:159|255:159|264:114,2,140
180,312,124046,6,0,P|112:332|56:296,1,140,4|0,0:0|1:0,0:0:0:0:
20,212,124595,1,0,0:0:0:0:
84,144,124778,2,0,L|76:72,1,70
156,32,125144,2,0,L|164:104,1,70,8|0,0:0|0:0,0:0:0:0:
244,144,125510,6,0,B|276:128|312:136|312:136|348:120|360:88,1,140,0|8,0:0|0:0,0:0:0:0:
452,76,126059,2,0,P|488:136|476:204,1,140
408,260,126607,2,0,L|340:248,1,70,2|0,0:0|0:0,0:0:0:0:
252,272,126973,5,0,0:0:0:0:
232,184,127156,2,0,L|240:112,2,70,2|0|0,0:0|1:0|0:0,0:0:0:0:
252,272,127705,2,0,P|232:300|204:320,1,70,2|0,0:0|0:0,0:0:0:0:
116,288,128071,2,0,L|48:300,1,70,8|0,0:0|0:0,0:0:0:0:
4,220,128437,6,0,P|0:184|8:152,1,70,2|0,0:0|0:0,0:0:0:0:
84,104,128802,1,8,0:0:0:0:
168,140,128985,2,0,L|308:128,2,140
104,204,129900,5,0,0:0:0:0:
168,268,130083,2,0,P|164:304|172:336,2,70,2|0|0,0:0|1:0|0:0,0:0:0:0:
104,204,130632,2,0,P|104:168|96:136,1,70,2|0,0:0|0:0,0:0:0:0:
16,92,130998,2,0,P|24:56|44:28,1,70,8|0,0:0|0:0,0:0:0:0:
132,48,131363,6,0,L|204:40,1,70,2|0,0:0|0:0,0:0:0:0:
292,48,131729,1,8,0:0:0:0:
356,116,131912,2,0,L|344:256,2,140
424,52,132827,5,2,0:0:0:0:
492,112,133010,2,0,L|500:184,1,70,2|0,0:0|1:0,0:0:0:0:
452,260,133376,2,0,P|436:292|412:316,1,70,2|0,0:0|0:0,0:0:0:0:
320,316,133741,1,2,0:0:0:0:
240,360,133924,1,8,0:0:0:0:
236,268,134107,6,0,P|228:232|208:204,1,70,2|0,0:0|0:0,0:0:0:0:
76,160,134473,2,0,P|68:196|72:232,1,70,0|0,1:0|0:0,0:0:0:0:
100,316,134839,1,2,0:0:0:0:
100,316,134930,1,0,0:0:0:0:
100,316,135022,1,0,1:0:0:0:
156,144,135388,1,0,1:0:0:0:
276,280,135754,6,0,P|272:316|260:348,2,70,4|0|0,0:0|0:0|1:0,0:0:0:0:
212,216,136302,2,0,P|280:240|328:200,1,140,2|0,0:0|0:0,0:0:0:0:
412,164,136851,2,0,P|440:188|456:216,1,70,0|0,1:0|0:0,0:0:0:0:
484,304,137217,6,0,L|424:339,1,70,0|2,0:0|0:0,0:0:0:0:
340,300,137583,1,0,1:0:0:0:
260,344,137766,2,0,L|264:380,2,35,0|0|2,0:0|1:0|0:0,0:0:0:0:
204,272,138132,1,0,0:0:0:0:
112,260,138315,2,0,P|76:276|52:296,1,70,0|2,1:0|0:0,0:0:0:0:
4,220,138680,6,0,L|12:148,1,70,2|0,0:0|0:0,0:0:0:0:
24,60,139046,1,0,1:0:0:0:
98,112,139229,2,0,P|166:136|218:96,1,140,2|0,0:0|0:0,0:0:0:0:
292,48,139778,2,0,P|327:53|356:69,1,70,0|0,1:0|0:0,0:0:0:0:
444,104,140144,6,0,L|451:34,2,70,0|2|0,0:0|0:0|1:0,0:0:0:0:
488,184,140693,2,0,L|492:220,2,35,0|0|2,0:0|1:0|0:0,0:0:0:0:
396,184,141059,1,0,0:0:0:0:
332,248,141241,2,0,P|304:267|269:277,1,70,0|2,1:0|0:0,0:0:0:0:
180,276,141607,6,0,B|140:272|140:272|76:292|76:292|44:288,1,140,4|0,0:0|1:0,0:0:0:0:
4,204,142156,2,0,L|8:64,1,140,2|0,0:0|0:0,0:0:0:0:
80,4,142705,1,0,1:0:0:0:
148,64,142888,1,0,0:0:0:0:
224,16,143071,6,0,P|260:24|288:40,2,70,2|0|0,0:0|0:0|1:0,0:0:0:0:
148,64,143619,2,0,B|164:168|164:168|160:204,1,140,2|0,0:0|0:0,0:0:0:0:
136,292,144168,1,0,1:0:0:0:
208,344,144351,1,0,0:0:0:0:
276,284,144534,6,0,L|416:300,2,140,2|0|2,0:0|1:0|0:0,0:0:0:0:
204,228,145449,1,0,0:0:0:0:
216,137,145632,1,0,1:0:0:0:
188,244,145815,6,0,P|120:264|72:220,1,140,4|2,0:0|0:0,0:0:0:0:
40,136,146363,1,0,1:0:0:0:
112,80,146546,2,0,P|148:72|176:56,1,70,2|8,0:0|3:0,0:0:0:0:
268,44,146912,1,0,1:0:0:0:
268,44,147004,1,0,1:0:0:0:
268,44,147095,2,0,P|288:76|296:112,1,70,0|0,1:0|0:0,0:0:0:0:
340,188,147461,6,0,P|372:200|408:200,2,70,4|0|0,0:0|0:0|1:0,0:0:0:0:
248,180,148010,2,0,L|244:324,1,140,2|0,0:0|0:0,0:0:0:0:
324,364,148559,2,0,P|360:356|388:336,1,70,0|0,1:0|0:0,0:0:0:0:
408,248,148924,6,0,L|400:176,1,70,0|2,0:0|0:0,0:0:0:0:
324,124,149290,1,0,1:0:0:0:
260,188,149473,2,0,L|256:224,2,35,0|0|2,0:0|1:0|0:0,0:0:0:0:
210,111,149839,1,0,0:0:0:0:
128,152,150022,2,0,L|56:144,1,70,0|2,1:0|0:0,0:0:0:0:
4,216,150388,6,0,P|8:252|24:284,1,70,2|0,0:0|0:0,0:0:0:0:
100,332,150754,1,0,1:0:0:0:
176,280,150937,2,0,B|216:268|244:284|272:300|316:284,1,140,2|0,0:0|0:0,0:0:0:0:
380,220,151485,2,0,L|372:148,1,70,0|0,1:0|0:0,0:0:0:0:
400,64,151851,6,0,P|436:56|468:60,2,70,0|2|0,0:0|0:0|1:0,0:0:0:0:
312,84,152400,1,0,0:0:0:0:
312,84,152491,1,0,1:0:0:0:
312,84,152583,2,0,L|244:72,1,70,2|0,0:0|0:0,0:0:0:0:
160,112,152949,2,0,P|148:144|152:180,1,70,0|2,1:0|0:0,0:0:0:0:
204,252,153315,6,0,P|140:224|80:252,2,140,4|0|0,0:0|1:0|0:0,0:0:0:0:
204,252,154412,1,0,1:0:0:0:
272,312,154595,6,0,P|333:340|395:312,1,140,2|2,0:0|0:0,0:0:0:0:
436,228,155144,1,0,1:0:0:0:
364,172,155327,2,0,B|356:68|356:68|368:32,1,140,2|2,0:0|0:0,0:0:0:0:
276,44,155876,2,0,P|240:48|208:40,1,70,0|0,1:0|0:0,0:0:0:0:
196,32,156150,1,0,0:0:0:0:
196,32,156241,6,0,P|160:40|132:56,1,70,4|0,0:0|0:0,0:0:0:0:
108,144,156607,1,0,1:0:0:0:
85,232,156790,2,0,P|124:220|204:272,1,140,2|2,0:0|0:0,0:0:0:0:
252,348,157339,1,0,1:0:0:0:
312,280,157522,6,0,L|304:140,1,140,4|2,0:0|0:0,0:0:0:0:
364,72,158071,1,0,1:0:0:0:
440,124,158254,2,0,L|476:120,2,35,0|0|0,1:0|1:0|1:0,0:0:0:0:
392,200,158619,1,8,3:0:0:0:
468,252,158802,2,0,L|464:324,1,70,8|4,3:0|3:0,0:0:0:0:
384,364,159168,6,0,P|320:336|260:364,1,140,4|0,0:0|1:0,0:0:0:0:
176,328,159717,2,0,L|172:364,2,35,0|0|2,0:0|1:0|0:0,0:0:0:0:
116,260,160083,2,0,L|128:192,1,70,2|0,0:0|1:0,0:0:0:0:
40,164,160449,2,0,L|84:111,1,70,2|0,0:0|0:0,0:0:0:0:
28,40,160815,2,0,L|92:16,1,70,2|0,0:0|1:0,0:0:0:0:
184,16,161180,6,0,P|220:24|248:44,1,70,2|0,0:0|0:0,0:0:0:0:
181,168,161546,2,0,P|177:133|186:100,1,70,2|0,0:0|1:0,0:0:0:0:
268,140,161912,1,2,0:0:0:0:
268,140,162004,1,0,1:0:0:0:
268,140,162095,6,0,L|260:280,2,140,0|0|0,0:0|1:0|0:0,0:0:0:0:
328,72,163010,1,0,0:0:0:0:
420,64,163193,1,0,1:0:0:0:
472,140,163376,1,4,0:0:0:0:
472,140,163741,6,0,L|468:212,1,70,0|0,1:0|0:0,0:0:0:0:
380,236,164107,2,0,L|388:308,1,70,8|0,3:0|0:0,0:0:0:0:
308,348,164473,2,0,L|304:384,2,35,0|0|0,1:0|1:0|1:0,0:0:0:0:
248,276,164839,1,0,0:0:0:0:
172,324,165022,6,0,P|136:335|102:331,1,70,4|0,3:0|0:0,0:0:0:0:
24,288,165388,1,4,0:0:0:0:
256,192,165571,12,0,167949,1:0:0:0:
24,288,176729,5,4,0:0:0:0:
24,288,177095,6,0,L|12:149,1,140,0|0,1:0|1:0,0:0:0:0:
60,72,177644,1,0,0:0:0:0:
140,116,177827,1,0,1:0:0:0:
200,48,178010,2,0,B|240:44|240:44|304:56|304:56|344:52,1,140,2|0,0:0|0:0,0:0:0:0:
424,20,178559,5,0,1:0:0:0:
476,92,178741,2,0,P|452:160|392:176,1,140,2|0,0:0|0:0,0:0:0:0:
305,145,179290,1,0,1:0:0:0:
260,224,179473,2,0,L|272:292,2,70,2|0|0,0:0|1:0|0:0,0:0:0:0:
184,172,180022,5,0,1:0:0:0:
112,224,180205,1,0,0:0:0:0:
104,132,180388,2,0,L|112:60,1,70,0|0,1:0|0:0,0:0:0:0:
184,8,180754,1,0,1:0:0:0:
256,64,180937,2,0,P|292:56|320:40,1,70,2|0,0:0|1:0,0:0:0:0:
408,64,181302,6,0,P|448:76|476:96,1,70,0|0,0:0|1:0,0:0:0:0:
476,184,181668,2,0,L|460:324,1,140,2|2,0:0|0:0,0:0:0:0:
373,294,182217,2,0,P|341:282|305:278,1,70,0|0,1:0|0:0,0:0:0:0:
225,320,182583,5,4,1:2:0:0:
304,156,182949,2,0,P|248:112|184:132,1,140,0|0,1:0|1:0,0:0:0:0:
94,149,183498,2,0,L|88:80,2,70,2|0|2,0:0|1:0|0:0,0:0:0:0:
140,228,184046,6,0,L|128:368,2,140,0|0|0,1:0|1:0|1:0,0:0:0:0:
140,228,185144,1,0,1:0:0:0:
212,172,185327,6,0,P|284:180|320:128,1,140,4|2,0:0|0:0,0:0:0:0:
336,40,185876,1,0,1:0:0:0:
428,92,186059,2,0,B|436:128|436:128|432:160|432:160|448:192|436:228,1,140,4|0,0:0|1:0,0:0:0:0:
427,319,186607,1,0,1:0:0:0:
336,316,186790,6,0,B|304:332|272:320|272:320|236:332|200:316,1,140,4|2,0:0|0:0,0:0:0:0:
112,336,187339,1,0,1:0:0:0:
180,220,187522,2,0,B|184:204|184:184|184:184|164:116|164:116|164:96|168:80,1,140,4|0,0:0|1:0,0:0:0:0:
180,64,187979,1,0,1:0:0:0:
180,64,188071,2,0,P|212:48|248:44,1,70,0|0,1:0|0:0,0:0:0:0:
360,144,188437,6,0,L|352:284,1,140,4|0,0:0|1:0,0:0:0:0:
284,344,188985,2,0,L|288:380,2,35,0|0|0,0:0|1:0|0:0,0:0:0:0:
212,288,189351,1,0,0:0:0:0:
120,296,189534,1,0,1:0:0:0:
65,369,189717,2,0,P|93:305|61:249,1,140
28,164,190266,6,0,L|20:128,2,35,0|0|0,1:0|0:0|0:0,0:0:0:0:
96,104,190632,2,0,L|88:68,2,35
168,48,190998,2,0,L|160:12,2,35,0|0|0,1:0|0:0|0:0,0:0:0:0:
244,100,191363,6,0,L|236:240,1,140,2|0,0:0|1:0,0:0:0:0:
296,308,191912,2,0,P|332:312|364:304,1,70,2|0,0:0|0:0,0:0:0:0:
456,284,192278,2,0,P|480:312|492:344,1,70,2|0,0:0|1:0,0:0:0:0:
396,220,192644,6,0,L|404:80,1,140,2|2,0:0|0:0,0:0:0:0:
324,36,193193,2,0,P|288:40|252:36,1,70,0|2,1:0|0:0,0:0:0:0:
236,32,193467,1,0,1:0:0:0:
236,32,193559,2,0,P|201:41|173:61,1,70,2|0,0:0|0:0,0:0:0:0:
120,136,193924,2,0,L|110:276,1,140,0|4,1:0|0:0,0:0:0:0:
198,250,194473,5,0,0:0:0:0:
260,316,194656,2,0,P|296:312|328:296,1,70,0|0,1:0|0:0,0:0:0:0:
368,216,195022,2,0,P|356:288|392:340,1,140,2|0,0:0|1:0,0:0:0:0:
446,266,195571,1,0,0:0:0:0:
450,175,195754,1,0,0:0:0:0:
454,84,195937,6,0,P|464:48|484:24,2,70,0|0|0,0:0|1:0|0:0,0:0:0:0:
372,128,196485,2,0,P|304:144|268:92,1,140,2|0,0:0|1:0,0:0:0:0:
208,24,197034,1,0,0:0:0:0:
124,56,197217,6,0,L|88:52,2,35
184,124,197583,2,0,L|220:128,2,35,0|0|0,1:0|0:0|0:0,0:0:0:0:
92,136,197949,2,0,L|56:132,2,35
153,204,198315,2,0,L|189:208,2,35,0|0|2,1:0|0:0|0:0,0:0:0:0:
64,216,198680,6,0,L|28:212,2,35
128,284,199046,2,0,L|164:288,2,35,0|0|0,1:0|0:0|0:0,0:0:0:0:
36,296,199412,1,8,3:0:0:0:
96,364,199595,1,0,1:0:0:0:
96,364,199687,1,0,1:0:0:0:
96,364,199778,2,0,L|167:368,1,70,0|0,1:0|0:0,0:0:0:0:
236,312,200144,5,4,0:0:0:0:
320,348,200327,2,0,P|356:340|384:324,1,70,0|0,0:0|1:0,0:0:0:0:
428,244,200693,2,0,L|424:104,1,140,2|0,0:0|0:0,0:0:0:0:
344,64,201241,2,0,P|308:52|284:32,1,70,0|0,1:0|0:0,0:0:0:0:
196,8,201607,6,0,P|160:12|128:28,1,70,0|2,0:0|0:0,0:0:0:0:
114,116,201973,1,0,1:0:0:0:
180,180,202156,1,0,0:0:0:0:
180,180,202248,1,0,1:0:0:0:
180,180,202339,2,0,P|176:216|164:248,1,70,2|0,0:0|0:0,0:0:0:0:
184,336,202705,2,0,P|212:356|248:364,1,70,0|2,1:0|0:0,0:0:0:0:
328,320,203071,6,0,L|396:336,1,70,2|0,0:0|0:0,0:0:0:0:
476,292,203437,1,0,1:0:0:0:
440,208,203619,2,0,L|452:64,1,140,2|0,0:0|0:0,0:0:0:0:
376,16,204168,2,0,P|340:20|308:36,1,70,0|0,1:0|0:0,0:0:0:0:
224,68,204534,6,0,P|188:60|160:40,2,70,0|2|0,0:0|0:0|1:0,0:0:0:0:
300,120,205083,2,0,L|336:112,2,35,0|0|2,0:0|1:0|0:0,0:0:0:0:
220,160,205449,1,0,0:0:0:0:
296,212,205632,2,0,L|284:280,1,70,0|2,1:0|0:0,0:0:0:0:
360,332,205998,6,0,L|385:192,1,140,4|0,0:0|1:0,0:0:0:0:
460,144,206546,2,0,P|392:156|340:108,1,140,2|0,0:0|0:0,0:0:0:0:
260,76,207095,2,0,P|252:112|260:148,1,70,0|0,1:0|0:0,0:0:0:0:
260,236,207461,6,0,P|231:261|202:271,2,70,2|0|0,0:0|0:0|1:0,0:0:0:0:
340,192,208010,2,0,L|480:204,1,140,2|0,0:0|0:0,0:0:0:0:
508,116,208559,2,0,P|488:88|456:68,1,70,0|0,1:0|0:0,0:0:0:0:
372,92,208924,6,0,L|300:84,1,70,0|2,0:0|0:0,0:0:0:0:
256,164,209290,2,0,L|186:175,1,70,0|0,1:0|0:0,0:0:0:0:
340,192,209656,2,0,P|356:224|360:260,1,70,2|0,0:0|0:0,0:0:0:0:
315,337,210022,1,0,1:0:0:0:
184,288,210205,6,0,L|192:148,1,140,4|2,0:0|0:0,0:0:0:0:
128,80,210754,2,0,P|92:80|60:92,1,70,0|2,1:0|0:0,0:0:0:0:
12,168,211119,1,8,3:0:0:0:
80,228,211302,1,0,1:0:0:0:
80,228,211394,1,0,1:0:0:0:
80,228,211485,2,0,P|72:264|52:292,1,70,0|0,1:0|0:0,0:0:0:0:
112,364,211851,6,0,L|180:352,1,70,4|0,0:0|0:0,0:0:0:0:
272,360,212217,1,0,1:0:0:0:
236,276,212400,2,0,L|244:136,1,140,2|0,0:0|0:0,0:0:0:0:
304,68,212949,2,0,P|340:64|372:72,1,70,0|0,1:0|0:0,0:0:0:0:
444,132,213315,6,0,L|448:204,1,70,0|2,0:0|0:0,0:0:0:0:
488,284,213680,1,0,1:0:0:0:
396,280,213863,1,0,0:0:0:0:
396,280,213955,1,0,1:0:0:0:
396,280,214046,2,0,L|324:276,1,70,2|0,0:0|0:0,0:0:0:0:
244,320,214412,2,0,P|208:312|180:292,1,70,0|2,1:0|0:0,0:0:0:0:
172,201,214778,6,0,L|178:132,1,70,2|0,0:0|0:0,0:0:0:0:
108,76,215144,1,0,1:0:0:0:
60,152,215327,2,0,L|72:296,1,140,2|0,0:0|0:0,0:0:0:0:
144,344,215876,2,0,P|180:348|212:340,1,70,0|0,1:0|0:0,0:0:0:0:
296,304,216241,6,0,P|332:312|360:328,2,70,0|2|0,0:0|0:0|1:0,0:0:0:0:
220,252,216790,1,0,0:0:0:0:
220,252,216882,1,0,1:0:0:0:
220,252,216973,2,0,L|228:180,1,70,2|0,0:0|0:0,0:0:0:0:
316,164,217339,2,0,L|304:96,1,70,0|2,1:0|0:0,0:0:0:0:
228,44,217705,6,0,P|296:60|344:16,2,140,4|0|0,0:0|1:0|0:0,0:0:0:0:
228,44,218802,1,0,1:0:0:0:
160,104,218985,6,0,L|172:244,1,140,2|2,0:0|0:0,0:0:0:0:
248,296,219534,1,0,1:0:0:0:
308,224,219717,2,0,P|376:244|412:196,1,140,2|2,0:0|0:0,0:0:0:0:
493,154,220266,2,0,P|501:194|497:226,1,70,0|0,1:0|0:0,0:0:0:0:
488,240,220540,1,0,1:0:0:0:
488,240,220632,6,0,P|488:276|500:312,1,70,4|0,0:0|0:0,0:0:0:0:
440,380,220998,1,0,1:0:0:0:
368,324,221180,2,0,B|332:328|300:312|300:312|268:328|232:324,1,140,2|2,0:0|0:0,0:0:0:0:
162,264,221729,1,0,1:0:0:0:
248,232,221912,6,0,L|252:92,1,140,4|2,0:0|0:0,0:0:0:0:
320,28,222461,2,0,P|356:24|392:32,1,70,0|0,1:0|1:0,0:0:0:0:
408,40,222735,1,0,1:0:0:0:
408,40,222827,1,0,1:0:0:0:
440,124,223010,2,0,L|512:116,2,70,8|8|4,3:0|3:0|3:0,0:0:0:0:
412,212,223559,6,0,B|364:208|364:208|320:216|320:216|272:212,1,140,4|0,0:0|1:0,0:0:0:0:
224,288,224107,2,0,L|228:324,2,35,0|0|2,0:0|1:0|0:0,0:0:0:0:
136,256,224473,2,0,P|144:220|160:192,1,70,2|0,0:0|1:0,0:0:0:0:
80,152,224839,2,0,P|104:124|132:108,1,70,2|0,0:0|0:0,0:0:0:0:
84,32,225205,2,0,P|119:20|151:20,1,70,2|0,0:0|1:0,0:0:0:0:
236,56,225571,6,0,L|220:124,1,70,2|0,0:0|0:0,0:0:0:0:
336,204,225937,2,0,L|324:136,1,70,2|0,0:0|1:0,0:0:0:0:
396,80,226302,1,2,0:0:0:0:
396,80,226394,1,0,1:0:0:0:
396,80,226485,6,0,L|420:220,2,140,0|0|0,0:0|1:0|0:0,0:0:0:0:
336,12,227400,1,0,0:0:0:0:
307,98,227583,1,0,1:0:0:0:
247,29,227766,1,4,0:0:0:0:
247,29,228132,6,0,L|176:32,1,70,0|0,1:0|0:0,0:0:0:0:
96,76,228498,2,0,P|76:105|69:142,1,70,8|0,3:0|0:0,0:0:0:0:
136,200,228863,2,0,L|140:236,2,35,0|0|0,1:0|1:0|1:0,0:0:0:0:
208,144,229229,1,0,0:0:0:0:
292,176,229412,1,0,3:0:0:0:
292,176,229778,6,0,L|288:316,1,140,4|0,1:2|0:0,0:0:0:0:
212,368,230327,1,2,0:0:0:0:
120,376,230510,1,0,1:0:0:0:
52,316,230693,6,0,L|44:176,1,140,2|0,0:0|0:0,0:0:0:0:
56,84,231241,2,0,P|88:64|156:72,1,105,0|0,1:0|1:0,0:0:0:0:
168,84,231607,2,0,P|204:84|240:76,1,70
316,32,231973,2,0,L|388:40,1,70,0|0,1:0|0:0,0:0:0:0:
412,128,232339,6,0,L|400:268,1,140,2|0,0:0|1:0,0:0:0:0:
320,312,232888,1,0,0:0:0:0:
232,284,233071,2,0,P|224:248|228:216,1,70
276,136,233437,1,0,1:0:0:0:
228,60,233619,6,0,P|164:32|100:52,1,140,2|0,0:0|0:0,0:0:0:0:
28,108,234168,2,0,L|36:212,1,105,0|0,1:0|1:0,0:0:0:0:
44,232,234534,2,0,P|80:224|112:228,1,70,0|0,0:0|1:0,0:0:0:0:
131,238,234809,1,0,1:0:0:0:
149,247,234900,2,0,P|184:240|216:224,1,70,0|0,1:0|0:0,0:0:0:0:
248,140,235266,1,0,3:0:0:0:
248,140,235632,6,0,L|256:280,1,140,4|0,1:2|0:0,0:0:0:0:
328,336,236180,1,2,0:0:0:0:
420,332,236363,1,0,1:0:0:0:
476,260,236546,6,0,B|480:224|480:224|464:156|464:156|464:120,1,140,2|0,0:0|0:0,0:0:0:0:
416,44,237095,2,0,P|384:28|316:40,1,105,0|0,1:0|1:0,0:0:0:0:
304,56,237461,2,0,L|232:52,1,70
148,88,237827,1,0,1:0:0:0:
176,256,238193,6,0,L|280:248,1,105.000004005432,4|0,0:0|0:0,0:0:0:0:
372,212,238785,1,8,0:3:0:0:
372,212,238982,6,0,L|364:284,1,70,4|0,0:3|0:0,0:0:0:0:
352,360,239404,1,4,0:0:0:0:
256,192,239510,12,4,242573,0:0:0:0:
