osu file format v9

[General]
AudioFilename: Love Hell Rocket-HoneyComing.mp3
AudioLeadIn: 982
PreviewTime: -1
Countdown: 1
SampleSet: Normal
StackLeniency: 0.7
Mode: 0
LetterboxInBreaks: 1

[Editor]
DistanceSpacing: 1
BeatDivisor: 4
GridSize: 8

[Metadata]
Title:Love hell rocket
Artist:Aoki Haruko
Creator:wa747wzp
Version:Hard
Source:Honeycoming
Tags:Hooksoft

[Difficulty]
HPDrainRate:2
CircleSize:4
OverallDifficulty:4
ApproachRate:6
SliderMultiplier:1.7
SliderTickRate:1

[Events]
//Background and Video events
0,0,"Clair final.jpg"
Video,0,"HoneyComing.flv"
//Break Periods
2,10793,19175
//Storyboard Layer 0 (Background)
//Storyboard Layer 1 (Fail)
//Storyboard Layer 2 (Pass)
//Storyboard Layer 3 (Foreground)
//Storyboard Sound Samples
//Background Colour Transformations
3,100,163,162,255

[TimingPoints]
1278,315.789473684211,4,1,0,70,1,0
63173,-58.8235294117647,4,1,0,70,0,0
64120,-100,4,1,0,70,0,0

[HitObjects]
88,72,1278,1,0
88,72,1435,1,0
88,160,1593,2,0,B|88:264,1,85,8|0
176,248,1909,5,0
176,248,2067,1,0
264,248,2225,2,0,B|368:248,1,85,8|0
432,248,2541,5,0
432,248,2699,1,0
432,248,2856,1,0
432,248,3014,2,2,B|368:80|368:80|184:80,1,340
120,80,3804,5,0
120,80,3962,1,0
208,80,4120,2,8,B|296:80,1,85,8|8
376,80,4435,5,0
376,80,4593,1,0
376,168,4751,2,8,B|376:280,1,85,8|8
288,256,5067,5,0
288,256,5225,1,0
288,256,5383,1,0
288,256,5541,2,0,B|88:256|88:256|160:96,1,340
216,80,6330,6,0,B|336:88|384:168,1,170
376,216,6962,2,0,B|328:320|216:328,1,170
176,288,7593,2,0,B|104:200|176:96,1,170
256,192,8225,5,8
256,192,8383,1,8
256,192,8541,1,8
152,264,8856,6,0,B|96:160|168:80,1,170
256,56,9488,2,0,B|368:88|408:176,1,170
400,232,10120,2,0,B|384:288|336:304,1,85
288,312,10435,1,8
288,312,10593,1,8
256,192,20225,6,0,B|256:240,12,42.5
400,88,21488,5,0
440,144,21646,1,0
440,208,21804,1,0
432,272,21962,1,0
400,328,22120,1,0
344,288,22436,6,0,B|288:224,1,85
288,224,22751,6,2,B|168:96,1,170
171,100,23383,6,2,B|288:224,1,170
408,192,24014,5,0
344,96,24172,1,0
224,96,24330,1,0
160,192,24488,2,0,B|272:320|272:320|384:176,1,340
368,120,25278,5,8
312,80,25436,1,8
248,80,25593,1,8
184,88,25751,1,8
120,56,26541,5,0
88,120,26699,1,0
64,184,26857,1,0
88,248,27015,1,0
128,304,27172,1,0
176,256,27488,6,0,B|256:184,1,85
239,199,27804,6,2,B|368:80,1,170
363,83,28436,6,2,B|232:208,1,170
136,200,29067,5,0
208,264,29225,1,0
304,264,29383,1,0
376,192,29541,6,0,B|264:56|264:56|144:208,1,340
128,248,30330,5,8
192,264,30488,1,8
256,272,30646,1,8
320,256,30804,1,8
256,80,31593,5,0
256,80,31751,1,0
256,80,31909,1,0
256,80,32067,2,2,B|424:96|456:248,1,255
256,304,32857,5,0
256,304,33015,1,0
256,304,33172,1,0
256,304,33330,2,2,B|56:248|48:136,1,255
256,144,34120,5,0
256,144,34751,6,2,B|192:232|192:232|312:232|312:232|240:128,1,340
408,192,36646,5,0
352,272,36804,1,0
256,280,36962,1,0
160,272,37120,1,0
96,192,37278,1,0
160,104,37436,1,8
256,96,37594,1,8
352,96,37909,6,2,B|224:208,1,170
160,104,38541,6,2,B|320:232,1,170
168,152,39172,6,2,B|464:152|312:408|56:216|384:104,1,510
378,105,40278,5,0
416,80,41699,5,0
416,152,42015,2,0,B|416:264,1,85
416,237,42330,1,0
256,192,42646,5,0
256,192,42804,1,0
200,136,42962,6,2,B|344:280,1,170
312,136,43594,6,2,B|168:280,1,170
256,240,44225,6,0,B|256:136,3,85
256,155,45015,5,0
256,240,45173,1,0
256,155,45330,1,0
152,192,45488,5,8
224,192,45646,1,8
288,192,45804,1,8
360,192,45962,1,8
80,296,46751,5,0
80,296,46909,2,0,B|80:200,1,85
80,211,47225,2,0,B|80:104,1,85
256,192,47699,5,0
256,192,47857,1,0
192,256,48015,6,2,B|328:120,1,170
312,256,48646,6,2,B|184:128,1,170
216,192,49278,6,0,B|312:192,3,85
301,192,50067,5,0
216,192,50225,1,0
301,192,50383,1,0
256,96,50541,5,8
256,160,50699,1,8
256,224,50857,1,8
256,288,51015,1,8
256,320,51804,5,0
256,320,51962,1,0
256,320,52120,1,0
256,320,52278,2,2,B|80:272|48:136,1,255
256,64,53067,5,0
256,64,53225,1,0
256,64,53383,1,0
256,64,53541,2,2,B|416:112|472:240,1,255
456,208,54330,5,0
408,280,54804,5,0
328,296,54962,1,0
240,304,55120,1,0
152,288,55278,1,0
88,224,55436,1,0
64,144,55594,2,2,B|208:40|384:32,1,340
256,128,56857,6,8,B|328:192,2,85
319,184,57488,6,8,B|240:264,2,85
259,244,58120,6,8,B|160:176,2,85
256,192,58752,5,0
256,192,59067,1,0
256,192,59225,12,0,60489
56,88,61909,6,8,B|160:88,1,85
96,88,62225,2,8,B|96:176,1,85
56,176,62541,2,8,B|144:176,1,85
256,112,63173,6,2,B|192:0|24:120|120:216|192:280|256:312|256:312|336:280|368:216|472:144|400:72|336:0|240:136,1,850
312,200,64436,6,2,B|288:432|496:416|464:128|440:56|464:368,1,510
256,264,65699,5,8
184,192,66015,1,8
328,192,66173,1,8
392,88,66962,5,0
424,168,67120,1,0
408,248,67278,1,0
368,328,67436,1,0
280,328,67594,1,8
192,328,67752,1,8
104,320,67910,1,8
104,320,68225,6,2,B|136:64|136:64|400:88,1,510
112,72,69488,5,4
408,304,69804,1,4
408,64,70120,1,4
112,304,70436,1,4
256,192,70752,12,0,71699
64,160,72015,6,2,B|112:64,1,85
102,83,72331,2,2,B|152:176,1,85
142,158,72646,2,2,B|56:160,1,85
192,112,73278,5,0
280,112,73436,1,0
368,112,73594,1,0
280,192,73752,1,0
192,272,73910,1,8
280,272,74067,1,8
368,272,74225,1,8
384,160,74541,6,2,B|360:288|272:304,1,170
144,240,75173,2,2,B|128:128|248:80,1,170
256,104,75804,5,0
192,192,76120,1,8
320,192,76278,1,8
256,128,77067,6,0,B|176:208,1,85
200,192,77383,2,0,B|265:257,1,85
256,248,77699,2,0,B|321:184,1,85
320,192,78015,2,0,B|244:123,1,85
256,192,78331,5,8
256,192,78489,1,8
256,192,78646,1,8
256,192,78804,1,8
176,120,79594,6,2,B|272:56|368:136,1,170
344,280,80225,6,2,B|240:320|160:272,1,170
176,280,80857,6,2,B|112:184|190:111,1,170
344,128,81489,6,2,B|416:216|336:288,1,170
216,192,82120,6,0,B|320:192,1,85
301,192,82436,1,8
216,192,82594,1,8
256,240,82752,6,0,B|256:136,1,85
256,155,83068,1,8
256,240,83225,1,8
144,192,83383,5,0
216,192,83541,1,0
296,192,83699,1,8
368,192,83857,1,8
256,192,84331,12,0,85910
