osu file format v9

[General]
AudioFilename: Honey Coming OP.mp3
AudioLeadIn: 1511
PreviewTime: 61839
Countdown: 0
SampleSet: Normal
StackLeniency: 0.7
Mode: 0
LetterboxInBreaks: 1

[Editor]
DistanceSpacing: 1.4
BeatDivisor: 4
GridSize: 8

[Metadata]
Title:Love Hell Rocket
Artist:Aoki Haruko
Creator:quo
Version:Insane
Source:HoneyComing
Tags:swish gowww hook

[Difficulty]
HPDrainRate:7
CircleSize:4
OverallDifficulty:8
ApproachRate:8
SliderMultiplier:1.4
SliderTickRate:1

[Events]
//Background and Video events
Video,0,"HoneyComing_OP.avi"
0,0,"BG.jpg"
//Break Periods
//Storyboard Layer 0 (Background)
//Storyboard Layer 1 (Fail)
//Storyboard Layer 2 (Pass)
//Storyboard Layer 3 (Foreground)
//Storyboard Sound Samples
//Background Colour Transformations
3,100,163,162,255

[TimingPoints]
1287,315.789473684211,4,1,0,49,1,0
61910,-100,4,1,0,49,0,1
84328,-100,4,2,0,0,0,1
86313,-100,4,2,0,0,0,0

[Colours]
Combo1 : 189,46,209
Combo2 : 255,255,128
Combo3 : 255,128,192
Combo4 : 128,255,255
Combo5 : 128,255,128

[HitObjects]
256,72,1286,1,4
256,72,2076,1,4
256,72,2392,1,4
256,288,3813,5,4
256,288,4602,1,4
256,288,4918,1,4
96,80,5865,5,0
96,80,6023,1,8
96,80,6181,1,0
168,80,6339,2,8,B|312:80,1,140
392,192,6971,2,8,B|224:192,1,140
168,304,7602,2,8,B|320:304,1,140
448,304,8234,1,0
448,304,8392,1,8
448,304,8550,1,0
408,168,8865,6,8,B|256:168,1,140
152,248,9497,2,8,B|312:248,1,140
408,328,10129,2,8,B|256:328,1,140
128,328,10760,1,0
128,328,10918,1,8
128,328,11076,1,0
48,216,11392,6,0,B|24:144|56:72,1,140
160,168,12023,2,0,B|136:240|168:304,1,140
264,200,12655,2,0,B|288:128|256:48,1,140
360,168,13287,2,0,B|384:240|352:304,1,140
208,312,13918,5,0
72,264,14234,1,0
192,184,14550,1,0
56,136,14865,1,0
176,64,15181,2,0,B|240:40|320:56,1,140
416,144,15813,2,0,B|352:168|272:152,1,140
136,160,16444,5,0
56,272,16760,1,0
192,304,17076,2,0,B|272:320|336:288,1,140
432,192,17708,2,0,B|352:176|288:208,1,140
152,192,18339,5,0
152,192,18655,1,0
64,304,18971,2,0,B|136:328|216:304,1,140
336,264,19602,1,0
336,264,19918,1,0
456,184,20234,1,2
384,168,20392,1,0
408,232,20550,1,2
456,184,20708,5,0
384,168,20865,1,2
408,232,21023,1,0
456,184,21181,1,10
456,184,21339,1,8
424,120,21497,5,0
368,80,21655,1,0
304,56,21813,1,0
232,48,21971,1,0
160,64,22129,1,0
72,176,22444,2,4,B|80:256|144:304,2,140
80,40,23392,5,4
216,16,23708,1,4
344,72,24023,1,0
432,176,24339,1,0
432,176,24497,1,0
432,176,24655,1,0
352,288,24971,1,0
216,312,25287,1,0
80,288,25602,1,0
80,288,25760,1,8
80,288,25918,1,8
32,152,26234,5,0
144,64,26550,1,2
216,72,26708,1,0
176,128,26865,1,2
144,64,27023,1,0
216,72,27181,1,2
352,72,27497,5,0
416,104,27655,1,0
440,168,27813,1,4
392,296,28129,1,4
392,296,28444,2,8,B|320:336|224:304,1,140,8|8
120,272,29076,5,0
56,240,29234,1,0
32,176,29392,1,0
24,104,29550,2,8,B|40:64|96:48,1,70
144,32,29865,1,0
144,32,30023,1,0
144,32,30181,1,0
216,32,30339,1,0
288,48,30497,1,0
352,80,30655,1,0
408,128,30813,2,8,B|448:136|464:184,1,70
432,288,31287,5,0
272,304,31602,2,0,B|192:328|120:280,1,140,0|8
136,290,32076,1,0
80,248,32234,2,0,B|32:192|48:88,1,140,0|8
160,32,32865,5,0
296,64,33181,1,0
296,64,33497,1,0
408,152,33813,1,0
408,152,33971,1,8
408,152,34129,1,8
352,280,34444,5,0
208,320,34760,1,0
208,320,34918,1,8
208,320,35076,1,8
80,256,35392,1,0
72,120,35708,5,0
192,56,36023,1,0
328,56,36339,1,0
440,144,36655,1,0
440,144,36734,1,0
440,144,36813,1,0
440,144,36892,1,0
440,144,36971,2,8,B|448:200|416:240,1,70
384,264,37287,1,0
384,264,37444,1,8
384,264,37602,1,8
256,320,37918,5,0
192,200,38234,1,0
120,320,38550,1,0
56,200,38865,1,0
64,64,39181,2,0,B|128:32|208:48,1,140
200,46,39655,1,8
272,56,39813,1,0
272,56,39892,1,0
272,56,39971,1,0
272,56,40050,1,0
272,56,40129,2,8,B|320:48|360:72,1,70
448,152,40602,5,0
416,216,40760,1,0
360,256,40918,1,0
296,280,41076,1,0
224,280,41234,1,0
160,256,41392,1,0
96,224,41550,1,0
40,176,41708,2,0,B|8:112|24:32,2,140
136,280,42655,5,0
136,280,42813,1,0
136,280,42971,1,4
272,312,43287,1,4
408,280,43602,2,8,B|448:264|464:208,2,70
272,312,44234,6,0,B|200:336|136:296,1,140
137,296,44708,1,0
88,248,44865,1,0
48,192,45023,1,0
40,120,45181,1,0
80,64,45339,1,0
80,64,45497,2,0,B|144:32|232:48,1,140,0|8
280,72,45971,1,8
472,192,46444,5,0
368,280,46760,1,2
328,224,46918,1,0
296,288,47076,1,2
368,280,47234,1,0
328,224,47392,1,2
248,104,47708,5,0
248,104,47865,1,0
184,72,48023,1,4
48,88,48339,1,0
64,224,48655,1,4
192,288,48971,1,4
328,272,49287,5,0
328,272,49365,1,0
328,272,49444,1,0
328,272,49523,1,0
328,272,49602,2,8,B|376:272|400:232,1,70
464,128,50076,1,0
464,128,50234,1,0
464,128,50392,1,0
400,96,50550,2,8,B|368:64|312:64,1,70
264,56,50865,1,8
200,24,51023,1,8
40,160,51497,5,0
128,272,51813,1,0
320,312,52129,1,0
448,168,52444,1,0
304,40,52760,1,0
120,96,53076,1,0
128,288,53392,1,0
128,288,53708,1,0
264,304,54023,5,0
264,304,54181,1,8
264,304,54339,1,8
400,280,54655,2,0,B|464:232|472:160,2,140,0|0|8
400,280,55444,1,0
336,304,55602,2,8,B|216:328|128:264,1,210
48,80,56550,1,0
200,64,56865,5,2
272,64,57023,1,0
344,64,57181,1,2
240,160,57497,1,2
272,224,57655,1,0
304,288,57813,1,2
344,152,58129,1,2
408,128,58287,1,0
472,104,58444,1,2
464,240,58760,5,0
352,320,59076,1,0
208,320,59392,1,2
200,248,59550,1,0
136,280,59708,1,2
136,208,59865,1,0
64,200,60023,1,2
56,128,60181,1,0
104,72,60339,1,2
168,40,60497,1,0
312,32,60813,1,0
376,56,60971,1,2
424,104,61129,1,4
448,168,61287,1,2
448,168,61444,1,2
448,168,61602,1,2
360,280,61918,5,0
360,280,62076,2,8,B|320:304|272:288,1,70
224,280,62392,1,0
224,280,62550,1,0
160,256,62708,2,8,B|112:248|88:208,1,70
72,88,63181,5,2
144,72,63339,1,0
128,144,63497,1,2
72,88,63655,1,0
144,72,63813,1,2
208,56,63971,2,8,B|240:32|288:48,1,70
416,64,64444,5,2
464,112,64602,1,0
400,136,64760,1,2
456,184,64918,1,0
392,208,65076,1,2
432,264,65234,2,8,B|408:304|352:312,1,70
312,320,65550,1,0
240,328,65708,1,0
176,296,65865,1,0
120,256,66023,1,0
120,256,66181,2,8,B|64:208|48:128,1,140,8|8
56,64,66655,1,0
208,48,66971,5,2
280,64,67129,1,0
232,120,67287,1,2
208,48,67444,1,0
280,64,67602,1,2
408,120,67918,1,0
392,256,68234,5,2
336,208,68392,1,0
392,256,68550,1,2
448,208,68708,1,0
392,256,68865,1,2
264,320,69181,5,8
128,280,69497,1,8
128,280,69813,1,0
56,160,70129,1,8
144,48,70444,1,8
280,32,70760,1,0
280,32,70839,1,0
280,32,70918,1,0
280,32,70997,1,0
280,32,71076,1,0
280,32,71155,1,0
280,32,71234,2,8,B|328:40|352:88,1,70
376,128,71550,1,8
376,128,71708,1,8
360,264,72023,5,2
304,304,72181,1,0
288,232,72339,1,0
232,280,72497,1,2
168,240,72655,1,0
136,304,72813,1,0
136,304,72971,1,2
40,200,73287,5,2
104,176,73444,1,0
48,128,73602,1,0
40,200,73760,1,2
104,176,73918,1,0
104,176,74076,1,8
104,176,74234,1,10
200,64,74550,5,0
272,64,74708,1,2
200,64,74865,1,0
272,64,75023,1,2
344,64,75181,2,0,B|392:56|432:88,1,70
472,128,75497,1,0
472,128,75655,1,0
440,192,75813,2,0,B|424:224|384:232,3,70
320,264,76444,1,0
320,264,76602,1,8
320,264,76760,1,8
184,280,77076,5,2
168,208,77234,1,0
112,256,77392,1,0
104,184,77550,1,2
40,152,77708,1,0
48,80,77865,1,0
48,80,78023,1,2
48,80,78181,1,0
112,56,78339,2,0,B|176:24|280:48,1,140
249,41,78813,1,8
384,88,79129,5,0
384,88,79287,1,0
392,232,79602,1,0
272,160,79918,1,0
392,232,80234,1,0
264,296,80550,1,0
152,216,80865,1,0
264,296,81181,1,0
264,136,81497,1,0
384,72,81813,1,0
264,136,82129,1,0
136,72,82444,6,0,B|72:104|56:192,1,140
144,288,83076,1,0
256,200,83392,1,4
256,200,83550,1,0
256,200,83708,1,4
256,200,83865,1,0
256,192,84339,12,0,86313
