osu file format v9

[General]
AudioFilename: 02.mp3
AudioLeadIn: 2000
PreviewTime: 68615
Countdown: 0
SampleSet: Soft
StackLeniency: 0.7
Mode: 0
LetterboxInBreaks: 1

[Editor]
Bookmarks: 19535,50255,69455,100175,119375,134735,153935,184655,200015
DistanceSpacing: 1.1
BeatDivisor: 4
GridSize: 4

[Metadata]
Title:Mata Ashita
Artist:Aoi Yuuki
Creator:Sandpig
Version:Hard
Source:Puella Magi Madoka Magica
Tags:See You Tomorrow Character Song Mahou Shoujo SiRiRu bakabaka KanaRin

[Difficulty]
HPDrainRate:6
CircleSize:4
OverallDifficulty:6
ApproachRate:7
SliderMultiplier:2.2
SliderTickRate:1

[Events]
//Background and Video events
0,0,"bg.jpg"
//Break Periods
2,12054,16955
2,104215,116795
2,188695,195275
//Storyboard Layer 0 (Background)
//Storyboard Layer 1 (Fail)
//Storyboard Layer 2 (Pass)
//Storyboard Layer 3 (Foreground)
//Storyboard Sound Samples
//Background Colour Transformations
3,100,0,0,0

[TimingPoints]
335,480,4,2,0,5,1,0
1295,-133.333333333333,4,2,0,5,0,0
3335,-200,4,2,0,50,0,0
17735,-133.333333333333,4,1,0,20,0,0
17975,-133.333333333333,4,1,0,25,0,0
18215,-133.333333333333,4,1,0,30,0,0
18455,-133.333333333333,4,2,0,40,0,0
18815,-133.333333333333,4,1,0,40,0,0
19535,-133.333333333333,4,2,0,50,0,0
22775,-133.333333333333,4,1,0,50,0,0
23015,-133.333333333333,4,1,0,30,0,0
23375,-133.333333333333,4,2,0,30,0,0
23615,-133.333333333333,4,2,0,50,0,0
26615,-133.333333333333,4,1,0,50,0,0
26855,-133.333333333333,4,2,0,50,0,0
27095,-133.333333333333,4,2,0,40,0,0
27335,-133.333333333333,4,2,0,50,0,0
30455,-133.333333333333,4,1,0,50,0,0
30695,-133.333333333333,4,2,0,50,0,0
34055,-133.333333333333,4,1,0,40,0,0
34535,-133.333333333333,4,2,0,50,0,0
36215,-133.333333333333,4,1,0,50,0,0
36455,-133.333333333333,4,2,0,50,0,0
38135,-133.333333333333,4,1,1,50,0,0
38375,-133.333333333333,4,2,0,50,0,0
40055,-133.333333333333,4,1,0,50,0,0
40295,-133.333333333333,4,2,0,50,0,0
41975,-133.333333333333,4,1,0,50,0,0
42215,-133.333333333333,4,2,0,50,0,0
42575,-133.333333333333,4,2,0,30,0,0
42695,-133.333333333333,4,2,0,50,0,0
43895,-133.333333333333,4,1,0,50,0,0
44135,-133.333333333333,4,2,0,50,0,0
45815,-133.333333333333,4,1,0,50,0,0
46055,-133.333333333333,4,2,0,50,0,0
46295,-133.333333333333,4,2,0,40,0,0
46535,-133.333333333333,4,2,0,50,0,0
47735,-133.333333333333,4,1,0,50,0,0
47975,-133.333333333333,4,2,0,50,0,0
48695,-133.333333333333,4,1,0,50,0,0
49655,-133.333333333333,4,1,0,40,0,0
50015,-133.333333333333,4,2,0,50,0,0
51695,-133.333333333333,4,1,0,50,0,0
51815,-133.333333333333,4,2,0,50,0,0
53495,-133.333333333333,4,1,0,50,0,0
53735,-133.333333333333,4,2,0,50,0,0
53975,-133.333333333333,4,2,0,40,0,0
54215,-133.333333333333,4,2,0,50,0,0
55415,-133.333333333333,4,1,0,50,0,0
55655,-133.333333333333,4,2,0,50,0,0
57215,-133.333333333333,4,1,0,50,0,0
57575,-133.333333333333,4,2,0,50,0,0
57815,-133.333333333333,4,2,0,40,0,0
58055,-133.333333333333,4,2,0,50,0,0
59375,-133.333333333333,4,1,0,50,0,0
59495,-133.333333333333,4,2,0,50,0,0
61295,-133.333333333333,4,1,0,50,0,0
61655,-133.333333333333,4,2,0,50,0,0
62135,-133.333333333333,4,1,0,50,0,0
62375,-133.333333333333,4,2,0,50,0,0
63215,-133.333333333333,4,1,0,50,0,0
63335,-133.333333333333,4,2,0,50,0,0
64175,-133.333333333333,4,1,0,50,0,0
64295,-133.333333333333,4,2,0,50,0,0
65015,-133.333333333333,4,1,0,50,0,0
65375,-133.333333333333,4,2,0,30,0,0
65495,-133.333333333333,4,2,0,50,0,0
66095,-133.333333333333,4,1,0,50,0,0
66335,-133.333333333333,4,2,0,50,0,0
67055,-133.333333333333,4,1,0,50,0,0
67175,-133.333333333333,4,2,0,50,0,0
67295,-133.333333333333,4,1,0,40,0,0
67415,-133.333333333333,4,2,0,50,0,0
68015,-133.333333333333,4,1,0,50,0,0
68495,-133.333333333333,4,2,0,50,0,0
68615,-133.333333333333,4,1,0,50,0,0
69335,-100,4,2,0,60,0,0
69455,-100,4,2,0,60,0,1
69815,-100,4,1,0,60,0,1
70055,-100,4,2,0,60,0,1
70775,-100,4,1,0,60,0,1
71015,-100,4,2,0,60,0,1
71855,-100,4,1,0,60,0,1
71975,-100,4,2,0,60,0,1
72695,-100,4,1,0,60,0,1
72935,-100,4,2,0,60,0,1
73775,-100,4,1,0,60,0,1
73895,-100,4,2,0,60,0,1
74615,-100,4,1,0,60,0,1
74855,-100,4,2,0,60,0,1
75695,-100,4,1,0,60,0,1
75815,-100,4,2,0,60,0,1
76295,-100,4,1,0,60,0,1
76655,-100,4,2,0,60,0,1
76895,-100,4,1,0,60,0,1
77015,-100,4,2,0,60,0,1
77615,-100,4,1,0,60,0,1
77855,-100,4,2,0,60,0,1
78575,-100,4,1,0,60,0,1
78815,-100,4,2,0,60,0,1
79535,-100,4,1,0,60,0,1
79655,-100,4,2,0,60,0,1
80375,-100,4,1,0,60,0,1
80615,-100,4,2,0,60,0,1
81455,-100,4,1,0,60,0,1
81575,-100,4,2,0,60,0,1
82295,-100,4,1,0,60,0,1
82535,-100,4,2,0,60,0,1
83255,-100,4,1,0,60,0,1
83495,-100,4,1,0,60,0,1
83855,-100,4,2,0,40,0,1
83975,-100,4,1,0,40,0,1
84215,-100,4,1,0,60,0,1
84695,-100,4,2,0,60,0,1
85175,-100,4,1,0,60,0,1
85415,-100,4,2,0,60,0,1
86135,-100,4,1,0,60,0,1
86375,-100,4,2,0,60,0,1
87215,-100,4,1,0,60,0,1
87335,-100,4,2,0,60,0,1
88175,-100,4,1,0,60,0,1
88295,-100,4,2,0,60,0,1
89135,-100,4,1,0,60,0,1
89255,-100,4,2,0,60,0,1
89975,-100,4,1,0,60,0,1
90215,-100,4,2,0,60,0,1
91055,-100,4,1,0,60,0,1
91175,-100,4,2,0,60,0,1
91895,-100,4,1,0,60,0,1
92375,-100,4,2,0,60,0,1
92855,-100,4,1,0,60,0,1
93095,-100,4,2,0,60,0,1
93815,-100,4,1,0,60,0,1
94055,-100,4,2,0,60,0,1
94895,-100,4,1,0,60,0,1
95015,-100,4,2,0,60,0,1
95855,-100,4,1,0,60,0,1
95975,-100,4,2,0,60,0,1
96815,-100,4,1,0,60,0,1
96935,-100,4,2,0,60,0,1
97775,-100,4,1,0,60,0,1
97895,-100,4,2,0,60,0,1
99215,-100,4,1,0,40,0,1
99575,-100,4,1,0,50,0,1
100415,-100,4,2,0,50,0,0
117455,-133.333333333333,4,1,0,30,0,0
117815,-133.333333333333,4,2,0,30,0,0
118055,-133.333333333333,4,1,0,30,0,0
118295,-133.333333333333,4,1,0,20,0,0
118535,-133.333333333333,4,1,0,30,0,0
118775,-133.333333333333,4,1,0,40,0,0
119015,-133.333333333333,4,2,0,50,0,0
120695,-133.333333333333,4,1,0,50,0,0
120935,-133.333333333333,4,2,0,50,0,0
122615,-133.333333333333,4,1,0,50,0,0
122855,-133.333333333333,4,2,0,50,0,0
124535,-133.333333333333,4,1,0,50,0,0
124775,-133.333333333333,4,2,0,50,0,0
126455,-133.333333333333,4,1,0,50,0,0
126695,-133.333333333333,4,2,0,50,0,0
128375,-133.333333333333,4,1,0,50,0,0
128615,-133.333333333333,4,2,0,50,0,0
130295,-133.333333333333,4,1,0,50,0,0
130535,-133.333333333333,4,2,0,50,0,0
132215,-133.333333333333,4,1,0,50,0,0
132455,-133.333333333333,4,2,0,50,0,0
133175,-133.333333333333,4,1,0,50,0,0
133415,-133.333333333333,4,2,0,50,0,0
134135,-133.333333333333,4,1,0,40,0,0
134495,-133.333333333333,4,2,0,50,0,0
136055,-133.333333333333,4,1,0,50,0,0
136295,-133.333333333333,4,2,0,50,0,0
137975,-133.333333333333,4,1,0,50,0,0
138215,-133.333333333333,4,2,0,50,0,0
140015,-133.333333333333,4,1,0,50,0,0
140135,-133.333333333333,4,2,0,50,0,0
141695,-133.333333333333,4,1,0,50,0,0
142055,-133.333333333333,4,2,0,50,0,0
142295,-133.333333333333,4,2,0,40,0,0
142535,-133.333333333333,4,2,0,50,0,0
143735,-133.333333333333,4,1,0,50,0,0
143975,-133.333333333333,4,2,0,50,0,0
145655,-133.333333333333,4,1,0,50,0,0
145895,-133.333333333333,4,2,0,50,0,0
146615,-133.333333333333,4,1,0,50,0,0
146855,-133.333333333333,4,2,0,50,0,0
147695,-133.333333333333,4,1,0,50,0,0
147815,-133.333333333333,4,2,0,50,0,0
148535,-133.333333333333,4,1,0,50,0,0
148775,-133.333333333333,4,2,0,50,0,0
149495,-133.333333333333,4,1,0,50,0,0
149735,-133.333333333333,4,2,0,50,0,0
150455,-133.333333333333,4,1,0,50,0,0
150695,-133.333333333333,4,2,0,50,0,0
151415,-133.333333333333,4,1,0,50,0,0
151655,-133.333333333333,4,2,0,50,0,0
152375,-133.333333333333,4,1,0,50,0,0
152615,-133.333333333333,4,2,0,50,0,0
152855,-100,4,1,0,30,0,0
153215,-100,4,1,0,50,0,0
153935,-100,4,2,0,60,0,1
154295,-100,4,1,0,60,0,1
154535,-100,4,2,0,60,0,1
155255,-100,4,1,0,60,0,1
155495,-100,4,2,0,60,0,1
156335,-100,4,1,0,60,0,1
156455,-100,4,2,0,60,0,1
157175,-100,4,1,0,60,0,1
157415,-100,4,2,0,60,0,1
158255,-100,4,1,0,60,0,1
158375,-100,4,2,0,60,0,1
159095,-100,4,1,0,60,0,1
159335,-100,4,2,0,60,0,1
160175,-100,4,1,0,60,0,1
160295,-100,4,2,0,60,0,1
161015,-100,4,1,0,60,0,1
161495,-100,4,2,0,60,0,1
161975,-100,4,1,0,60,0,1
162215,-100,4,2,0,60,0,1
162935,-100,4,1,0,60,0,1
163175,-100,4,2,0,60,0,1
164015,-100,4,1,0,60,0,1
164135,-100,4,2,0,60,0,1
164975,-100,4,1,0,60,0,1
165095,-100,4,2,0,60,0,1
165935,-100,4,1,0,60,0,1
166055,-100,4,2,0,60,0,1
166775,-100,4,1,0,60,0,1
167015,-100,4,2,0,60,0,1
167735,-100,4,1,0,60,0,1
167975,-100,4,1,0,50,0,1
168335,-100,4,2,0,40,0,1
168455,-100,4,1,0,40,0,1
168695,-100,4,1,0,60,0,1
169175,-100,4,2,0,60,0,1
169655,-100,4,1,0,60,0,1
169895,-100,4,2,0,60,0,1
170615,-100,4,1,0,60,0,1
170855,-100,4,2,0,60,0,1
171695,-100,4,1,0,60,0,1
171815,-100,4,2,0,60,0,1
172535,-100,4,1,0,60,0,1
172775,-100,4,2,0,60,0,1
173615,-100,4,1,0,60,0,1
173735,-100,4,2,0,60,0,1
174455,-100,4,1,0,60,0,1
174695,-100,4,2,0,60,0,1
175535,-100,4,1,0,60,0,1
175655,-100,4,2,0,60,0,1
176375,-100,4,1,0,60,0,1
176975,-100,4,2,0,60,0,1
177215,-100,4,1,0,60,0,1
177575,-100,4,2,0,60,0,1
178295,-100,4,1,0,60,0,1
178535,-100,4,2,0,60,0,1
179375,-100,4,1,0,60,0,1
179495,-100,4,2,0,60,0,1
180335,-100,4,1,0,60,0,1
180455,-100,4,2,0,60,0,1
181295,-100,4,1,0,60,0,1
181415,-100,4,2,0,60,0,1
182135,-100,4,1,0,60,0,1
182375,-100,4,2,0,60,0,1
183335,-100,4,1,0,35,0,1
183575,-100,4,1,0,40,0,1
184055,-100,4,1,0,50,0,1
184895,-100,4,2,0,50,0,0
195695,-133.333333333333,4,2,0,40,0,0
196655,-133.333333333333,4,1,0,40,0,0
196775,-133.333333333333,4,2,0,40,0,0
197495,-133.333333333333,4,1,0,40,0,0
197735,-133.333333333333,4,2,0,40,0,0
198575,-133.333333333333,4,1,0,40,0,0
198935,-133.333333333333,4,2,0,40,0,0
199175,-133.333333333333,4,1,0,40,0,0
199535,-133.333333333333,4,1,0,50,0,0
200015,-100,4,2,0,60,0,1
200375,-100,4,1,0,60,0,1
200615,-100,4,2,0,60,0,1
201335,-100,4,1,0,60,0,1
201575,-100,4,2,0,60,0,1
202415,-100,4,1,0,60,0,1
202535,-100,4,2,0,60,0,1
203255,-100,4,1,0,60,0,1
203495,-100,4,2,0,60,0,1
204335,-100,4,1,0,60,0,1
204455,-100,4,2,0,60,0,1
205175,-100,4,1,0,60,0,1
205415,-100,4,2,0,60,0,1
206255,-100,4,1,0,60,0,1
206375,-100,4,2,0,60,0,1
207095,-100,4,1,0,60,0,1
207335,-100,4,2,0,60,0,1
207455,-100,4,1,0,50,0,1
207575,-100,4,2,0,60,0,1
208175,-100,4,1,0,60,0,1
208415,-100,4,2,0,60,0,1
209015,-100,4,1,0,60,0,1
209255,-100,4,2,0,60,0,1
210095,-100,4,1,0,60,0,1
210215,-100,4,2,0,60,0,1
211055,-100,4,1,0,60,0,1
211175,-100,4,2,0,60,0,1
212015,-100,4,1,0,60,0,1
212135,-100,4,2,0,60,0,1
212855,-100,4,1,0,60,0,1
213095,-100,4,2,0,60,0,1
213815,-100,4,1,0,60,0,1
214055,-100,4,1,0,50,0,1
214415,-100,4,2,0,50,0,1
214535,-100,4,1,0,40,0,1
214775,-100,4,1,0,50,0,1
215255,-100,4,2,0,60,0,1
215735,-100,4,1,0,60,0,1
215975,-100,4,2,0,60,0,1
216695,-100,4,1,0,60,0,1
216935,-100,4,2,0,60,0,1
217775,-100,4,1,0,60,0,1
217895,-100,4,2,0,60,0,1
218615,-100,4,1,0,60,0,1
218855,-100,4,2,0,60,0,1
219575,-100,4,1,0,60,0,1
219815,-100,4,2,0,60,0,1
220535,-100,4,1,0,60,0,1
220775,-100,4,2,0,60,0,1
221615,-100,4,1,0,60,0,1
221735,-100,4,2,0,60,0,1
222455,-100,4,1,0,60,0,1
222695,-100,4,1,0,50,0,1
223055,-100,4,2,0,60,0,1
223535,-100,4,1,0,60,0,1
223775,-100,4,2,0,60,0,1
224495,-100,4,1,0,60,0,1
224615,-100,4,2,0,60,0,1
225455,-100,4,1,0,60,0,1
225575,-100,4,2,0,60,0,1
226415,-100,4,1,0,60,0,1
226535,-100,4,2,0,60,0,1
227255,-100,4,1,0,60,0,1
227495,-100,4,2,0,60,0,1
228215,-100,4,1,0,60,0,1
228455,-100,4,2,0,60,0,1
229175,-100,4,1,0,60,0,1
229655,-100,4,2,0,60,0,1
230135,-100,4,1,0,60,0,1
230375,-100,4,1,0,50,0,1
230735,-100,4,2,0,60,0,1
231215,-100,4,1,0,60,0,1
231455,-100,4,2,0,60,0,1
232175,-100,4,1,0,60,0,1
232535,-100,4,2,0,60,0,1
232895,-100,4,1,0,60,0,1
233015,-100,4,2,0,60,0,1
233375,-100,4,2,0,45,0,1
233615,-100,4,1,0,40,0,1
234095,-100,4,1,0,45,0,1
234575,-100,4,2,0,60,0,0

[Colours]
Combo1 : 251,168,166
Combo2 : 253,108,137

[HitObjects]
256,192,335,12,0,2975
80,92,3455,5,0
160,72,3695,1,2
212,136,3935,1,0
200,276,4175,5,0
200,276,4415,2,0,B|228:324|284:344,1,110
312,88,5375,5,0
372,144,5615,1,2
444,108,5855,1,0
416,268,6095,6,0,B|388:352|288:356,1,165
236,188,7295,5,0
188,120,7535,1,2
220,44,7775,1,0
320,152,8015,5,0
320,152,8255,2,0,B|330:215|287:254,1,110
140,324,9215,5,0
80,264,9455,1,2
120,188,9695,1,0
208,88,9935,6,0,B|248:64|288:88,1,82.5
400,140,10655,2,0,B|472:212|400:348|296:324,1,275,0|4
208,56,17855,5,0
268,164,18095,1,0
372,96,18335,1,0
268,164,18575,1,0
232,284,18815,1,0
108,296,19055,6,0,B|112:204|196:160,1,164.999995082617,0|4
400,64,20015,5,0
444,132,20255,2,0,B|416:176|376:200,1,82.4999975413085
392,312,20735,2,0,B|352:292|340:232,1,82.4999975413085,0|2
304,148,21215,1,2
252,44,21455,6,0,B|160:44|116:128,1,164.999995082617
124,284,22175,2,0,B|123:195|211:155,1,164.999995082617
284,208,22895,1,0
356,152,23135,1,0
356,152,23255,1,0
356,152,23375,1,4
216,336,23855,5,0
132,312,24095,2,0,B|80:304|52:264,1,82.4999975413085
120,200,24575,2,0,B|84:172|96:116,1,82.4999975413085,0|2
192,136,25055,2,0,B|188:88|236:60,1,82.4999975413085,2|0
276,132,25535,1,0
340,80,25775,1,0
412,120,26015,2,0,B|428:216|364:276,1,164.999995082617
292,240,26735,1,0
240,304,26975,1,0
180,360,27215,6,0,B|108:332|120:208,1,164.999995082617,4|0
40,200,27935,2,0,B|132:184|176:112,1,164.999995082617
248,76,28655,1,2
324,108,28895,1,2
400,80,29135,6,0,B|432:164|392:252,1,164.999995082617
448,332,29855,2,0,B|368:340|300:268,1,164.999995082617
244,212,30575,1,0
200,288,30815,1,0
120,268,31055,6,0,B|124:176|96:92,1,164.999995082617
188,28,31775,2,0,B|168:96|188:200,1,164.999995082617
260,344,32495,5,2
340,328,32735,1,2
416,292,32975,2,0,B|468:216|424:120,1,164.999995082617
284,56,33935,1,0
248,132,34175,1,0
172,160,34415,2,0,B|112:232|168:320,1,164.999995082617,0|4
400,108,35375,6,0,B|392:200|332:260,1,164.999995082617,0|2
220,300,36095,1,2
268,188,36335,1,0
176,104,36575,1,0
280,40,36815,2,0,B|372:52|408:148,1,164.999995082617
396,264,37535,1,0
172,256,38015,5,2
264,176,38255,1,0
352,264,38495,1,0
260,348,38735,6,0,B|168:352|108:292,1,164.999995082617
184,196,39455,1,0
80,128,39695,2,0,B|92:92|132:56,1,82.4999975413085,2|2
336,84,40175,2,0,B|296:112|244:108,1,82.4999975413085
148,176,40655,1,0
176,252,40895,1,0
240,304,41135,1,0
316,332,41375,2,0,B|404:340|448:236,1,164.999995082617
440,64,42095,5,0
392,164,42335,1,0
392,164,42455,1,0
392,164,42575,2,0,B|364:212|308:224,1,82.4999975413085,4|0
164,300,43055,2,0,B|188:256|252:240,1,82.4999975413085,0|0
384,68,43775,5,0
276,68,44015,2,0,B|180:80|128:140,1,164.999995082617
212,328,44975,1,0
212,328,45215,2,0,B|304:308|364:232,1,164.999995082617
420,140,45935,5,0
332,52,46175,1,0
204,48,46415,2,0,B|116:60|52:120,1,164.999995082617,4|0
228,164,47135,2,0,B|284:176|388:248,1,164.999995082617
272,308,47855,1,0
168,240,48095,2,0,B|264:228|324:164,1,164.999995082617,4|0
404,88,48815,1,0
404,88,49055,1,0
136,88,49535,5,0
228,56,49775,1,0
228,56,49895,1,0
228,56,50015,2,0,B|232:104|204:152,1,82.4999975413085,0|4
80,316,50735,1,2
156,240,50975,2,0,B|264:328|392:260,1,247.499992623925
348,176,51935,1,0
452,40,52175,6,0,B|456:120|412:176,1,123.749996311963,0|0
384,124,52655,2,0,B|320:116|284:168,1,82.4999975413085,2|2
128,332,53375,5,0
212,324,53615,1,0
280,276,53855,1,0
244,172,54095,6,0,B|164:188|76:144,1,164.999995082617,4|0
188,108,54815,2,0,B|276:120|352:68,1,164.999995082617
232,44,55535,1,0
148,48,55775,1,0
72,84,56015,2,0,B|48:184|68:260,1,164.999995082617,2|0
144,268,56735,2,0,B|184:232|176:164,2,82.4999975413085,0|2|0
80,320,57455,1,0
160,344,57695,1,0
244,352,57935,6,0,B|328:360|392:276,1,164.999995082617,4|0
448,196,58655,1,0
424,92,58895,2,0,B|360:132|332:240,1,164.999995082617
248,292,59615,1,0
140,304,59855,6,0,B|91:256|118:177,1,123.749996311963
72,156,60335,2,0,B|90:107|143:93,1,82.4999975413085,0|2
228,60,60815,1,0
328,96,61055,2,0,B|380:80|400:48,2,82.4999975413085
228,172,61775,6,0,B|136:232,1,82.4999975413085,4|0
172,296,62255,2,0,B|80:356,1,82.4999975413085
228,172,62735,2,0,B|288:144|340:224|308:276,1,164.999995082617
200,328,63455,6,0,B|136:232,1,82.4999975413085
64,216,63935,2,0,B|88:128,1,82.4999975413085
156,64,64415,1,0
216,144,64655,1,0
300,92,64895,1,0
396,76,65135,1,0
448,168,65375,6,0,B|444:252|352:304,1,164.999995082617,0|0
360,299,66095,1,0
124,320,66575,1,0
204,252,66815,2,0,B|203:214|173:178,2,82.4999975413085,2|0|0
408,192,67775,5,2
408,192,67895,1,0
408,192,68015,1,0
384,304,68255,1,0
272,336,68495,1,0
272,336,68615,1,0
272,336,68735,5,0
168,240,68975,1,0
248,116,69215,1,0
448,112,69455,6,0,B|408:160|344:176,1,110,4|2
248,192,69935,1,0
88,88,70175,2,0,B|144:128|200:132,1,110,2|0
316,112,70655,5,0
364,236,70895,1,0
252,304,71135,1,0
160,200,71375,2,0,B|96:172|40:228|64:296,1,165,0|2
84,336,71855,2,0,B|144:324|180:284,1,110,0|2
268,200,72335,1,0
388,148,72575,5,0
280,96,72815,1,0
160,104,73055,1,0
76,188,73295,2,0,B|100:240|164:248,2,110,0|2|0
48,268,74015,2,0,B|96:352|244:352,1,220,2|0
352,340,74735,1,0
456,304,74975,1,0
472,172,75215,6,0,B|408:220|300:224,1,165
268,200,75695,2,0,B|252:264|300:300,1,110,0|2
200,276,76175,1,0
84,228,76415,1,0
84,228,76535,1,0
84,228,76655,2,0,B|88:292|152:324,1,110,0|0
168,172,77135,6,0,B|208:120|320:120|372:176,1,220,4|0
168,272,78095,2,0,B|208:324|320:324|372:268,1,220,0|0
424,80,79055,6,0,B|400:168|288:188,1,165
276,232,79535,2,0,B|264:296|188:304,1,110,0|2
80,248,80015,5,0
100,116,80255,1,2
216,188,80495,2,0,B|328:188,1,110
424,112,80975,6,0,B|300:160|292:296,1,220
224,360,81695,2,0,B|164:352|132:300,2,110,0|0|2
336,356,82415,1,0
416,280,82655,1,2
436,160,82895,6,0,B|296:160,1,110
208,192,83375,1,0
272,80,83615,1,0
272,80,83735,1,0
272,80,83855,1,4
152,128,84095,5,0
88,264,84335,1,0
204,336,84575,1,0
300,232,84815,6,0,B|290:164|362:126,1,110,4|2
372,260,85295,1,0
480,116,85535,2,0,B|476:180|432:212,1,110,2|0
304,296,86015,5,0
212,216,86255,1,0
100,264,86495,1,0
68,148,86735,2,0,B|108:60|208:56,1,165,0|2
252,24,87215,2,0,B|248:80|208:128,1,110,0|2
132,240,87695,1,0
184,336,87935,2,0,B|236:320|268:256,1,110
368,232,88415,1,0
436,144,88655,6,0,B|316:144,2,110,0|2|0
444,256,89375,2,0,B|400:340|248:340,1,220,2|0
204,240,90095,1,0
96,212,90335,1,2
80,104,90575,6,0,B|136:76|160:28,2,110
188,124,91295,2,0,B|300:120|396:196,1,220
340,288,92015,1,0
240,244,92255,2,0,B|216:304|256:356,1,110,0|4
428,260,92975,5,0
84,260,93455,1,0
180,208,93695,1,2
104,128,93935,2,0,B|188:48|320:80,1,220
396,220,94775,1,0
396,220,94895,2,0,B|376:292|272:312,1,110
220,260,95375,1,0
76,336,95615,2,0,B|200:336,1,110,2|0
296,228,96095,5,0
252,100,96335,2,0,B|193:116|178:182,2,110,0|2|0
376,184,97055,2,0,B|432:148|400:60,1,110,2|0
268,196,97535,2,0,B|256:264|304:300,1,110,0|0
472,264,98015,2,0,B|416:240|360:276,1,110,0|4
176,332,98735,5,0
68,268,98975,2,0,B|116:236|128:164,1,110
104,48,99455,1,0
192,144,99695,1,0
320,144,99935,1,0
408,48,100175,1,4
256,192,100415,12,0,104015
216,80,117695,5,0
344,152,117935,2,0,B|328:196|256:208,1,82.4999975413085,4|0
152,216,118415,1,0
220,332,118655,1,0
356,340,118895,2,0,B|432:312|452:204,1,164.999995082617,0|4
204,76,119855,5,0
120,140,120095,2,0,B|120:196|164:224,1,82.4999975413085,0|0
252,180,120575,1,2
236,284,120815,1,0
140,332,121055,1,2
236,284,121295,6,0,B|312:324|404:300,1,164.999995082617
460,212,122015,2,0,B|380:188|296:216,1,164.999995082617
192,228,122735,1,0
96,276,122975,2,0,B|80:236|104:196,1,82.4999975413085
312,112,123695,5,0
404,168,123935,2,0,B|456:176|504:144,1,82.4999975413085
428,64,124415,1,2
404,168,124655,1,0
308,216,124895,1,2
240,144,125135,6,0,B|196:176|196:220,1,82.4999975413085
176,308,125615,1,0
80,332,125855,2,0,B|40:256|80:168,1,164.999995082617
136,84,126575,1,0
184,180,126815,1,0
292,192,127055,6,0,B|344:176|376:140,2,82.4999975413085
212,264,127775,2,0,B|160:264|120:236,2,82.4999975413085,0|0|2
280,348,128495,1,0
384,320,128735,1,2
452,236,128975,2,0,B|456:160|396:84,1,164.999995082617
356,184,129695,2,0,B|308:252|208:268,1,164.999995082617
188,164,130415,5,0
136,256,130655,1,0
200,344,130895,2,0,B|256:352|284:312,1,82.4999975413085
412,288,131375,1,0
412,288,131615,2,0,B|320:260|288:188,1,164.999995082617,0|2
272,76,132335,1,0
272,76,132575,2,0,B|208:136|200:232,1,164.999995082617
164,320,133295,1,0
84,248,133535,1,0
136,144,133775,5,0
148,132,133895,1,0
160,120,134015,1,0
332,104,134255,1,0
320,128,134375,1,0
308,152,134495,1,0
236,296,134735,6,0,B|332:320|404:248,1,164.999995082617,4|0
436,164,135455,1,0
388,68,135695,2,0,B|336:64|300:88,1,82.4999975413085
212,236,136175,2,0,B|252:224|272:184,1,82.4999975413085
136,144,136655,2,0,B|68:168|36:240,2,123.749996311963
340,244,137855,5,0
244,292,138095,2,0,B|188:292|156:256,1,82.4999975413085
288,168,138575,2,0,B|360:156|440:92,1,164.999995082617
224,92,139295,2,0,B|176:96|148:148,1,82.4999975413085
312,272,139775,2,0,B|352:272|392:236,1,82.4999975413085
212,204,140255,2,0,B|128:236|92:316,1,164.999995082617
204,312,140975,1,0
296,348,141215,6,0,B|324:316|331:266,2,82.4999975413085
240,224,141935,2,0,B|201:195|196:147,1,82.4999975413085
256,52,142415,2,0,B|340:72|376:176,1,164.999995082617,4|0
352,268,143135,1,0
280,348,143375,2,0,B|232:344|208:308,1,82.4999975413085
80,164,143855,5,0
80,164,144095,1,0
148,248,144335,2,0,B|216:240|272:192,2,123.749996311963
96,340,145295,2,0,B|128:344|188:324,1,82.4999975413085
396,236,145775,2,0,B|356:264|300:272,1,82.4999975413085
212,268,146255,5,0
116,220,146495,1,2
216,96,146735,2,0,B|212:144|164:168,1,82.4999975413085,0|2
288,64,147215,2,0,B|340:132|312:228,1,164.999995082617
252,348,147935,6,0,B|212:320|212:268,2,82.4999975413085,0|0|2
332,276,148655,2,0,B|364:248|372:196,1,82.4999975413085,0|2
328,104,149135,1,0
240,164,149375,1,0
160,92,149615,1,0
72,152,149855,2,0,B|40:240|96:316,1,164.999995082617
196,336,150575,1,0
368,76,151055,5,0
316,172,151295,1,0
408,232,151535,1,0
408,232,151775,2,0,B|352:308|272:320,1,164.999995082617
168,328,152495,1,0
200,128,152975,1,0
200,128,153095,1,0
200,128,153215,5,0
336,184,153455,1,0
448,84,153695,1,0
436,192,153935,6,0,B|420:252|376:280,1,110,4|2
276,324,154415,1,0
148,312,154655,2,0,B|172:260|236:236,1,110,2|0
336,244,155135,5,0
356,104,155375,1,0
224,164,155615,1,0
192,56,155855,6,0,B|264:76|328:176,1,165,0|2
316,159,156335,1,0
276,260,156575,2,0,B|228:296|160:300,1,110,2|0
360,320,157055,5,0
440,260,157295,1,0
388,164,157535,1,0
292,108,157775,2,0,B|332:64|404:56,2,110,0|2|0
260,260,158495,2,0,B|232:308|172:328,1,110,2|0
96,248,158975,5,0
192,192,159215,1,0
152,88,159455,1,0
260,112,159695,5,0
408,64,159935,2,0,B|396:124|340:144,1,110,2|0
260,216,160415,2,0,B|228:296|312:360|396:320,1,220
476,248,161135,1,0
368,228,161375,2,0,B|368:168|424:120,1,110,0|4
112,340,162095,5,0
220,248,162335,1,0
100,172,162575,1,0
100,172,162815,1,2
228,64,163055,1,0
228,64,163295,1,2
112,76,163535,6,0,B|152:140|256:160,1,165
240,232,164015,2,0,B|288:216|312:152,1,110
344,48,164495,1,0
440,100,164735,2,0,B|472:148|460:228,1,110
356,240,165215,1,0
288,328,165455,6,0,B|168:332|100:232,1,220
212,232,166175,2,0,B|140:204|140:80|208:48,1,220,0|2
268,128,166895,1,0
376,140,167135,2,0,B|412:96|416:32,2,110,2|0|0
312,240,167855,1,0
412,300,168095,1,0
412,300,168215,1,0
412,300,168335,1,4
296,340,168575,5,0
172,248,168815,1,0
204,92,169055,1,0
336,144,169295,6,0,B|284:196|224:200,1,110,4|2
72,92,169775,1,0
72,92,170015,2,0,B|100:144|160:156,1,110,2|0
240,248,170495,1,0
412,184,170735,2,0,B|380:232|312:236,1,110
164,288,171215,6,0,B|224:344|356:332,1,165,0|2
318,334,171695,1,0
408,296,171935,2,0,B|400:226|340:190,1,110,2|0
272,80,172415,5,0
368,132,172655,1,0
272,80,172895,1,0
188,152,173135,2,0,B|156:208|164:264,2,110,0|2|0
296,172,173855,2,0,B|324:252|272:312,1,110,2|0
204,340,174335,5,0
108,288,174575,1,0
192,220,174815,1,0
96,168,175055,2,0,B|124:92|232:76,1,165,0|0
244,128,175535,2,0,B|300:124|336:76,1,110,0|2
460,56,176015,2,0,B|412:92|400:152,1,110,0|2
440,248,176495,1,0
360,324,176735,1,0
360,324,176855,1,0
360,324,176975,1,4
84,304,177455,6,0,B|198:266|216:130,1,220
424,72,178415,1,0
316,44,178655,1,2
208,48,178895,2,0,B|208:132|308:168,1,165
305,166,179375,1,0
356,264,179615,2,0,B|320:320|252:340,1,110,0|0
120,248,180095,2,0,B|180:224|236:280,1,110,2|0
280,172,180575,5,0
420,68,180815,1,0
420,68,181055,2,0,B|392:140|324:164,1,110,2|0
368,320,181535,2,0,B|324:280|336:208,1,110,2|0
236,268,182015,1,0
144,332,182255,1,0
80,244,182495,2,0,B|144:212|160:144,1,110,0|4
336,68,183215,5,0
336,68,183455,1,0
204,140,183695,1,0
204,140,183935,1,0
324,236,184175,5,0
256,332,184415,1,0
188,236,184655,1,4
256,192,184895,12,0,188495
360,80,196175,6,0,B|396:152|368:248,1,164.999995082617,4|0
156,312,197135,1,0
100,252,197375,1,0
176,220,197615,2,0,B|252:168|212:68,1,164.999995082617,0|0
380,104,198455,1,0
380,104,198575,2,0,B|312:172,1,82.4999975413085
364,268,199055,5,0
248,312,199295,1,0
248,312,199415,1,0
248,312,199535,1,0
168,220,199775,1,0
272,72,200015,6,0,B|252:132|188:148,1,110,4|2
76,204,200495,1,0
120,32,200735,2,0,B|80:68|68:132,1,110,2|0
136,264,201215,5,0
252,216,201455,1,0
328,320,201695,1,0
424,256,201935,6,0,B|472:192|456:92,1,165,0|2
412,68,202415,2,0,B|388:124|328:136,1,110,0|2
216,144,202895,1,0
308,72,203135,5,0
352,208,203375,1,0
296,316,203615,1,0
172,316,203855,6,0,B|108:312|60:268,2,110,0|2|0
244,232,204575,2,0,B|304:228|340:172,1,110,2|0
380,76,205055,5,0
260,132,205295,1,0
136,84,205535,1,0
80,180,205775,6,0,B|84:260|176:304,1,165,0|0
175,303,206255,1,0
260,352,206495,2,0,B|296:324|312:252,1,110,2|0
244,168,206975,1,0
412,72,207215,2,0,B|380:132|316:148,1,110
244,168,207695,6,0,B|164:164|100:244|128:328,1,220,4|0
368,320,208655,1,0
304,232,208895,1,0
308,124,209135,2,0,B|320:72|392:52,1,110
400,208,209615,6,0,B|368:284|264:300,1,165,0|2
216,312,210095,2,0,B|196:256|140:232,1,110,0|2
112,340,210575,1,0
60,244,210815,2,0,B|116:232|144:152,1,110
148,60,211295,1,0
320,88,211535,6,0,B|244:112|216:192|264:272,1,220
372,284,212255,2,0,B|296:228|232:308|160:252,1,220,0|2
84,176,212975,1,0
176,116,213215,2,0,B|224:89|240:28,1,110,2|0
176,116,213695,2,0,B|192:176|260:196,1,110
384,204,214175,1,0
384,204,214295,1,0
384,204,214415,1,4
292,124,214655,5,0
168,208,214895,1,0
232,344,215135,1,0
352,284,215375,6,0,B|400:248|408:176,1,110,4|2
412,80,215855,1,0
332,156,216095,2,0,B|344:96|296:48,1,110,2|0
232,136,216575,5,0
264,256,216815,1,0
156,328,217055,1,0
52,276,217295,6,0,B|132:244|140:140,1,165,0|2
88,128,217775,2,0,B|136:72|204:88,1,110,0|2
288,120,218255,1,0
384,240,218495,5,0
464,112,218735,1,0
384,240,218975,1,0
288,332,219215,6,0,B|232:332|192:284,1,110,0|2
324,244,219695,1,0
324,244,219935,2,0,B|248:328|124:344,1,220,2|0
56,216,220655,1,0
160,252,220895,1,0
276,136,221135,6,0,B|212:184|96:176,1,165,0|2
119,177,221615,1,0
208,96,221855,2,0,B|248:140|240:208,1,110,2|0
224,308,222335,1,0
120,176,222575,1,0
76,304,222815,5,0
76,304,222935,1,0
76,304,223055,2,0,B|136:388|280:344,1,220,4|0
368,124,224015,2,0,B|335:242|220:280,1,220
116,260,224735,1,0
48,176,224975,6,0,B|136:180|192:80,1,165,0|0
182,95,225455,1,0
304,156,225695,1,2
304,156,225815,1,0
304,156,225935,2,0,B|364:176|424:124,2,110
182,95,226655,5,0
84,144,226895,2,0,B|40:188|44:248,1,110,4|0
152,236,227375,1,0
240,352,227615,2,0,B|272:296|252:232,1,110,2|0
244,136,228095,1,0
384,52,228335,5,0
384,52,228575,2,0,B|324:144|364:268,1,220
468,288,229295,1,0
336,340,229535,1,0
216,312,229775,6,0,B|176:272|196:208,1,110
300,76,230255,1,0
272,188,230495,1,0
272,188,230615,1,0
272,188,230735,2,0,B|168:228|52:224,1,220,4|0
220,96,231695,2,0,B|332:128|452:128,1,220
408,36,232415,2,0,B|340:84|364:176|280:212,1,220
100,260,233135,5,0
100,260,233375,2,0,B|148:304|224:268,1,110,4|0
412,260,233855,2,0,B|364:304|288:268,1,110
180,160,234335,5,0
332,160,234575,1,0
