osu file format v9

[General]
AudioFilename: Lucky Star opening.mp3
AudioLeadIn: 2000
PreviewTime: 56023
Countdown: 0
SampleSet: Soft
StackLeniency: 0.7
Mode: 0
LetterboxInBreaks: 0

[Editor]
DistanceSpacing: 1
BeatDivisor: 4
GridSize: 8

[Metadata]
Title:Gyutto Shite Hoshiinda
Artist:Aoi Yuuki
Creator:suzutsukikanade
Version:Normal
Source:A Channel
Tags:tooru insert song

[Difficulty]
HPDrainRate:4
CircleSize:4
OverallDifficulty:5
ApproachRate:5
SliderMultiplier:1.1
SliderTickRate:2

[Events]
//Background and Video events
0,0,"BG-1.jpg"
//Break Periods
//Storyboard Layer 0 (Background)
//Storyboard Layer 1 (Fail)
//Storyboard Layer 2 (Pass)
//Storyboard Layer 3 (Foreground)
//Storyboard Sound Samples
//Background Colour Transformations
3,100,163,162,255

[TimingPoints]
505,441.176470588235,4,2,1,50,1,0
56975,-100,4,2,1,65,0,1
57416,-100,4,1,1,65,0,1
59622,-100,4,2,1,65,0,1
60946,-100,4,1,1,65,0,1
63152,-100,4,2,1,65,0,1
64034,-100,4,2,1,65,0,1
64475,-100,4,1,1,65,0,1
67563,-100,4,2,1,65,0,1
68004,-100,4,1,1,65,0,1
70210,-100,4,2,1,65,0,1
71093,-100,4,2,1,65,0,1
71203,-100,4,2,1,65,0,1
71534,-100,4,1,1,65,0,1
73740,-100,4,2,1,65,0,1
75063,-100,4,1,1,65,0,1
78152,-100,4,2,1,65,0,1
78593,-100,4,1,1,65,0,1
81681,-100,4,2,1,65,0,1
82122,-100,4,1,1,65,0,1
85210,-100,4,2,1,65,0,0

[Colours]
Combo1 : 172,111,171
Combo2 : 166,145,202
Combo3 : 121,49,51

[HitObjects]
256,288,505,2,0,B|224:208|256:112,1,165
334,42,4034,6,0,B|374:122|342:226,1,165
256,336,5357,1,0
217,297,5578,2,0,B|217:233,1,55
415,43,7343,6,0,B|415:107,1,55
415,153,7784,2,0,B|415:225,1,55
415,263,8225,2,0,B|391:351|280:352,1,165
240,336,9107,1,0
32,128,11093,6,0,B|-16:240|32:368,1,220
112,280,12416,2,0,B|184:280,1,55
256,192,12857,12,0,14622
256,200,15504,6,0,B|256:320,2,110
32,192,17269,1,0
109,114,17710,1,0
109,114,18152,2,0,B|192:136|272:112,1,165
328,112,19034,6,0,B|368:152|344:232,1,110
272,296,19916,1,0
155,179,20578,2,0,B|155:99,1,55
56,72,21240,6,0,B|56:192,1,110
85,344,22343,2,0,B|157:309,1,55
216,304,23004,1,0
326,304,23446,2,0,B|364:266|364:266|398:232|398:232|359:192|359:112,1,220
288,40,24769,6,0,B|232:24|160:40,1,110
24,192,26093,1,0
88,280,26534,1,0
256,192,26975,12,0,28740
256,192,29622,6,0,B|256:320,2,110
168,144,30946,2,0,B|272:72,1,110
368,81,31828,6,0,B|424:81,2,55
304,168,32710,2,0,B|304:296,2,110
248,88,34034,2,0,B|136:88,1,110
88,120,34696,2,0,B|56:200|88:296,1,165
161,359,35799,6,0,B|193:319|193:247,1,110
270,177,36681,2,0,B|336:177,2,55
224,152,37343,1,0
176,176,37563,2,0,B|64:176,1,110
0,88,38446,1,0
0,197,38887,5,0
38,235,39107,1,0
76,196,39328,2,0,B|132:180|204:204,1,110
256,112,40210,5,0
256,112,40431,2,0,B|320:112,2,55
152,72,41313,1,0
48,112,41754,1,0
152,240,42416,5,0
256,192,42857,2,0,B|312:176|384:200,1,110
474,194,43740,2,0,B|418:98,1,110
320,56,44622,5,0
224,104,45063,2,0,B|96:104,1,110
24,168,45946,1,0
101,245,46387,2,0,B|208:280|320:240,1,220
424,224,47710,6,0,B|424:344,2,110
424,113,49034,1,0
336,56,49475,2,0,B|280:32|216:56,1,110
150,129,50357,2,0,B|30:129,2,110
240,192,51681,5,0
317,269,52122,2,0,B|416:200,1,110
407,96,53004,1,0
312,48,53446,2,0,B|256:24|192:48,1,110
104,88,54328,1,0
32,168,54769,1,0
80,192,54990,6,0,B|256:192,1,165
343,241,56093,5,0
440,192,56534,1,0
472,88,56975,2,0,B|448:32|376:32,1,110,4|0
288,88,57857,1,0
184,40,58299,2,0,B|128:56|72:40,2,110
261,117,59622,6,0,B|373:149|496:104,1,220,0|4
472,224,60946,1,0
394,301,61387,2,0,B|354:341|290:325,2,110
394,191,62710,2,0,B|394:63,1,110
316,3,63593,5,0
316,3,64034,2,0,B|260:-13|200:8,1,110
160,96,64916,2,0,B|224:192,2,110
48,80,66240,1,0
48,189,66681,5,0
120,272,67122,1,0
208,320,67563,6,0,B|312:344|432:320,2,220
112,264,69769,1,0
48,176,70210,2,0,B|48:48|192:48,1,220
256,136,71534,6,0,B|376:136,3,110
456,192,73299,1,0
378,269,73740,6,0,B|152:269,1,220
64,216,75063,1,0
16,120,75504,2,0,B|48:64|128:64,2,110
16,230,76828,2,0,B|16:286,1,55
93,362,77490,5,0
93,362,77710,1,0
170,284,78152,2,0,B|226:268|290:292,2,110
92,206,79475,2,0,B|92:97,1,110
176,24,80357,1,0
256,96,80799,2,0,B|312:104|368:96,1,110
443,174,81681,6,0,B|475:222|475:222|459:262|459:262|475:302|475:302|435:366,2,220
332,174,83887,1,0
232,128,84328,2,0,B|192:80|192:24,2,110
