osu file format v9

[General]
AudioFilename: Lucky Star opening.mp3
AudioLeadIn: 2000
PreviewTime: 56023
Countdown: 0
SampleSet: Soft
StackLeniency: 0.4
Mode: 0
LetterboxInBreaks: 0

[Editor]
DistanceSpacing: 1.2
BeatDivisor: 4
GridSize: 4

[Metadata]
Title:Gyutto Shite Hoshiinda
Artist:Aoi Yuuki
Creator:suzutsukikanade
Version:Hard
Source:A Channel
Tags:tooru insert song

[Difficulty]
HPDrainRate:6
CircleSize:4
OverallDifficulty:7
ApproachRate:7
SliderMultiplier:1.4
SliderTickRate:2

[Events]
//Background and Video events
0,0,"BG-1.jpg"
//Break Periods
//Storyboard Layer 0 (Background)
//Storyboard Layer 1 (Fail)
//Storyboard Layer 2 (Pass)
//Storyboard Layer 3 (Foreground)
//Storyboard Sound Samples
//Background Colour Transformations
3,100,163,162,255

[TimingPoints]
505,441.176470588235,4,2,1,50,1,0
56975,-100,4,2,1,65,0,1
57416,-100,4,1,1,65,0,1
59622,-100,4,2,1,65,0,1
60946,-100,4,1,1,65,0,1
63152,-100,4,2,1,65,0,1
64475,-100,4,1,1,65,0,1
67563,-100,4,2,1,65,0,1
68004,-100,4,1,1,65,0,1
70210,-100,4,2,1,65,0,1
71093,-100,4,2,1,65,0,1
71534,-100,4,1,1,65,0,1
73740,-100,4,2,1,65,0,1
75063,-100,4,1,1,65,0,1
78152,-100,4,2,1,65,0,1
78372,-100,4,1,1,65,0,1
81681,-100,4,2,1,65,0,1
82122,-100,4,1,1,65,0,1
83446,-200,4,2,1,65,0,1
83887,-200,4,1,1,65,0,1
85210,-100,4,2,1,65,0,0
85652,-100,4,1,1,65,0,0
86093,-100,4,2,1,65,0,0
86534,-100,4,1,1,65,0,0
86975,-100,4,2,1,65,0,0
87416,-100,4,1,1,65,0,0
87857,-100,4,2,1,65,0,0
88299,-100,4,1,1,65,0,0
88740,-100,4,2,1,65,0,0
89181,-100,4,1,1,65,0,0
89622,-100,4,2,1,65,0,0
90063,-100,4,1,1,65,0,0
90504,-100,4,2,1,65,0,0
90946,-100,4,1,1,65,0,0
91387,-100,4,2,1,65,0,0
91828,-100,4,1,1,65,0,0
93152,-100,4,2,1,65,0,0
93593,-100,4,1,1,65,0,0
94916,-100,4,2,1,65,0,0
95357,-100,4,1,0,10,0,0

[Colours]
Combo1 : 172,111,171
Combo2 : 166,145,202
Combo3 : 121,49,51

[HitObjects]
119,287,505,1,0
59,227,725,1,0
59,142,946,1,0
118,82,1166,1,0
393,287,4034,5,0
452,227,4254,1,0
452,142,4475,1,0
392,82,4695,1,0
256,296,5357,1,0
256,211,5578,5,0
256,172,5688,1,0
256,133,5799,1,0
98,285,7343,5,0
98,285,7453,1,0
98,285,7563,1,0
38,225,7784,1,0
97,165,8004,1,0
37,105,8225,1,0
160,216,8666,1,0
219,156,8887,1,0
219,156,9107,2,0,B|287:184|375:148,2,140
257,19,10431,5,0
257,186,10872,1,0
257,186,11093,2,0,B|257:293|121:361|49:289,1,280
112,136,12416,1,0
256,192,12637,12,0,14622
256,192,15284,6,0,B|256:272,2,70
196,132,15946,1,0
196,132,16166,2,0,B|196:40,1,70
17,240,17049,1,0
76,299,17269,1,0
160,299,17490,5,0
219,239,17710,1,0
278,298,17931,1,0
337,238,18152,2,0,B|406:214|482:246,1,140
414,183,18813,1,0
473,123,19034,1,0
473,123,19254,2,0,B|473:23,1,70
356,56,19696,2,0,B|356:136,1,70
356,293,20357,5,0
296,233,20578,1,0
296,233,20799,1,0
236,173,21019,5,0
151,173,21240,2,0,B|111:93,1,70
35,110,21681,2,0,B|106:250,1,140
157,294,22343,1,0
157,294,22563,1,0
216,234,22784,1,0
275,293,23004,1,0
334,233,23225,1,0
276,172,23446,6,0,B|276:16,2,140
356,144,24549,1,0
356,144,24769,1,0
344,236,24990,1,0
284,284,25210,1,0
216,244,25431,1,0
156,303,25652,2,0,B|156:395,2,70
96,243,26313,1,0
155,183,26534,1,0
256,192,26754,12,0,28299
256,192,28740,1,0
196,132,28960,2,0,B|196:60,2,70
136,191,29622,1,0
76,131,29843,1,0
16,190,30063,1,0
148,268,30284,1,0
56,264,30504,5,0
115,323,30725,1,0
199,323,30946,1,0
258,263,31166,1,0
317,322,31387,1,0
317,322,31607,1,0
376,262,31828,2,0,B|376:188,1,70
435,132,32269,6,0,B|448:96|432:64,1,70
302,6,32710,2,0,B|336:16|372:4,2,70
243,65,33372,1,0
302,124,33593,2,0,B|302:216,2,70
220,144,34254,1,0
220,144,34475,1,0
160,203,34696,1,0
219,262,34916,6,0,B|219:318,4,35
278,202,35578,1,0
278,202,35799,1,4
337,261,36019,2,0,B|417:261,1,70
466,201,36460,1,0
466,116,36681,2,0,B|465:35,2,70
466,201,37343,1,0
392,160,37563,5,0
324,112,37784,1,0
252,156,38004,1,0
196,92,38225,2,0,B|156:24|128:96|56:96|56:96|88:152,1,210
120,216,39107,1,0
179,275,39328,6,0,B|275:275,2,70
119,334,39990,1,0
120,216,40210,2,0,B|120:132,1,70
120,61,40652,1,0
120,61,40872,2,0,B|200:88|272:48,1,140
392,61,41754,2,0,B|312:88|240:48,1,140
255,55,42416,1,0
255,139,42637,1,0
195,198,42857,6,0,B|267:235|339:187,1,140
