osu file format v9

[General]
AudioFilename: Lucky Star opening.mp3
AudioLeadIn: 1996
PreviewTime: 56023
Countdown: 0
SampleSet: Soft
StackLeniency: 0.7
Mode: 0
LetterboxInBreaks: 0

[Editor]
Bookmarks: 53900,54341
DistanceSpacing: 1
BeatDivisor: 4
GridSize: 4

[Metadata]
Title:Gyutto Shite Hoshiinda
Artist:Aoi Yuuki
Creator:suzutsukikanade
Version:Easy
Source:A Channel
Tags:tooru insert song

[Difficulty]
HPDrainRate:1
CircleSize:3
OverallDifficulty:1
ApproachRate:2
SliderMultiplier:0.8
SliderTickRate:2

[Events]
//Background and Video events
0,0,"BG-1.jpg"
//Break Periods
2,28940,41297
//Storyboard Layer 0 (Background)
//Storyboard Layer 1 (Fail)
//Storyboard Layer 2 (Pass)
//Storyboard Layer 3 (Foreground)
//Storyboard Sound Samples
//Background Colour Transformations
3,100,163,162,255

[TimingPoints]
505,441.176470588235,4,2,1,50,1,0
56975,-100,4,2,1,65,0,1
58299,-100,4,1,1,65,0,1
60063,-100,4,2,1,65,0,1
60946,-100,4,1,1,65,0,1
64034,-100,4,2,1,65,0,1
65357,-100,4,1,1,65,0,1
67563,-100,4,2,1,65,0,1
68004,-100,4,1,1,65,0,1
70210,-100,4,2,1,65,0,1
71093,-100,4,2,1,65,0,1
71534,-100,4,1,1,65,0,1
73740,-100,4,2,1,65,0,1
75063,-100,4,1,1,65,0,1
78152,-100,4,2,1,65,0,1
78593,-100,4,1,1,65,0,1
81681,-100,4,2,1,65,0,1
85210,-100,4,2,1,65,0,0
88299,-100,4,2,1,65,0,0
95357,-100,4,2,1,10,0,0

[Colours]
Combo1 : 172,111,171
Combo2 : 166,145,202
Combo3 : 121,49,51

[HitObjects]
96,192,505,2,0,B|152:176|216:192,1,120,2|0
315,293,4034,6,0,B|352:328|440:328,1,120,2|0
427,167,5578,2,0,B|428:124,1,40,2|0
56,312,7563,6,0,B|176:312,1,120,2|0
261,226,8887,2,0,B|261:173,1,40,2|0
88,72,11093,6,0,B|168:104|252:72,1,160,2|0
324,74,12416,1,0
256,192,12857,12,4,14622
60,148,15284,6,0,B|28:208|60:280,1,120
110,320,16387,2,0,B|214:360|350:312,1,240
401,257,18152,2,0,B|401:85,2,160,4|0|0
256,344,20799,1,2
244,166,21681,6,0,B|292:222|396:222,2,160,4|0|0
130,279,24328,1,2
48,141,25210,2,0,B|208:141,1,160,4|0
288,140,26534,1,0
256,192,26975,12,6,28740
104,104,42857,6,0,B|80:192|136:256,1,160
191,310,44181,2,0,B|247:354|288:284|355:334,1,160
458,211,45946,5,0
458,131,46387,2,0,B|437:41|329:49,1,160
258,48,47710,2,0,B|170:96|170:192,1,160
260,308,49475,5,0
328,260,49916,2,0,B|400:204|504:268|496:132,1,240,0|0
439,76,51681,1,0
382,132,52122,2,0,B|286:132,1,80
240,184,53004,6,0,B|148:184,1,80,0|0
124,112,53887,2,0,B|44:112,1,80
44,191,54769,2,0,B|44:244,1,40,2|0
112,232,56534,5,0
112,232,56975,2,0,B|72:304|204:360|184:276|288:276,1,240,4|0
336,336,58740,1,0
336,336,59181,2,0,B|416:360|502:328,1,160
450,253,60504,5,4
450,253,60946,2,0,B|400:176|304:216|304:216,1,160
236,252,62269,1,0
179,308,62710,2,0,B|92:308|32:228,1,160
20,140,64034,6,0,B|132:76|260:160,1,240,4|0
276,228,65799,1,0
276,228,66240,2,0,B|204:284|284:340|348:316|348:252|428:260,1,240,0|2
468,202,68004,2,0,B|468:34,2,160
384,296,70210,6,0,B|312:344|216:312,1,160,0|4
152,264,71534,2,0,B|64:200|64:200|56:88|192:48,1,320
216,152,73740,6,2,B|296:152,2,80,2|2|6
152,216,75063,2,0,B|56:296|160:352|160:352|320:352,1,320
305,271,77269,1,0
248,214,77710,6,0,B|248:118,3,80,0|4|0|0
304,77,79475,2,0,B|400:77,3,80
440,133,81240,1,0
440,212,81681,6,0,B|392:280|280:264,1,160,2|0
241,209,83004,2,0,B|241:121,1,80
184,72,83887,1,0
127,128,84328,5,0
127,128,84769,1,0
256,192,85210,12,0,87416
120,268,88299,6,0,B|216:268,1,80,0|4
279,268,89181,1,0
358,268,89622,1,2
432,236,90063,2,0,B|432:152,1,80,6|0
375,99,90946,1,0
296,72,91387,6,0,B|204:72,2,80,0|0|4
364,116,92710,1,0
448,200,93372,2,0,B|448:252,2,40
327,200,94475,2,0,B|243:200,1,80
167,200,95357,2,0,B|71:200,1,80
