osu file format v12

[General]
AudioFilename: Aoi Yuki - Cupi-Doo Revue.mp3
AudioLeadIn: 0
PreviewTime: 55651
Countdown: 0
SampleSet: Normal
StackLeniency: 0.7
Mode: 3
LetterboxInBreaks: 0
SpecialStyle: 0
WidescreenStoryboard: 1

[Editor]
DistanceSpacing: 1
BeatDivisor: 8
GridSize: 4
TimelineZoom: 3.099999

[Metadata]
Title:Cupi-Doo Revue (TV Size)
TitleUnicode:クピドゥレビュー
Artist:Aoi Yuki
ArtistUnicode:悠木碧
Creator:Zealtron
Version:7K HD
Source:Kanojo ga Flag wo Oraretara
Tags:Kanojo ga Flag wo Oraretara
BeatmapID:419500
BeatmapSetID:173384

[Difficulty]
HPDrainRate:7
CircleSize:7
OverallDifficulty:8
ApproachRate:5
SliderMultiplier:1.4
SliderTickRate:1

[Events]
//Background and Video events
0,0,"bg.png",0,0
//Break Periods
//Storyboard Layer 0 (Background)
//Storyboard Layer 1 (Fail)
//Storyboard Layer 2 (Pass)
//Storyboard Layer 3 (Foreground)
//Storyboard Sound Samples
//Background Colour Transformations
3,100,163,162,255

[TimingPoints]
760,434.782608695652,4,1,0,50,1,0

[HitObjects]
402,192,760,5,0,0:0:0:0:
182,192,760,1,0,0:0:0:0:
256,192,977,1,0,0:0:0:0:
329,192,977,1,0,0:0:0:0:
182,192,1194,1,0,0:0:0:0:
109,192,1303,1,0,0:0:0:0:
182,192,1412,1,0,0:0:0:0:
256,192,1520,1,0,0:0:0:0:
329,192,1629,1,0,0:0:0:0:
36,192,1629,1,0,0:0:0:0:
475,192,1955,1,0,0:0:0:0:
256,192,1955,1,0,0:0:0:0:
402,192,2499,1,0,0:0:0:0:
329,192,2607,1,0,0:0:0:0:
402,192,2770,1,0,0:0:0:0:
329,192,2933,1,0,0:0:0:0:
182,192,3096,1,0,0:0:0:0:
402,192,3368,1,0,0:0:0:0:
109,192,3368,1,0,0:0:0:0:
329,192,3586,1,0,0:0:0:0:
256,192,3586,1,0,0:0:0:0:
182,192,3803,1,0,0:0:0:0:
256,192,3803,1,0,0:0:0:0:
256,192,4238,1,0,0:0:0:0:
182,192,4727,1,0,0:0:0:0:
109,192,4836,1,0,0:0:0:0:
182,192,4944,1,0,0:0:0:0:
109,192,5053,1,0,0:0:0:0:
329,192,5270,1,0,0:0:0:0:
329,192,5542,1,0,0:0:0:0:
256,192,5542,1,0,0:0:0:0:
182,192,5977,1,0,0:0:0:0:
256,192,5977,1,0,0:0:0:0:
329,192,6412,1,0,0:0:0:0:
402,192,6683,1,0,0:0:0:0:
475,192,6792,1,0,0:0:0:0:
329,192,7009,1,0,0:0:0:0:
256,192,7336,1,0,0:0:0:0:
256,192,7716,1,0,0:0:0:0:
402,192,7933,1,0,0:0:0:0:
475,192,8151,1,0,0:0:0:0:
329,192,8259,1,0,0:0:0:0:
475,192,8423,1,0,0:0:0:0:
329,192,8640,1,0,0:0:0:0:
256,192,8749,1,0,0:0:0:0:
182,192,8857,1,0,0:0:0:0:
109,192,9238,1,0,0:0:0:0:
182,192,9346,1,0,0:0:0:0:
109,192,9455,1,0,0:0:0:0:
256,192,9564,1,0,0:0:0:0:
329,192,9564,1,0,0:0:0:0:
182,192,9564,128,0,9999:0:0:0:0:
329,192,9999,1,0,0:0:0:0:
402,192,9999,128,0,10433:0:0:0:0:
256,192,10433,1,0,0:0:0:0:
329,192,10433,128,0,10868:0:0:0:0:
182,192,10868,1,0,0:0:0:0:
475,192,10868,128,0,11194:0:0:0:0:
36,192,11194,1,0,0:0:0:0:
36,192,11629,1,0,0:0:0:0:
182,192,11629,1,0,0:0:0:0:
329,192,11955,1,0,0:0:0:0:
109,192,11955,1,0,0:0:0:0:
109,192,12390,1,0,0:0:0:0:
329,192,12390,1,0,0:0:0:0:
182,192,12499,1,0,0:0:0:0:
402,192,12499,1,0,0:0:0:0:
109,192,12607,1,0,0:0:0:0:
329,192,12607,1,0,0:0:0:0:
182,192,12716,1,0,0:0:0:0:
402,192,12716,1,0,0:0:0:0:
109,192,12825,1,0,0:0:0:0:
329,192,12825,1,0,0:0:0:0:
475,192,13042,1,0,0:0:0:0:
329,192,13042,1,0,0:0:0:0:
36,192,13694,1,0,0:0:0:0:
182,192,13694,1,0,0:0:0:0:
329,192,13694,1,0,0:0:0:0:
475,192,14020,1,0,0:0:0:0:
402,192,14238,1,0,0:0:0:0:
329,192,14346,1,0,0:0:0:0:
182,192,14564,1,0,0:0:0:0:
36,192,14781,1,0,0:0:0:0:
109,192,14781,1,0,0:0:0:0:
256,192,15433,1,0,0:0:0:0:
402,192,15433,1,0,0:0:0:0:
109,192,15433,1,0,0:0:0:0:
256,192,15868,1,0,0:0:0:0:
475,192,15868,1,0,0:0:0:0:
182,192,15868,1,0,0:0:0:0:
182,192,16249,1,0,0:0:0:0:
109,192,16357,1,0,0:0:0:0:
182,192,16466,1,0,0:0:0:0:
329,192,16683,1,0,0:0:0:0:
475,192,16846,1,0,0:0:0:0:
402,192,16955,1,0,0:0:0:0:
475,192,17173,1,0,0:0:0:0:
182,192,17390,1,0,0:0:0:0:
109,192,17499,1,0,0:0:0:0:
36,192,17607,1,0,0:0:0:0:
256,192,17607,1,0,0:0:0:0:
256,192,18042,1,0,0:0:0:0:
329,192,18042,1,0,0:0:0:0:
109,192,18042,1,0,0:0:0:0:
256,192,18912,1,0,0:0:0:0:
402,192,18912,1,0,0:0:0:0:
182,192,18912,1,0,0:0:0:0:
329,192,19401,1,0,0:0:0:0:
109,192,19401,1,0,0:0:0:0:
182,192,19509,1,0,0:0:0:0:
402,192,19509,1,0,0:0:0:0:
329,192,19618,1,0,0:0:0:0:
109,192,19618,1,0,0:0:0:0:
182,192,19727,1,0,0:0:0:0:
402,192,19727,1,0,0:0:0:0:
329,192,19836,1,0,0:0:0:0:
109,192,19836,1,0,0:0:0:0:
36,192,19999,1,0,0:0:0:0:
182,192,19999,1,0,0:0:0:0:
475,192,19999,1,0,0:0:0:0:
256,192,20651,1,0,0:0:0:0:
475,192,20651,1,0,0:0:0:0:
475,192,21086,1,0,0:0:0:0:
402,192,21303,1,0,0:0:0:0:
329,192,21412,1,0,0:0:0:0:
182,192,21629,1,0,0:0:0:0:
36,192,21955,1,0,0:0:0:0:
109,192,22064,1,0,0:0:0:0:
182,192,22173,1,0,0:0:0:0:
109,192,22281,1,0,0:0:0:0:
36,192,22390,1,0,0:0:0:0:
109,192,22499,1,0,0:0:0:0:
182,192,22607,1,0,0:0:0:0:
256,192,22716,1,0,0:0:0:0:
475,192,22825,1,0,0:0:0:0:
36,192,22825,1,0,0:0:0:0:
256,192,23042,1,0,0:0:0:0:
475,192,23151,1,0,0:0:0:0:
36,192,23151,1,0,0:0:0:0:
182,192,23151,1,0,0:0:0:0:
329,192,23151,1,0,0:0:0:0:
182,192,23477,1,0,0:0:0:0:
329,192,23477,1,0,0:0:0:0:
256,192,23694,1,0,0:0:0:0:
475,192,23803,128,0,24944:0:0:0:0:
329,192,23803,128,0,24944:0:0:0:0:
182,192,23803,128,0,24944:0:0:0:0:
36,192,23803,128,0,24944:0:0:0:0:
256,192,25107,1,0,0:0:0:0:
109,192,25325,1,0,0:0:0:0:
402,192,25325,1,0,0:0:0:0:
36,192,25759,1,0,0:0:0:0:
182,192,25759,1,0,0:0:0:0:
36,192,26194,1,0,0:0:0:0:
256,192,26194,1,0,0:0:0:0:
36,192,26629,1,0,0:0:0:0:
329,192,26629,1,0,0:0:0:0:
36,192,27064,1,0,0:0:0:0:
256,192,27064,128,0,27499:0:0:0:0:
36,192,27499,1,0,0:0:0:0:
329,192,27499,128,0,27933:0:0:0:0:
36,192,27933,1,0,0:0:0:0:
402,192,27933,128,0,28368:0:0:0:0:
36,192,28368,1,0,0:0:0:0:
182,192,28368,128,0,28803:0:0:0:0:
329,192,28586,1,0,0:0:0:0:
256,192,28694,1,0,0:0:0:0:
329,192,28803,128,0,29238:0:0:0:0:
182,192,29238,1,0,0:0:0:0:
36,192,29238,1,0,0:0:0:0:
182,192,29673,1,0,0:0:0:0:
475,192,29673,1,0,0:0:0:0:
36,192,30107,1,0,0:0:0:0:
182,192,30107,1,0,0:0:0:0:
475,192,30542,1,0,0:0:0:0:
182,192,30542,1,0,0:0:0:0:
109,192,30977,1,0,0:0:0:0:
329,192,30977,1,0,0:0:0:0:
256,192,31412,1,0,0:0:0:0:
475,192,31412,1,0,0:0:0:0:
256,192,31846,1,0,0:0:0:0:
475,192,31846,1,0,0:0:0:0:
182,192,32281,1,0,0:0:0:0:
329,192,32281,1,0,0:0:0:0:
475,192,32281,1,0,0:0:0:0:
109,192,32716,1,0,0:0:0:0:
402,192,32716,1,0,0:0:0:0:
256,192,32716,1,0,0:0:0:0:
36,192,33151,1,0,0:0:0:0:
475,192,33151,1,0,0:0:0:0:
256,192,33151,1,0,0:0:0:0:
109,192,33586,1,0,0:0:0:0:
402,192,33586,1,0,0:0:0:0:
329,192,33586,1,0,0:0:0:0:
329,192,34020,1,0,0:0:0:0:
182,192,34020,1,0,0:0:0:0:
109,192,34020,1,0,0:0:0:0:
402,192,34890,1,0,0:0:0:0:
109,192,34890,1,0,0:0:0:0:
256,192,34890,1,0,0:0:0:0:
475,192,35759,1,0,0:0:0:0:
36,192,35759,1,0,0:0:0:0:
182,192,35759,1,0,0:0:0:0:
329,192,35759,1,0,0:0:0:0:
182,192,36629,1,0,0:0:0:0:
329,192,36629,1,0,0:0:0:0:
402,192,36629,1,0,0:0:0:0:
256,192,36955,1,0,0:0:0:0:
109,192,36955,1,0,0:0:0:0:
475,192,36955,1,0,0:0:0:0:
329,192,37281,128,0,38694:0:0:0:0:
182,192,38694,1,0,0:0:0:0:
256,192,38694,1,0,0:0:0:0:
109,192,38857,1,0,0:0:0:0:
182,192,38857,1,0,0:0:0:0:
36,192,39020,1,0,0:0:0:0:
36,192,39346,1,0,0:0:0:0:
329,192,39564,1,0,0:0:0:0:
475,192,39564,1,0,0:0:0:0:
329,192,39890,1,0,0:0:0:0:
475,192,39890,1,0,0:0:0:0:
256,192,40216,1,0,0:0:0:0:
182,192,40216,128,0,40542:0:0:0:0:
475,192,40542,1,0,0:0:0:0:
329,192,41303,1,0,0:0:0:0:
182,192,41303,1,0,0:0:0:0:
182,192,41629,1,0,0:0:0:0:
329,192,41629,1,0,0:0:0:0:
256,192,41955,1,0,0:0:0:0:
475,192,41955,128,0,42281:0:0:0:0:
329,192,42281,1,0,0:0:0:0:
182,192,43042,1,0,0:0:0:0:
329,192,43042,1,0,0:0:0:0:
182,192,43368,1,0,0:0:0:0:
329,192,43368,1,0,0:0:0:0:
256,192,43694,1,0,0:0:0:0:
36,192,43694,128,0,44020:0:0:0:0:
182,192,44020,128,0,44346:0:0:0:0:
256,192,44020,1,0,0:0:0:0:
256,192,44346,1,0,0:0:0:0:
329,192,44346,128,0,44564:0:0:0:0:
256,192,44564,1,0,0:0:0:0:
475,192,44564,128,0,44890:0:0:0:0:
256,192,45107,1,0,0:0:0:0:
329,192,45107,1,0,0:0:0:0:
182,192,45107,1,0,0:0:0:0:
256,192,45325,1,0,0:0:0:0:
182,192,45325,1,0,0:0:0:0:
329,192,45325,1,0,0:0:0:0:
109,192,45651,1,0,0:0:0:0:
402,192,45651,1,0,0:0:0:0:
256,192,45814,128,0,46194:0:0:0:0:
329,192,46520,1,0,0:0:0:0:
475,192,46520,1,0,0:0:0:0:
329,192,46846,1,0,0:0:0:0:
475,192,46846,1,0,0:0:0:0:
182,192,47173,128,0,47499:0:0:0:0:
256,192,47173,1,0,0:0:0:0:
329,192,47499,1,0,0:0:0:0:
182,192,48259,1,0,0:0:0:0:
36,192,48259,1,0,0:0:0:0:
182,192,48586,1,0,0:0:0:0:
36,192,48586,1,0,0:0:0:0:
256,192,48912,1,0,0:0:0:0:
402,192,48912,128,0,49238:0:0:0:0:
182,192,49238,1,0,0:0:0:0:
402,192,49781,1,0,0:0:0:0:
109,192,49781,1,0,0:0:0:0:
329,192,49781,1,0,0:0:0:0:
182,192,50216,1,0,0:0:0:0:
329,192,50216,1,0,0:0:0:0:
36,192,50216,1,0,0:0:0:0:
109,192,50651,1,0,0:0:0:0:
402,192,50651,1,0,0:0:0:0:
182,192,50651,1,0,0:0:0:0:
329,192,51520,1,0,0:0:0:0:
182,192,51520,1,0,0:0:0:0:
402,192,51520,1,0,0:0:0:0:
36,192,51955,1,0,0:0:0:0:
475,192,51955,1,0,0:0:0:0:
256,192,51955,1,0,0:0:0:0:
36,192,52390,1,0,0:0:0:0:
475,192,52390,1,0,0:0:0:0:
256,192,52390,1,0,0:0:0:0:
402,192,52825,1,0,0:0:0:0:
109,192,52825,1,0,0:0:0:0:
475,192,52825,1,0,0:0:0:0:
475,192,53259,128,0,54673:0:0:0:0:
36,192,53259,128,0,54673:0:0:0:0:
402,192,53259,1,0,0:0:0:0:
329,192,53368,1,0,0:0:0:0:
256,192,53477,1,0,0:0:0:0:
182,192,53586,1,0,0:0:0:0:
109,192,53694,1,0,0:0:0:0:
182,192,53803,1,0,0:0:0:0:
256,192,53912,1,0,0:0:0:0:
329,192,54020,1,0,0:0:0:0:
402,192,54129,1,0,0:0:0:0:
329,192,54238,1,0,0:0:0:0:
256,192,54346,1,0,0:0:0:0:
182,192,54455,1,0,0:0:0:0:
109,192,54564,1,0,0:0:0:0:
182,192,54673,1,0,0:0:0:0:
256,192,54836,128,0,55325:0:0:0:0:
402,192,55325,1,0,0:0:0:0:
109,192,55325,1,0,0:0:0:0:
36,192,55542,1,0,0:0:0:0:
256,192,55542,1,0,0:0:0:0:
475,192,55542,1,0,0:0:0:0:
36,192,55977,1,0,0:0:0:0:
109,192,55977,1,0,0:0:0:0:
36,192,56194,1,0,0:0:0:0:
182,192,56194,1,0,0:0:0:0:
36,192,56412,1,0,0:0:0:0:
256,192,56412,1,0,0:0:0:0:
182,192,56629,1,0,0:0:0:0:
402,192,56629,128,0,57281:0:0:0:0:
475,192,56629,128,0,57281:0:0:0:0:
182,192,57281,1,0,0:0:0:0:
329,192,57281,1,0,0:0:0:0:
109,192,57499,1,0,0:0:0:0:
475,192,57499,1,0,0:0:0:0:
402,192,57499,1,0,0:0:0:0:
109,192,58314,128,0,59020:0:0:0:0:
329,192,58314,128,0,59020:0:0:0:0:
256,192,59020,1,0,0:0:0:0:
109,192,59238,1,0,0:0:0:0:
329,192,59238,128,0,59727:0:0:0:0:
475,192,59238,128,0,59727:0:0:0:0:
402,192,59727,1,0,0:0:0:0:
109,192,59727,1,0,0:0:0:0:
256,192,59890,1,0,0:0:0:0:
182,192,59890,1,0,0:0:0:0:
329,192,59890,1,0,0:0:0:0:
109,192,60325,1,0,0:0:0:0:
402,192,60325,1,0,0:0:0:0:
256,192,60542,1,0,0:0:0:0:
36,192,60542,1,0,0:0:0:0:
182,192,60759,1,0,0:0:0:0:
475,192,60759,1,0,0:0:0:0:
256,192,60977,1,0,0:0:0:0:
329,192,60977,1,0,0:0:0:0:
475,192,61412,1,0,0:0:0:0:
402,192,61412,1,0,0:0:0:0:
182,192,61901,128,0,62336:0:0:0:0:
475,192,61901,128,0,62336:0:0:0:0:
329,192,62336,1,0,0:0:0:0:
182,192,62499,1,0,0:0:0:0:
256,192,62499,1,0,0:0:0:0:
402,192,62499,1,0,0:0:0:0:
109,192,62825,128,0,63259:0:0:0:0:
36,192,62825,128,0,63259:0:0:0:0:
182,192,63259,1,0,0:0:0:0:
256,192,63259,128,0,63803:0:0:0:0:
475,192,63259,128,0,63803:0:0:0:0:
36,192,63803,1,0,0:0:0:0:
182,192,64238,1,0,0:0:0:0:
329,192,64238,1,0,0:0:0:0:
256,192,64238,1,0,0:0:0:0:
475,192,64238,1,0,0:0:0:0:
475,192,64455,1,0,0:0:0:0:
36,192,64455,1,0,0:0:0:0:
256,192,64455,1,0,0:0:0:0:
182,192,64673,1,0,0:0:0:0:
329,192,64673,1,0,0:0:0:0:
256,192,65107,1,0,0:0:0:0:
109,192,65107,1,0,0:0:0:0:
329,192,65107,1,0,0:0:0:0:
329,192,65325,1,0,0:0:0:0:
36,192,65542,1,0,0:0:0:0:
475,192,65542,1,0,0:0:0:0:
182,192,65542,1,0,0:0:0:0:
256,192,65759,1,0,0:0:0:0:
182,192,65977,1,0,0:0:0:0:
329,192,65977,1,0,0:0:0:0:
109,192,66194,1,0,0:0:0:0:
256,192,66194,1,0,0:0:0:0:
402,192,66194,1,0,0:0:0:0:
182,192,66412,1,0,0:0:0:0:
256,192,66629,1,0,0:0:0:0:
36,192,66629,1,0,0:0:0:0:
475,192,66629,1,0,0:0:0:0:
329,192,66846,1,0,0:0:0:0:
256,192,67064,1,0,0:0:0:0:
475,192,67281,1,0,0:0:0:0:
182,192,67281,1,0,0:0:0:0:
329,192,67281,128,0,67716:0:0:0:0:
36,192,67281,128,0,67716:0:0:0:0:
475,192,67716,1,0,0:0:0:0:
109,192,67716,1,0,0:0:0:0:
256,192,67933,128,0,68151:0:0:0:0:
329,192,68151,1,0,0:0:0:0:
182,192,68151,1,0,0:0:0:0:
256,192,68368,128,0,68803:0:0:0:0:
109,192,68368,128,0,68803:0:0:0:0:
182,192,68803,1,0,0:0:0:0:
402,192,68803,128,0,69455:0:0:0:0:
475,192,68803,128,0,69455:0:0:0:0:
256,192,69455,1,0,0:0:0:0:
36,192,69455,128,0,69999:0:0:0:0:
182,192,69455,128,0,69999:0:0:0:0:
109,192,69999,1,0,0:0:0:0:
329,192,69999,128,0,70433:0:0:0:0:
402,192,69999,128,0,70433:0:0:0:0:
182,192,70433,1,0,0:0:0:0:
256,192,70433,1,0,0:0:0:0:
475,192,70433,1,0,0:0:0:0:
36,192,70868,1,0,0:0:0:0:
182,192,70868,1,0,0:0:0:0:
475,192,70868,1,0,0:0:0:0:
329,192,70868,128,0,71955:0:0:0:0:
256,192,71520,1,0,0:0:0:0:
182,192,71520,1,0,0:0:0:0:
256,192,71955,1,0,0:0:0:0:
109,192,71955,128,0,72390:0:0:0:0:
36,192,72390,1,0,0:0:0:0:
182,192,72390,1,0,0:0:0:0:
256,192,72390,128,0,72607:0:0:0:0:
182,192,72607,1,0,0:0:0:0:
329,192,72607,128,0,73259:0:0:0:0:
182,192,73259,1,0,0:0:0:0:
256,192,73259,1,0,0:0:0:0:
402,192,73259,1,0,0:0:0:0:
109,192,73694,1,0,0:0:0:0:
256,192,73694,1,0,0:0:0:0:
329,192,73694,1,0,0:0:0:0:
475,192,73912,128,0,74129:0:0:0:0:
402,192,74165,1,0,0:0:0:0:
329,192,74202,1,0,0:0:0:0:
256,192,74238,1,0,0:0:0:0:
182,192,74274,1,0,0:0:0:0:
109,192,74310,1,0,0:0:0:0:
36,192,74346,1,0,0:0:0:0:
182,192,74673,1,0,0:0:0:0:
256,192,74673,1,0,0:0:0:0:
402,192,74673,1,0,0:0:0:0:
329,192,75107,1,0,0:0:0:0:
182,192,75107,1,0,0:0:0:0:
36,192,75107,1,0,0:0:0:0:
109,192,75433,1,0,0:0:0:0:
402,192,75433,1,0,0:0:0:0:
256,192,75433,1,0,0:0:0:0:
256,192,75759,1,0,0:0:0:0:
182,192,75977,128,0,77173:0:0:0:0:
329,192,75977,128,0,77173:0:0:0:0:
109,192,76303,1,0,0:0:0:0:
256,192,76738,1,0,0:0:0:0:
402,192,77173,1,0,0:0:0:0:
182,192,77825,1,0,0:0:0:0:
256,192,77825,1,0,0:0:0:0:
329,192,77825,1,0,0:0:0:0:
109,192,78259,1,0,0:0:0:0:
256,192,78259,1,0,0:0:0:0:
402,192,78259,1,0,0:0:0:0:
475,192,78259,1,0,0:0:0:0:
36,192,78694,1,0,0:0:0:0:
109,192,78694,1,0,0:0:0:0:
256,192,78694,1,0,0:0:0:0:
475,192,78694,1,0,0:0:0:0:
109,192,79129,1,0,0:0:0:0:
256,192,79129,1,0,0:0:0:0:
402,192,79129,1,0,0:0:0:0:
402,192,79564,1,0,0:0:0:0:
109,192,79564,1,0,0:0:0:0:
256,192,79564,1,0,0:0:0:0:
475,192,80488,128,0,81357:0:0:0:0:
36,192,80488,128,0,81357:0:0:0:0:
182,192,81357,1,0,0:0:0:0:
329,192,81357,1,0,0:0:0:0:
256,192,81357,128,0,82227:0:0:0:0:
402,192,82227,1,0,0:0:0:0:
329,192,82227,1,0,0:0:0:0:
182,192,82227,1,0,0:0:0:0:
182,192,82553,1,0,0:0:0:0:
256,192,82553,1,0,0:0:0:0:
475,192,82553,1,0,0:0:0:0:
36,192,82879,1,0,0:0:0:0:
109,192,82879,1,0,0:0:0:0:
182,192,82879,1,0,0:0:0:0:
329,192,82879,1,0,0:0:0:0:
402,192,82879,1,0,0:0:0:0:
475,192,82879,1,0,0:0:0:0:
