osu file format v12

[General]
AudioFilename: Aoi Yuki - Cupi-Doo Revue.mp3
AudioLeadIn: 0
PreviewTime: 55651
Countdown: 0
SampleSet: Normal
StackLeniency: 0.7
Mode: 3
LetterboxInBreaks: 0
SpecialStyle: 0
WidescreenStoryboard: 1

[Editor]
DistanceSpacing: 1
BeatDivisor: 8
GridSize: 4
TimelineZoom: 3

[Metadata]
Title:Cupi-Doo Revue (TV Size)
TitleUnicode:クピドゥレビュー
Artist:Aoi Yuki
ArtistUnicode:悠木碧
Creator:Zealtron
Version:4K MX
Source:Kanojo ga Flag wo Oraretara
Tags:Kanojo ga Flag wo Oraretara
BeatmapID:420045
BeatmapSetID:173384

[Difficulty]
HPDrainRate:7
CircleSize:4
OverallDifficulty:8
ApproachRate:5
SliderMultiplier:1.4
SliderTickRate:1

[Events]
//Background and Video events
0,0,"bg.png",0,0
//Break Periods
//Storyboard Layer 0 (Background)
//Storyboard Layer 1 (Fail)
//Storyboard Layer 2 (Pass)
//Storyboard Layer 3 (Foreground)
//Storyboard Sound Samples
//Background Colour Transformations
3,100,163,162,255

[TimingPoints]
760,434.782608695652,4,1,0,50,1,0

[HitObjects]
64,192,760,5,0,0:0:0:0:
320,192,760,1,0,0:0:0:0:
192,192,977,1,0,0:0:0:0:
320,192,1194,1,0,0:0:0:0:
64,192,1194,1,0,0:0:0:0:
448,192,1303,1,0,0:0:0:0:
192,192,1303,1,0,0:0:0:0:
320,192,1412,1,0,0:0:0:0:
64,192,1412,1,0,0:0:0:0:
448,192,1520,1,0,0:0:0:0:
192,192,1520,1,0,0:0:0:0:
320,192,1629,1,0,0:0:0:0:
64,192,1629,1,0,0:0:0:0:
320,192,1955,1,0,0:0:0:0:
64,192,1955,1,0,0:0:0:0:
448,192,1955,1,0,0:0:0:0:
448,192,2499,1,0,0:0:0:0:
192,192,2499,1,0,0:0:0:0:
64,192,2607,1,0,0:0:0:0:
320,192,2607,1,0,0:0:0:0:
192,192,2770,1,0,0:0:0:0:
448,192,2770,1,0,0:0:0:0:
448,192,2988,1,0,0:0:0:0:
320,192,2988,1,0,0:0:0:0:
64,192,3096,1,0,0:0:0:0:
192,192,3096,1,0,0:0:0:0:
192,192,3368,1,0,0:0:0:0:
320,192,3368,1,0,0:0:0:0:
320,192,3640,1,0,0:0:0:0:
448,192,3640,1,0,0:0:0:0:
192,192,3803,1,0,0:0:0:0:
64,192,3803,1,0,0:0:0:0:
448,192,4238,1,0,0:0:0:0:
448,192,4781,1,0,0:0:0:0:
192,192,4781,1,0,0:0:0:0:
64,192,4890,1,0,0:0:0:0:
320,192,4890,1,0,0:0:0:0:
448,192,4999,1,0,0:0:0:0:
192,192,4999,1,0,0:0:0:0:
64,192,5107,1,0,0:0:0:0:
320,192,5107,1,0,0:0:0:0:
192,192,5325,1,0,0:0:0:0:
448,192,5325,1,0,0:0:0:0:
320,192,5596,1,0,0:0:0:0:
448,192,5596,1,0,0:0:0:0:
192,192,6031,1,0,0:0:0:0:
64,192,6031,1,0,0:0:0:0:
448,192,6412,1,0,0:0:0:0:
192,192,6629,1,0,0:0:0:0:
448,192,6629,1,0,0:0:0:0:
64,192,6738,1,0,0:0:0:0:
320,192,6738,1,0,0:0:0:0:
448,192,6846,1,0,0:0:0:0:
320,192,7009,1,0,0:0:0:0:
64,192,7009,1,0,0:0:0:0:
448,192,7118,1,0,0:0:0:0:
320,192,7227,1,0,0:0:0:0:
448,192,7336,1,0,0:0:0:0:
192,192,7336,1,0,0:0:0:0:
320,192,7444,1,0,0:0:0:0:
448,192,7553,1,0,0:0:0:0:
320,192,7662,1,0,0:0:0:0:
64,192,7770,1,0,0:0:0:0:
448,192,7770,1,0,0:0:0:0:
448,192,7933,1,0,0:0:0:0:
192,192,7933,1,0,0:0:0:0:
320,192,8151,1,0,0:0:0:0:
64,192,8151,1,0,0:0:0:0:
192,192,8259,1,0,0:0:0:0:
448,192,8259,1,0,0:0:0:0:
320,192,8423,1,0,0:0:0:0:
448,192,8423,1,0,0:0:0:0:
448,192,8640,1,0,0:0:0:0:
320,192,8640,1,0,0:0:0:0:
320,192,8749,1,0,0:0:0:0:
192,192,8749,1,0,0:0:0:0:
64,192,8857,1,0,0:0:0:0:
192,192,8857,1,0,0:0:0:0:
448,192,9129,1,0,0:0:0:0:
192,192,9238,1,0,0:0:0:0:
64,192,9346,1,0,0:0:0:0:
192,192,9455,1,0,0:0:0:0:
320,192,9564,1,0,0:0:0:0:
64,192,9564,128,0,9999:0:0:0:0:
448,192,9564,1,0,0:0:0:0:
192,192,9673,1,0,0:0:0:0:
320,192,9781,1,0,0:0:0:0:
448,192,9890,1,0,0:0:0:0:
320,192,9999,1,0,0:0:0:0:
192,192,9999,128,0,10433:0:0:0:0:
448,192,10107,1,0,0:0:0:0:
320,192,10216,1,0,0:0:0:0:
448,192,10325,1,0,0:0:0:0:
64,192,10433,1,0,0:0:0:0:
320,192,10433,128,0,10868:0:0:0:0:
192,192,10542,1,0,0:0:0:0:
64,192,10651,1,0,0:0:0:0:
192,192,10759,1,0,0:0:0:0:
64,192,10868,1,0,0:0:0:0:
448,192,10868,128,0,11303:0:0:0:0:
192,192,10977,1,0,0:0:0:0:
64,192,11086,1,0,0:0:0:0:
192,192,11194,1,0,0:0:0:0:
64,192,11303,1,0,0:0:0:0:
320,192,11303,1,0,0:0:0:0:
64,192,11520,1,0,0:0:0:0:
64,192,11738,1,0,0:0:0:0:
320,192,11955,1,0,0:0:0:0:
64,192,11955,1,0,0:0:0:0:
448,192,11955,1,0,0:0:0:0:
64,192,12173,1,0,0:0:0:0:
192,192,12390,1,0,0:0:0:0:
448,192,12390,1,0,0:0:0:0:
64,192,12499,1,0,0:0:0:0:
320,192,12499,1,0,0:0:0:0:
192,192,12607,1,0,0:0:0:0:
448,192,12607,1,0,0:0:0:0:
64,192,12716,1,0,0:0:0:0:
320,192,12716,1,0,0:0:0:0:
192,192,12825,1,0,0:0:0:0:
448,192,12825,1,0,0:0:0:0:
64,192,13042,1,0,0:0:0:0:
64,192,13259,1,0,0:0:0:0:
64,192,13477,1,0,0:0:0:0:
320,192,13694,1,0,0:0:0:0:
64,192,13694,1,0,0:0:0:0:
448,192,13694,1,0,0:0:0:0:
448,192,14020,1,0,0:0:0:0:
320,192,14020,1,0,0:0:0:0:
320,192,14238,1,0,0:0:0:0:
192,192,14238,1,0,0:0:0:0:
192,192,14346,1,0,0:0:0:0:
64,192,14346,1,0,0:0:0:0:
64,192,14564,1,0,0:0:0:0:
192,192,14564,1,0,0:0:0:0:
64,192,14781,1,0,0:0:0:0:
64,192,14999,1,0,0:0:0:0:
64,192,15216,1,0,0:0:0:0:
320,192,15433,1,0,0:0:0:0:
192,192,15433,1,0,0:0:0:0:
64,192,15433,1,0,0:0:0:0:
448,192,15868,1,0,0:0:0:0:
320,192,15868,1,0,0:0:0:0:
64,192,15868,1,0,0:0:0:0:
448,192,16249,1,0,0:0:0:0:
192,192,16249,1,0,0:0:0:0:
320,192,16357,1,0,0:0:0:0:
64,192,16357,1,0,0:0:0:0:
448,192,16466,1,0,0:0:0:0:
192,192,16466,1,0,0:0:0:0:
320,192,16683,1,0,0:0:0:0:
448,192,16683,1,0,0:0:0:0:
320,192,16901,1,0,0:0:0:0:
192,192,16901,1,0,0:0:0:0:
192,192,17009,1,0,0:0:0:0:
64,192,17009,1,0,0:0:0:0:
320,192,17227,1,0,0:0:0:0:
448,192,17227,1,0,0:0:0:0:
448,192,17444,1,0,0:0:0:0:
320,192,17553,1,0,0:0:0:0:
448,192,17662,1,0,0:0:0:0:
192,192,17662,1,0,0:0:0:0:
64,192,17662,128,0,18042:0:0:0:0:
320,192,18042,1,0,0:0:0:0:
64,192,18259,1,0,0:0:0:0:
64,192,18477,1,0,0:0:0:0:
64,192,18694,1,0,0:0:0:0:
320,192,18912,1,0,0:0:0:0:
448,192,18912,1,0,0:0:0:0:
64,192,18912,1,0,0:0:0:0:
64,192,19129,1,0,0:0:0:0:
192,192,19346,1,0,0:0:0:0:
448,192,19346,1,0,0:0:0:0:
64,192,19455,1,0,0:0:0:0:
320,192,19455,1,0,0:0:0:0:
192,192,19564,1,0,0:0:0:0:
448,192,19564,1,0,0:0:0:0:
64,192,19673,1,0,0:0:0:0:
320,192,19673,1,0,0:0:0:0:
192,192,19781,1,0,0:0:0:0:
448,192,19781,1,0,0:0:0:0:
64,192,19999,1,0,0:0:0:0:
64,192,20216,1,0,0:0:0:0:
64,192,20433,1,0,0:0:0:0:
320,192,20651,1,0,0:0:0:0:
64,192,20651,1,0,0:0:0:0:
64,192,20868,1,0,0:0:0:0:
448,192,21086,1,0,0:0:0:0:
320,192,21086,1,0,0:0:0:0:
320,192,21303,1,0,0:0:0:0:
192,192,21303,1,0,0:0:0:0:
64,192,21412,1,0,0:0:0:0:
192,192,21412,1,0,0:0:0:0:
64,192,21683,1,0,0:0:0:0:
192,192,21683,1,0,0:0:0:0:
320,192,21955,1,0,0:0:0:0:
64,192,21955,1,0,0:0:0:0:
192,192,22064,1,0,0:0:0:0:
64,192,22173,1,0,0:0:0:0:
448,192,22173,1,0,0:0:0:0:
192,192,22281,1,0,0:0:0:0:
64,192,22390,1,0,0:0:0:0:
320,192,22390,1,0,0:0:0:0:
448,192,22499,1,0,0:0:0:0:
64,192,22607,1,0,0:0:0:0:
320,192,22607,1,0,0:0:0:0:
192,192,22716,1,0,0:0:0:0:
448,192,22825,1,0,0:0:0:0:
320,192,22825,1,0,0:0:0:0:
320,192,23042,1,0,0:0:0:0:
192,192,23042,1,0,0:0:0:0:
64,192,23151,1,0,0:0:0:0:
192,192,23151,1,0,0:0:0:0:
448,192,23151,1,0,0:0:0:0:
192,192,23477,1,0,0:0:0:0:
64,192,23694,1,0,0:0:0:0:
320,192,23803,1,0,0:0:0:0:
448,192,23803,1,0,0:0:0:0:
320,192,24020,1,0,0:0:0:0:
64,192,24020,1,0,0:0:0:0:
448,192,24129,1,0,0:0:0:0:
320,192,24238,1,0,0:0:0:0:
192,192,24346,1,0,0:0:0:0:
448,192,24346,1,0,0:0:0:0:
320,192,24455,1,0,0:0:0:0:
448,192,24564,1,0,0:0:0:0:
320,192,24673,1,0,0:0:0:0:
448,192,24781,1,0,0:0:0:0:
192,192,24781,1,0,0:0:0:0:
64,192,25216,128,0,26738:0:0:0:0:
320,192,25216,1,0,0:0:0:0:
448,192,25216,1,0,0:0:0:0:
192,192,25325,1,0,0:0:0:0:
320,192,25433,1,0,0:0:0:0:
448,192,25542,1,0,0:0:0:0:
320,192,25651,1,0,0:0:0:0:
192,192,25759,1,0,0:0:0:0:
448,192,25868,1,0,0:0:0:0:
320,192,25977,1,0,0:0:0:0:
192,192,26086,1,0,0:0:0:0:
448,192,26086,1,0,0:0:0:0:
320,192,26194,1,0,0:0:0:0:
192,192,26303,1,0,0:0:0:0:
320,192,26412,1,0,0:0:0:0:
448,192,26412,1,0,0:0:0:0:
192,192,26520,1,0,0:0:0:0:
320,192,26629,1,0,0:0:0:0:
448,192,26738,1,0,0:0:0:0:
320,192,26846,1,0,0:0:0:0:
192,192,26955,1,0,0:0:0:0:
448,192,26955,1,0,0:0:0:0:
64,192,26955,128,0,27499:0:0:0:0:
320,192,27064,1,0,0:0:0:0:
448,192,27173,1,0,0:0:0:0:
192,192,27281,1,0,0:0:0:0:
320,192,27390,1,0,0:0:0:0:
192,192,27499,128,0,27933:0:0:0:0:
448,192,27499,1,0,0:0:0:0:
320,192,27607,1,0,0:0:0:0:
448,192,27716,1,0,0:0:0:0:
64,192,27825,1,0,0:0:0:0:
448,192,27933,128,0,28368:0:0:0:0:
320,192,27933,1,0,0:0:0:0:
64,192,28042,1,0,0:0:0:0:
320,192,28151,1,0,0:0:0:0:
64,192,28259,1,0,0:0:0:0:
320,192,28368,128,0,28586:0:0:0:0:
192,192,28368,1,0,0:0:0:0:
64,192,28477,1,0,0:0:0:0:
192,192,28586,1,0,0:0:0:0:
448,192,28694,1,0,0:0:0:0:
320,192,28749,1,0,0:0:0:0:
64,192,28803,128,0,29781:0:0:0:0:
192,192,28803,1,0,0:0:0:0:
320,192,28912,1,0,0:0:0:0:
448,192,29020,1,0,0:0:0:0:
320,192,29129,1,0,0:0:0:0:
192,192,29129,1,0,0:0:0:0:
448,192,29238,1,0,0:0:0:0:
320,192,29346,1,0,0:0:0:0:
192,192,29455,1,0,0:0:0:0:
448,192,29564,1,0,0:0:0:0:
320,192,29564,1,0,0:0:0:0:
192,192,29673,1,0,0:0:0:0:
320,192,29781,1,0,0:0:0:0:
192,192,29890,128,0,30216:0:0:0:0:
448,192,29890,1,0,0:0:0:0:
320,192,29999,1,0,0:0:0:0:
448,192,30107,1,0,0:0:0:0:
320,192,30216,128,0,30542:0:0:0:0:
64,192,30325,1,0,0:0:0:0:
192,192,30433,1,0,0:0:0:0:
448,192,30542,128,0,31629:0:0:0:0:
192,192,30651,1,0,0:0:0:0:
320,192,30759,1,0,0:0:0:0:
64,192,30868,1,0,0:0:0:0:
320,192,30977,1,0,0:0:0:0:
192,192,31086,1,0,0:0:0:0:
64,192,31194,1,0,0:0:0:0:
320,192,31303,1,0,0:0:0:0:
192,192,31412,1,0,0:0:0:0:
64,192,31520,1,0,0:0:0:0:
192,192,31629,128,0,32281:0:0:0:0:
320,192,31629,128,0,32281:0:0:0:0:
448,192,32281,1,0,0:0:0:0:
64,192,32281,1,0,0:0:0:0:
64,192,32716,1,0,0:0:0:0:
192,192,32716,1,0,0:0:0:0:
448,192,32716,1,0,0:0:0:0:
64,192,33151,1,0,0:0:0:0:
320,192,33151,1,0,0:0:0:0:
448,192,33151,1,0,0:0:0:0:
448,192,33586,1,0,0:0:0:0:
64,192,33586,1,0,0:0:0:0:
320,192,33586,1,0,0:0:0:0:
192,192,34020,1,0,0:0:0:0:
320,192,34020,1,0,0:0:0:0:
448,192,34020,1,0,0:0:0:0:
64,192,34890,1,0,0:0:0:0:
448,192,34890,1,0,0:0:0:0:
320,192,34890,1,0,0:0:0:0:
192,192,35759,1,0,0:0:0:0:
320,192,35759,1,0,0:0:0:0:
64,192,35759,1,0,0:0:0:0:
64,192,36629,1,0,0:0:0:0:
192,192,36629,1,0,0:0:0:0:
64,192,36955,1,0,0:0:0:0:
192,192,36955,1,0,0:0:0:0:
320,192,37336,1,0,0:0:0:0:
192,192,37390,1,0,0:0:0:0:
64,192,37444,1,0,0:0:0:0:
192,192,37499,1,0,0:0:0:0:
320,192,37553,1,0,0:0:0:0:
448,192,37607,1,0,0:0:0:0:
320,192,37662,1,0,0:0:0:0:
192,192,37716,1,0,0:0:0:0:
64,192,37770,1,0,0:0:0:0:
192,192,37825,1,0,0:0:0:0:
320,192,37879,1,0,0:0:0:0:
448,192,37933,1,0,0:0:0:0:
320,192,37988,1,0,0:0:0:0:
192,192,38042,1,0,0:0:0:0:
64,192,38096,1,0,0:0:0:0:
192,192,38151,1,0,0:0:0:0:
320,192,38205,1,0,0:0:0:0:
448,192,38259,1,0,0:0:0:0:
320,192,38314,1,0,0:0:0:0:
192,192,38368,1,0,0:0:0:0:
64,192,38423,1,0,0:0:0:0:
192,192,38477,1,0,0:0:0:0:
320,192,38531,1,0,0:0:0:0:
448,192,38586,1,0,0:0:0:0:
192,192,38640,1,0,0:0:0:0:
320,192,38640,1,0,0:0:0:0:
64,192,38857,1,0,0:0:0:0:
192,192,38857,1,0,0:0:0:0:
64,192,39129,1,0,0:0:0:0:
448,192,39346,1,0,0:0:0:0:
448,192,39564,1,0,0:0:0:0:
64,192,39781,1,0,0:0:0:0:
448,192,39890,1,0,0:0:0:0:
64,192,40216,128,0,40542:0:0:0:0:
192,192,40216,1,0,0:0:0:0:
448,192,40542,1,0,0:0:0:0:
64,192,41086,1,0,0:0:0:0:
64,192,41303,1,0,0:0:0:0:
448,192,41520,1,0,0:0:0:0:
64,192,41629,1,0,0:0:0:0:
448,192,41955,128,0,42281:0:0:0:0:
64,192,41955,1,0,0:0:0:0:
64,192,42281,1,0,0:0:0:0:
64,192,42825,1,0,0:0:0:0:
448,192,43042,1,0,0:0:0:0:
64,192,43259,1,0,0:0:0:0:
448,192,43368,1,0,0:0:0:0:
64,192,43694,128,0,44020:0:0:0:0:
320,192,43694,1,0,0:0:0:0:
192,192,44020,128,0,44346:0:0:0:0:
448,192,44020,1,0,0:0:0:0:
64,192,44346,1,0,0:0:0:0:
320,192,44346,128,0,44564:0:0:0:0:
64,192,44564,1,0,0:0:0:0:
448,192,44564,128,0,44890:0:0:0:0:
64,192,45053,1,0,0:0:0:0:
320,192,45162,1,0,0:0:0:0:
64,192,45270,1,0,0:0:0:0:
320,192,45379,1,0,0:0:0:0:
192,192,45651,1,0,0:0:0:0:
448,192,45651,1,0,0:0:0:0:
448,192,45923,1,0,0:0:0:0:
320,192,45977,1,0,0:0:0:0:
192,192,46031,1,0,0:0:0:0:
64,192,46086,1,0,0:0:0:0:
448,192,46140,1,0,0:0:0:0:
320,192,46194,1,0,0:0:0:0:
192,192,46249,1,0,0:0:0:0:
64,192,46303,1,0,0:0:0:0:
448,192,46303,1,0,0:0:0:0:
448,192,46520,1,0,0:0:0:0:
64,192,46738,1,0,0:0:0:0:
448,192,46846,1,0,0:0:0:0:
64,192,47173,128,0,47499:0:0:0:0:
192,192,47173,1,0,0:0:0:0:
448,192,47499,1,0,0:0:0:0:
64,192,48042,1,0,0:0:0:0:
64,192,48259,1,0,0:0:0:0:
448,192,48477,1,0,0:0:0:0:
64,192,48586,1,0,0:0:0:0:
448,192,48912,128,0,49238:0:0:0:0:
64,192,48912,1,0,0:0:0:0:
64,192,49238,1,0,0:0:0:0:
320,192,49781,1,0,0:0:0:0:
64,192,49781,1,0,0:0:0:0:
64,192,50216,1,0,0:0:0:0:
192,192,50216,1,0,0:0:0:0:
64,192,50651,1,0,0:0:0:0:
320,192,50651,1,0,0:0:0:0:
448,192,51303,1,0,0:0:0:0:
64,192,51303,1,0,0:0:0:0:
320,192,51520,1,0,0:0:0:0:
192,192,51520,1,0,0:0:0:0:
448,192,51955,1,0,0:0:0:0:
64,192,51955,1,0,0:0:0:0:
64,192,52390,1,0,0:0:0:0:
448,192,52390,1,0,0:0:0:0:
192,192,52825,1,0,0:0:0:0:
320,192,52825,1,0,0:0:0:0:
64,192,53259,1,0,0:0:0:0:
320,192,53259,1,0,0:0:0:0:
448,192,53259,128,0,54836:0:0:0:0:
192,192,53368,1,0,0:0:0:0:
320,192,53477,1,0,0:0:0:0:
192,192,53586,1,0,0:0:0:0:
64,192,53694,1,0,0:0:0:0:
192,192,53803,1,0,0:0:0:0:
320,192,53912,1,0,0:0:0:0:
192,192,54020,1,0,0:0:0:0:
64,192,54129,1,0,0:0:0:0:
192,192,54238,1,0,0:0:0:0:
320,192,54346,1,0,0:0:0:0:
192,192,54401,1,0,0:0:0:0:
64,192,54509,1,0,0:0:0:0:
192,192,54618,1,0,0:0:0:0:
320,192,54727,1,0,0:0:0:0:
64,192,54836,1,0,0:0:0:0:
320,192,54836,128,0,55325:0:0:0:0:
192,192,54836,128,0,55325:0:0:0:0:
448,192,55325,1,0,0:0:0:0:
64,192,55325,1,0,0:0:0:0:
448,192,55542,1,0,0:0:0:0:
64,192,55542,1,0,0:0:0:0:
64,192,55977,1,0,0:0:0:0:
192,192,55977,1,0,0:0:0:0:
64,192,56194,1,0,0:0:0:0:
192,192,56194,1,0,0:0:0:0:
320,192,56194,1,0,0:0:0:0:
448,192,56249,1,0,0:0:0:0:
320,192,56303,1,0,0:0:0:0:
192,192,56357,1,0,0:0:0:0:
64,192,56412,1,0,0:0:0:0:
448,192,56412,1,0,0:0:0:0:
320,192,56466,1,0,0:0:0:0:
192,192,56520,1,0,0:0:0:0:
64,192,56575,1,0,0:0:0:0:
448,192,56629,1,0,0:0:0:0:
192,192,56629,1,0,0:0:0:0:
320,192,56738,1,0,0:0:0:0:
64,192,56846,1,0,0:0:0:0:
448,192,56846,1,0,0:0:0:0:
192,192,56901,1,0,0:0:0:0:
320,192,56955,1,0,0:0:0:0:
448,192,57009,1,0,0:0:0:0:
64,192,57009,1,0,0:0:0:0:
192,192,57064,1,0,0:0:0:0:
320,192,57118,1,0,0:0:0:0:
448,192,57173,1,0,0:0:0:0:
64,192,57173,1,0,0:0:0:0:
192,192,57227,1,0,0:0:0:0:
320,192,57281,1,0,0:0:0:0:
448,192,57336,1,0,0:0:0:0:
64,192,57336,1,0,0:0:0:0:
192,192,57336,1,0,0:0:0:0:
320,192,57444,1,0,0:0:0:0:
64,192,57499,1,0,0:0:0:0:
320,192,57607,1,0,0:0:0:0:
448,192,57716,1,0,0:0:0:0:
64,192,57716,1,0,0:0:0:0:
192,192,57825,1,0,0:0:0:0:
320,192,57933,1,0,0:0:0:0:
448,192,58042,1,0,0:0:0:0:
64,192,58042,1,0,0:0:0:0:
192,192,58151,1,0,0:0:0:0:
320,192,58259,1,0,0:0:0:0:
448,192,58368,1,0,0:0:0:0:
64,192,58368,1,0,0:0:0:0:
192,192,58368,1,0,0:0:0:0:
320,192,58477,1,0,0:0:0:0:
192,192,58586,1,0,0:0:0:0:
448,192,58694,1,0,0:0:0:0:
64,192,58694,1,0,0:0:0:0:
192,192,58803,1,0,0:0:0:0:
320,192,58912,1,0,0:0:0:0:
448,192,59020,1,0,0:0:0:0:
192,192,59020,1,0,0:0:0:0:
64,192,59129,1,0,0:0:0:0:
320,192,59238,1,0,0:0:0:0:
448,192,59238,128,0,59673:0:0:0:0:
64,192,59346,1,0,0:0:0:0:
192,192,59455,1,0,0:0:0:0:
320,192,59564,1,0,0:0:0:0:
64,192,59673,128,0,59890:0:0:0:0:
192,192,59673,1,0,0:0:0:0:
320,192,59781,1,0,0:0:0:0:
192,192,59890,128,0,60107:0:0:0:0:
448,192,59890,1,0,0:0:0:0:
320,192,59999,1,0,0:0:0:0:
448,192,60107,1,0,0:0:0:0:
64,192,60107,1,0,0:0:0:0:
320,192,60216,1,0,0:0:0:0:
448,192,60325,1,0,0:0:0:0:
64,192,60325,1,0,0:0:0:0:
320,192,60433,1,0,0:0:0:0:
192,192,60542,1,0,0:0:0:0:
448,192,60651,1,0,0:0:0:0:
320,192,60759,1,0,0:0:0:0:
64,192,60759,1,0,0:0:0:0:
192,192,60868,1,0,0:0:0:0:
448,192,60977,1,0,0:0:0:0:
64,192,60977,1,0,0:0:0:0:
192,192,61086,1,0,0:0:0:0:
64,192,61194,1,0,0:0:0:0:
448,192,61194,1,0,0:0:0:0:
192,192,61303,1,0,0:0:0:0:
448,192,61412,1,0,0:0:0:0:
64,192,61412,1,0,0:0:0:0:
192,192,61520,1,0,0:0:0:0:
448,192,61629,1,0,0:0:0:0:
320,192,61629,1,0,0:0:0:0:
64,192,61629,1,0,0:0:0:0:
192,192,61738,1,0,0:0:0:0:
320,192,61846,1,0,0:0:0:0:
64,192,61846,128,0,62173:0:0:0:0:
448,192,61955,1,0,0:0:0:0:
320,192,62064,1,0,0:0:0:0:
192,192,62173,128,0,62499:0:0:0:0:
448,192,62173,1,0,0:0:0:0:
320,192,62281,1,0,0:0:0:0:
448,192,62390,1,0,0:0:0:0:
320,192,62499,128,0,62716:0:0:0:0:
64,192,62607,1,0,0:0:0:0:
448,192,62716,128,0,63259:0:0:0:0:
192,192,62716,1,0,0:0:0:0:
64,192,62825,1,0,0:0:0:0:
192,192,62933,1,0,0:0:0:0:
320,192,63042,1,0,0:0:0:0:
192,192,63151,1,0,0:0:0:0:
64,192,63259,128,0,63586:0:0:0:0:
320,192,63259,128,0,63586:0:0:0:0:
192,192,63694,1,0,0:0:0:0:
64,192,63803,1,0,0:0:0:0:
448,192,63803,1,0,0:0:0:0:
192,192,63857,1,0,0:0:0:0:
320,192,63912,1,0,0:0:0:0:
448,192,63966,1,0,0:0:0:0:
64,192,63966,1,0,0:0:0:0:
192,192,64020,1,0,0:0:0:0:
320,192,64075,1,0,0:0:0:0:
448,192,64129,1,0,0:0:0:0:
64,192,64129,1,0,0:0:0:0:
192,192,64183,1,0,0:0:0:0:
320,192,64238,1,0,0:0:0:0:
448,192,64292,1,0,0:0:0:0:
64,192,64292,1,0,0:0:0:0:
192,192,64346,1,0,0:0:0:0:
320,192,64401,1,0,0:0:0:0:
64,192,64455,1,0,0:0:0:0:
448,192,64455,1,0,0:0:0:0:
320,192,64564,1,0,0:0:0:0:
192,192,64673,1,0,0:0:0:0:
448,192,64781,1,0,0:0:0:0:
64,192,64781,1,0,0:0:0:0:
192,192,64890,1,0,0:0:0:0:
320,192,64999,1,0,0:0:0:0:
64,192,64999,1,0,0:0:0:0:
448,192,65107,1,0,0:0:0:0:
320,192,65216,1,0,0:0:0:0:
64,192,65216,1,0,0:0:0:0:
448,192,65325,1,0,0:0:0:0:
192,192,65433,1,0,0:0:0:0:
64,192,65433,1,0,0:0:0:0:
320,192,65542,1,0,0:0:0:0:
448,192,65651,1,0,0:0:0:0:
64,192,65651,1,0,0:0:0:0:
192,192,65759,1,0,0:0:0:0:
320,192,65868,1,0,0:0:0:0:
64,192,65977,1,0,0:0:0:0:
320,192,66086,1,0,0:0:0:0:
192,192,66194,1,0,0:0:0:0:
448,192,66194,1,0,0:0:0:0:
64,192,66303,1,0,0:0:0:0:
320,192,66412,1,0,0:0:0:0:
448,192,66520,1,0,0:0:0:0:
64,192,66520,1,0,0:0:0:0:
192,192,66629,1,0,0:0:0:0:
64,192,66738,1,0,0:0:0:0:
320,192,66846,1,0,0:0:0:0:
448,192,66955,1,0,0:0:0:0:
64,192,66955,1,0,0:0:0:0:
192,192,67064,1,0,0:0:0:0:
320,192,67173,1,0,0:0:0:0:
64,192,67281,1,0,0:0:0:0:
192,192,67390,1,0,0:0:0:0:
448,192,67390,1,0,0:0:0:0:
64,192,67499,1,0,0:0:0:0:
192,192,67607,1,0,0:0:0:0:
320,192,67716,1,0,0:0:0:0:
64,192,67716,1,0,0:0:0:0:
192,192,67825,1,0,0:0:0:0:
448,192,67933,1,0,0:0:0:0:
64,192,67933,1,0,0:0:0:0:
320,192,68042,1,0,0:0:0:0:
448,192,68151,1,0,0:0:0:0:
64,192,68151,1,0,0:0:0:0:
320,192,68259,1,0,0:0:0:0:
192,192,68368,1,0,0:0:0:0:
448,192,68368,1,0,0:0:0:0:
320,192,68477,1,0,0:0:0:0:
192,192,68586,1,0,0:0:0:0:
448,192,68586,1,0,0:0:0:0:
64,192,68694,1,0,0:0:0:0:
320,192,68803,1,0,0:0:0:0:
192,192,68803,1,0,0:0:0:0:
448,192,68912,1,0,0:0:0:0:
320,192,69020,1,0,0:0:0:0:
64,192,69020,1,0,0:0:0:0:
192,192,69129,1,0,0:0:0:0:
448,192,69238,1,0,0:0:0:0:
64,192,69238,1,0,0:0:0:0:
320,192,69346,1,0,0:0:0:0:
64,192,69455,1,0,0:0:0:0:
192,192,69564,1,0,0:0:0:0:
320,192,69673,1,0,0:0:0:0:
64,192,69673,1,0,0:0:0:0:
448,192,69781,1,0,0:0:0:0:
320,192,69890,1,0,0:0:0:0:
64,192,69999,1,0,0:0:0:0:
192,192,69999,1,0,0:0:0:0:
448,192,69999,1,0,0:0:0:0:
320,192,70216,1,0,0:0:0:0:
64,192,70433,1,0,0:0:0:0:
320,192,70433,1,0,0:0:0:0:
448,192,70433,1,0,0:0:0:0:
192,192,70651,1,0,0:0:0:0:
64,192,70868,1,0,0:0:0:0:
320,192,70868,1,0,0:0:0:0:
448,192,70868,1,0,0:0:0:0:
64,192,71086,1,0,0:0:0:0:
64,192,71303,1,0,0:0:0:0:
64,192,71520,1,0,0:0:0:0:
192,192,71520,1,0,0:0:0:0:
448,192,71520,1,0,0:0:0:0:
64,192,71738,1,0,0:0:0:0:
64,192,71955,1,0,0:0:0:0:
192,192,71955,1,0,0:0:0:0:
448,192,71955,128,0,72390:0:0:0:0:
64,192,72173,1,0,0:0:0:0:
320,192,72390,128,0,72607:0:0:0:0:
64,192,72390,1,0,0:0:0:0:
64,192,72607,128,0,73259:0:0:0:0:
448,192,72607,1,0,0:0:0:0:
448,192,72825,1,0,0:0:0:0:
448,192,73042,1,0,0:0:0:0:
192,192,73259,1,0,0:0:0:0:
448,192,73259,1,0,0:0:0:0:
448,192,73477,1,0,0:0:0:0:
448,192,73694,1,0,0:0:0:0:
192,192,73694,1,0,0:0:0:0:
320,192,73912,1,0,0:0:0:0:
448,192,73912,128,0,74183:0:0:0:0:
320,192,74183,1,0,0:0:0:0:
192,192,74238,1,0,0:0:0:0:
320,192,74292,1,0,0:0:0:0:
192,192,74346,1,0,0:0:0:0:
64,192,74346,128,0,74999:0:0:0:0:
448,192,74564,1,0,0:0:0:0:
448,192,74781,1,0,0:0:0:0:
192,192,74999,1,0,0:0:0:0:
448,192,74999,1,0,0:0:0:0:
64,192,75216,1,0,0:0:0:0:
320,192,75433,1,0,0:0:0:0:
64,192,75433,1,0,0:0:0:0:
448,192,75433,128,0,75868:0:0:0:0:
64,192,75651,1,0,0:0:0:0:
64,192,75868,1,0,0:0:0:0:
320,192,75868,128,0,76086:0:0:0:0:
192,192,76086,128,0,77173:0:0:0:0:
64,192,76086,1,0,0:0:0:0:
448,192,76086,1,0,0:0:0:0:
448,192,76303,1,0,0:0:0:0:
64,192,76303,1,0,0:0:0:0:
320,192,76520,1,0,0:0:0:0:
448,192,76738,1,0,0:0:0:0:
64,192,76738,1,0,0:0:0:0:
320,192,76955,1,0,0:0:0:0:
448,192,77173,1,0,0:0:0:0:
64,192,77173,1,0,0:0:0:0:
320,192,77390,1,0,0:0:0:0:
448,192,77607,1,0,0:0:0:0:
64,192,77825,1,0,0:0:0:0:
448,192,77825,1,0,0:0:0:0:
192,192,77825,1,0,0:0:0:0:
320,192,78042,1,0,0:0:0:0:
64,192,78259,1,0,0:0:0:0:
448,192,78259,1,0,0:0:0:0:
320,192,78259,1,0,0:0:0:0:
192,192,78477,1,0,0:0:0:0:
448,192,78694,1,0,0:0:0:0:
64,192,78694,1,0,0:0:0:0:
192,192,78694,1,0,0:0:0:0:
320,192,78912,1,0,0:0:0:0:
64,192,79129,1,0,0:0:0:0:
448,192,79129,1,0,0:0:0:0:
320,192,79129,1,0,0:0:0:0:
64,192,79346,1,0,0:0:0:0:
192,192,79564,1,0,0:0:0:0:
320,192,79564,1,0,0:0:0:0:
64,192,79781,1,0,0:0:0:0:
64,192,79999,1,0,0:0:0:0:
64,192,80216,1,0,0:0:0:0:
64,192,80433,1,0,0:0:0:0:
448,192,80433,1,0,0:0:0:0:
320,192,81357,1,0,0:0:0:0:
192,192,81357,1,0,0:0:0:0:
448,192,82227,1,0,0:0:0:0:
320,192,82227,1,0,0:0:0:0:
64,192,82227,1,0,0:0:0:0:
448,192,82553,1,0,0:0:0:0:
320,192,82553,1,0,0:0:0:0:
64,192,82553,1,0,0:0:0:0:
448,192,82879,1,0,0:0:0:0:
320,192,82879,1,0,0:0:0:0:
192,192,82879,1,0,0:0:0:0:
64,192,82879,1,0,0:0:0:0:
