osu file format v12

[General]
AudioFilename: Steel Samurai (Remix).mp3
AudioLeadIn: 0
PreviewTime: 60000
Countdown: 0
SampleSet: Soft
StackLeniency: 0.2
Mode: 0
LetterboxInBreaks: 0

[Editor]
Bookmarks: 6857,59999
DistanceSpacing: 1
BeatDivisor: 4
GridSize: 4

[Metadata]
Title:Steel Samurai
TitleUnicode:Steel Samurai
Artist:Aoi Shoudo
ArtistUnicode:Aoi Shoudo
Creator:rezoons
Version:Path Of Glory
Source:Phoenix Wright: Ace Attorney
Tags:Gyakuten Saiban Appellate Project
BeatmapID:209690
BeatmapSetID:73671

[Difficulty]
HPDrainRate:8
CircleSize:4
OverallDifficulty:8
ApproachRate:8
SliderMultiplier:2
SliderTickRate:2

[Events]
//Background and Video events
0,0,"wall4_1024.jpg",0,0
//Break Periods
//Storyboard Layer 0 (Background)
//Storyboard Layer 1 (Fail)
//Storyboard Layer 2 (Pass)
//Storyboard Layer 3 (Foreground)
//Storyboard Sound Samples
//Background Colour Transformations
3,100,163,162,255

[TimingPoints]
10,428.571428571429,4,1,0,50,1,0
20581,-100,4,2,1,50,0,0
34295,-100,4,1,0,50,0,0
60010,-100,4,1,0,50,0,1
73724,-100,4,2,1,50,0,0
87438,-100,4,1,0,50,0,0

[Colours]
Combo1 : 242,168,13
Combo2 : 0,0,128
Combo3 : 255,0,128
Combo4 : 240,5,5

[HitObjects]
256,192,6867,5,4,0:0:0:0:
156,176,7081,2,0,P|200:96|240:88,2,100,0|8|0,0:0|0:0|0:0,0:0:0:0:
152,276,7724,2,0,P|240:320|328:276,1,200,0|8,0:0|0:0,0:0:0:0:
396,208,8367,5,0,0:0:0:0:
420,168,8474,1,0,0:0:0:0:
396,128,8581,1,0,0:0:0:0:
308,80,8795,1,0,0:0:0:0:
208,80,9009,1,8,0:0:0:0:
176,176,9224,2,0,P|235:243|263:240,1,100,0|0,0:0|0:0,0:0:0:0:
328,220,9652,2,0,P|268:152|240:155,1,100,0|8,0:0|0:0,0:0:0:0:
152,332,10295,5,4,0:0:0:0:
56,300,10509,1,0,0:0:0:0:
80,252,10617,1,0,0:0:0:0:
128,228,10724,1,8,0:0:0:0:
152,332,10938,1,0,0:0:0:0:
252,332,11152,1,0,0:0:0:0:
352,332,11367,2,0,P|384:248|368:224,1,100,0|8,0:0|0:0,0:0:0:0:
336,168,11795,5,2,0:0:0:0:
184,96,12009,1,2,0:0:0:0:
336,24,12224,1,2,0:0:0:0:
184,24,12438,1,10,0:0:0:0:
336,96,12652,1,2,0:0:0:0:
184,168,12867,1,2,0:0:0:0:
136,256,13081,5,0,0:0:0:0:
184,272,13188,1,0,0:0:0:0:
232,256,13295,1,8,0:0:0:0:
184,168,13509,1,0,0:0:0:0:
136,80,13724,5,0,0:0:0:0:
184,56,13831,1,0,0:0:0:0:
232,80,13938,1,0,0:0:0:0:
184,168,14152,1,4,0:2:0:0:
352,100,14367,6,0,L|476:36,2,100
328,280,15010,1,4,0:2:0:0:
328,280,15438,5,0,0:0:0:0:
328,280,15545,1,0,0:0:0:0:
328,280,15652,2,0,P|260:332|232:324,2,100,0|8|0,0:0|0:0|0:0,0:0:0:0:
240,236,16295,1,0,0:0:0:0:
188,148,16510,1,0,0:0:0:0:
190,321,16724,1,8,0:0:0:0:
338,236,16938,1,0,0:0:0:0:
92,150,17152,5,0,0:0:0:0:
240,64,17367,1,0,0:0:0:0:
240,236,17581,1,8,0:0:0:0:
188,148,17795,2,0,L|144:56,2,100,0|0|0,0:0|0:0|0:0,0:0:0:0:
240,236,18438,1,8,0:0:0:0:
335,258,18652,5,0,0:0:0:0:
416,320,18867,2,0,P|440:248|424:216,1,100,0|0,0:0|0:0,0:0:0:0:
352,168,19295,2,0,P|328:240|344:272,1,100,8|0,0:0|0:0,0:0:0:0:
256,192,19724,1,2,0:0:0:0:
256,192,19938,1,2,0:0:0:0:
256,192,20152,1,8,0:0:0:0:
392,28,20581,6,0,P|492:128|384:220,1,300,4|8,0:0|0:0,0:0:0:0:
396,124,21438,2,0,P|296:224|404:316,1,300,0|8,0:0|0:0,0:0:0:0:
468,376,22295,2,8,P|488:332|476:272,1,100,0|8,0:0|0:0,0:0:0:0:
402,220,22724,1,8,0:0:0:0:
312,160,22938,2,0,P|372:96|372:64,1,100,8|8,0:0|0:0,0:0:0:0:
268,64,23367,1,0,0:0:0:0:
168,48,23581,6,0,P|104:72|64:72,1,100,4|0,0:0|0:0,0:0:0:0:
216,136,24010,2,0,P|280:160|320:160,1,100,4|0,0:0|0:0,0:0:0:0:
160,232,24438,2,0,P|96:256|56:256,1,100,4|0,0:0|0:0,0:0:0:0:
208,320,24867,2,0,P|272:344|312:344,1,100,4|0,0:0|0:0,0:0:0:0:
400,316,25295,2,0,P|380:268|340:236,1,100,4|0,0:0|0:0,0:0:0:0:
356,140,25724,5,2,0:0:0:0:
396,172,25831,1,2,0:0:0:0:
436,204,25938,1,2,0:0:0:0:
343,237,26152,5,0,0:0:0:0:
312,280,26259,1,2,0:0:0:0:
280,320,26367,1,2,0:0:0:0:
240,228,26581,5,2,0:0:0:0:
199,196,26688,1,2,0:0:0:0:
160,164,26795,1,2,0:0:0:0:
120,136,26902,1,2,0:0:0:0:
96,40,27117,1,2,0:0:0:0:
96,40,27224,1,6,0:0:0:0:
196,48,27438,6,0,P|380:104|436:200,1,300,0|8,0:0|0:0,0:0:0:0:
472,96,28295,2,0,P|288:152|232:248,1,300,0|8,0:0|0:0,0:0:0:0:
176,156,29152,2,0,P|360:212|416:308,1,300,0|8,0:0|0:0,0:0:0:0:
312,316,30009,6,0,P|224:324|208:308,1,100,0|8,0:0|0:0,0:0:0:0:
192,224,30438,1,8,0:0:0:0:
100,180,30652,1,8,0:0:0:0:
104,272,30867,6,0,P|144:316|128:376,1,100,4|0,0:0|0:0,0:0:0:0:
192,224,31295,2,0,P|232:180|216:120,1,100,4|0,0:0|0:0,0:0:0:0:
288,280,31724,2,0,P|328:324|312:384,1,100,4|0,0:0|0:0,0:0:0:0:
376,232,32152,2,0,P|416:188|400:128,1,100,4|0,0:0|0:0,0:0:0:0:
380,56,32581,2,0,L|264:68,1,100,4|2,0:0|0:0,0:0:0:0:
280,66,32902,5,2,0:0:0:0:
280,66,33010,1,2,0:0:0:0:
120,140,33224,1,2,0:0:0:0:
280,216,33438,1,2,0:0:0:0:
120,212,33652,1,2,0:0:0:0:
280,140,33867,1,2,0:0:0:0:
120,68,34081,1,2,0:0:0:0:
212,112,34295,6,0,B|300:112|300:216|300:216|396:216|396:112,1,300,4|0,0:0|0:0,0:0:0:0:
312,288,35152,2,0,B|224:288|224:184|224:184|128:184|128:288,1,300,8|0,0:0|0:0,0:0:0:0:
256,120,36010,6,0,P|104:160|72:328,1,300,4|0,0:0|0:0,0:0:0:0:
256,272,36867,2,0,P|408:232|440:64,1,300,4|0,0:0|0:0,0:0:0:0:
256,44,37724,5,8,0:0:0:0:
256,340,38152,1,8,0:0:0:0:
108,192,38581,1,8,0:0:0:0:
404,192,39009,1,8,0:0:0:0:
256,192,39438,12,0,40938,0:0:0:0:
256,192,41152,6,0,P|232:112|208:104,1,100,0|0,0:0|0:0,0:0:0:0:
32,32,41581,1,6,0:0:0:0:
256,192,42009,2,0,P|280:272|304:280,1,100,0|0,0:0|0:0,0:0:0:0:
480,352,42438,1,6,0:0:0:0:
476,152,42867,6,0,B|476:100|476:100|524:52,1,100
420,24,43295,1,0,0:0:0:0:
332,68,43510,2,0,B|365:101|365:101|365:153,1,100,0|0,0:0|0:0,0:0:0:0:
268,136,43938,2,0,B|234:102|234:102|234:50,1,100,0|0,0:0|0:0,0:0:0:0:
345,311,44581,6,0,P|329:327|265:303,1,100
385,110,45009,2,0,P|401:127|377:191,1,100
184,70,45438,2,0,P|201:55|265:79,1,100
145,263,45867,2,0,P|130:247|154:183,1,100
265,79,46295,6,0,P|401:175|345:311,1,300
285,259,47152,2,0,P|333:195|245:159,1,200
285,259,47795,1,0,0:0:0:0:
197,303,48010,6,0,P|61:203|121:71,1,300
177,123,48867,2,0,P|130:187|217:226,1,200
177,123,49510,1,0,0:0:0:0:
268,164,49724,2,0,P|300:212|276:280,2,100
216,288,50367,2,0,P|72:208|76:168,2,200
256,192,51438,5,4,0:0:0:0:
472,40,52295,1,4,0:0:0:0:
256,192,52724,1,0,0:0:0:0:
40,344,53152,1,4,0:0:0:0:
124,284,53367,5,2,0:0:0:0:
164,260,53474,1,2,0:0:0:0:
204,232,53581,1,2,0:0:0:0:
358,183,53795,1,2,0:0:0:0:
204,233,54009,1,2,0:0:0:0:
300,102,54224,1,2,0:0:0:0:
300,264,54438,1,2,0:0:0:0:
204,133,54652,1,2,0:0:0:0:
272,184,54867,5,4,0:0:0:0:
272,184,55081,2,0,L|316:88,1,100,0|0,0:0|0:0,0:0:0:0:
248,20,55509,2,0,L|136:56,1,100,4|0,0:0|0:0,0:0:0:0:
180,148,55938,1,2,0:0:0:0:
272,184,56152,2,0,L|316:280,1,100,2|0,0:0|0:0,0:0:0:0:
220,236,56581,5,4,0:0:0:0:
313,274,56795,1,0,0:0:0:0:
344,180,57009,1,0,0:0:0:0:
252,144,57224,1,4,0:0:0:0:
256,192,57331,12,0,59795,0:0:0:0:
306,278,60009,5,4,0:0:0:0:
154,192,60224,1,0,0:0:0:0:
306,103,60438,1,8,0:0:0:0:
205,278,60652,1,0,0:0:0:0:
205,103,60867,1,0,0:0:0:0:
357,192,61081,2,0,L|211:192,1,100,0|8,0:0|0:0,0:0:0:0:
140,144,61509,5,0,0:0:0:0:
116,192,61617,1,0,0:0:0:0:
140,240,61724,1,0,0:0:0:0:
228,288,61938,1,0,0:0:0:0:
328,280,62152,1,8,0:0:0:0:
388,200,62367,2,0,P|440:108|372:104,1,200,0|0,0:0|0:0,0:0:0:0:
388,200,63009,1,8,0:0:0:0:
256,56,63438,5,0,0:0:0:0:
208,144,63652,1,0,0:0:0:0:
256,160,63759,1,0,0:0:0:0:
304,144,63867,1,8,0:0:0:0:
304,244,64081,1,0,0:0:0:0:
208,244,64295,1,0,0:0:0:0:
336,244,64509,1,0,0:0:0:0:
176,244,64724,1,8,0:0:0:0:
360,244,64938,1,0,0:0:0:0:
152,244,65152,6,0,P|104:164|112:156,1,100,2|2,0:0|0:0,0:0:0:0:
152,28,65581,2,0,P|104:108|112:116,1,100,8|2,0:0|0:0,0:0:0:0:
180,140,66009,2,0,L|284:140,1,100,2|0,0:0|0:0,0:0:0:0:
332,140,66331,1,2,0:0:0:0:
380,140,66438,1,8,0:0:0:0:
344,232,66652,1,2,0:0:0:0:
280,308,66867,5,0,0:0:0:0:
325,332,66974,1,0,0:0:0:0:
370,356,67081,1,0,0:0:0:0:
472,344,67295,5,6,0:0:0:0:
40,40,68152,1,6,0:0:0:0:
244,108,68581,5,0,0:0:0:0:
272,152,68688,1,0,0:0:0:0:
244,192,68795,1,0,0:0:0:0:
272,232,68902,1,0,0:0:0:0:
244,272,69009,1,8,0:0:0:0:
136,308,69224,5,0,0:0:0:0:
64,144,69438,1,0,0:0:0:0:
64,240,69652,1,0,0:0:0:0:
136,76,69867,1,8,0:0:0:0:
176,192,70081,1,0,0:0:0:0:
336,192,70295,5,0,0:0:0:0:
376,76,70510,1,0,0:0:0:0:
448,240,70724,1,8,0:0:0:0:
448,144,70938,1,0,0:0:0:0:
376,308,71153,1,0,0:0:0:0:
300,244,71367,6,0,P|256:264|212:244,1,100,0|8,0:0|0:0,0:0:0:0:
204,144,71795,1,0,0:0:0:0:
308,144,72009,1,0,0:0:0:0:
300,44,72224,2,0,P|212:44|204:60,1,100,0|8,0:0|0:0,0:0:0:0:
256,192,72652,1,0,0:0:0:0:
300,336,72867,2,0,P|212:336|204:320,2,100,0|8|8,0:0|0:0|0:0,0:0:0:0:
256,192,73724,6,0,P|248:84|80:64,1,300,4|8,0:0|0:0,0:0:0:0:
156,144,74581,2,0,P|164:252|336:268,1,300,0|8,0:0|0:0,0:0:0:0:
256,192,75438,6,0,P|256:144|296:104,1,100,0|8,0:0|0:0,0:0:0:0:
380,68,75867,1,8,0:0:0:0:
341,158,76081,2,0,P|304:192|256:192,1,100,0|8,0:0|0:0,0:0:0:0:
192,268,76509,1,0,0:0:0:0:
136,192,76724,6,0,P|120:104|80:112,1,100,4|0,0:0|0:0,0:0:0:0:
368,120,77152,2,0,P|384:208|424:200,1,100,4|0,0:0|0:0,0:0:0:0:
216,296,77581,2,0,P|304:312|296:352,1,100,4|0,0:0|0:0,0:0:0:0:
296,24,78010,2,0,P|208:8|216:-32,1,100,4|0,0:0|0:0,0:0:0:0:
120,264,78438,2,0,L|184:184,1,100,4|0,0:0|0:0,0:0:0:0:
200,88,78867,5,2,0:0:0:0:
240,120,78974,1,2,0:0:0:0:
280,152,79081,1,2,0:0:0:0:
376,120,79295,5,2,0:0:0:0:
336,88,79402,1,2,0:0:0:0:
296,56,79509,1,2,0:0:0:0:
200,88,79724,5,2,0:0:0:0:
168,129,79831,1,2,0:0:0:0:
136,168,79938,1,2,0:0:0:0:
104,208,80045,1,2,0:0:0:0:
184,268,80260,1,2,0:0:0:0:
224,296,80367,1,6,0:0:0:0:
313,234,80581,6,0,B|328:160|416:136|416:136|328:112|312:40,1,300,0|8,0:0|0:0,0:0:0:0:
272,144,81438,2,0,B|256:216|168:240|168:240|256:264|272:344,1,300,0|8,0:0|0:0,0:0:0:0:
172,340,82295,2,0,B|160:312|100:304|100:304|48:240|100:176|100:176|160:168|172:140,1,300,0|8,0:0|0:0,0:0:0:0:
268,128,83152,6,0,P|220:56|188:52,1,100,0|8,0:0|0:0,0:0:0:0:
167,147,83581,1,8,0:0:0:0:
120,60,83795,1,8,0:0:0:0:
200,176,84010,6,0,P|216:264|256:256,1,100,4|0,0:0|0:0,0:0:0:0:
304,264,84438,2,0,P|288:176|248:184,1,100,4|0,0:0|0:0,0:0:0:0:
112,176,84867,2,0,P|128:264|168:256,1,100,4|0,0:0|0:0,0:0:0:0:
392,264,85295,2,0,P|376:176|336:184,1,100,4|0,0:0|0:0,0:0:0:0:
240,64,85724,2,0,L|240:192,1,100,4|2,0:0|0:0,0:0:0:0:
240,164,86045,5,2,0:0:0:0:
240,164,86152,1,2,0:0:0:0:
168,240,86367,1,2,0:0:0:0:
312,240,86581,1,2,0:0:0:0:
240,312,86795,1,2,0:0:0:0:
240,164,87009,1,2,0:0:0:0:
240,164,87224,1,2,0:0:0:0:
240,164,87438,6,0,B|240:217|320:217|320:165|320:165|372:165|372:165|372:217|452:216|452:168,1,300,4|0,0:0|0:0,0:0:0:0:
484,264,88295,2,0,B|460:300|388:308|344:276|344:276|300:308|220:304|188:248,1,300
112,300,89152,6,0,B|64:300|63:220|115:220|115:220|115:168|115:168|63:168|63:88|116:88,1,300
24,48,90009,2,0,B|-12:72|-20:144|12:188|12:188|-20:232|-16:312|40:344,1,300
120,328,90867,5,8,0:0:0:0:
392,56,91295,1,8,0:0:0:0:
392,328,91724,1,8,0:0:0:0:
120,56,92152,1,8,0:0:0:0:
256,192,92581,12,0,94081,0:0:0:0:
276,280,94295,6,0,L|380:176,1,100,0|0,0:0|0:0,0:0:0:0:
472,348,94724,1,6,0:0:0:0:
236,104,95152,6,0,L|165:174,1,100,0|0,0:0|0:0,0:0:0:0:
40,36,95581,1,6,0:0:0:0:
256,192,96009,5,0,0:0:0:0:
392,44,96438,1,0,0:0:0:0:
436,132,96652,2,0,P|340:76|356:52,1,100
304,40,97081,2,0,P|400:96|384:120,1,100
348,128,97510,1,0,0:0:0:0:
304,240,97724,6,0,L|374:310,1,100
208,240,98152,2,0,L|137:310,1,100
208,144,98581,2,0,L|112:48,1,100
304,144,99009,2,0,L|400:48,1,100
304,144,99438,6,0,P|151:217|63:102,1,300
134,84,100295,2,0,P|175:151|244:85,1,200
134,84,100938,1,0,0:0:0:0:
245,86,101152,6,0,P|318:238|203:326,1,300
185,256,102009,2,0,P|252:214|186:145,1,200
106,205,102652,1,0,0:0:0:0:
97,106,102867,2,0,P|136:112|186:144,2,100
8,292,103510,2,0,B|200:380|200:204|392:292,1,400
256,192,104581,5,4,0:0:0:0:
40,344,105438,1,4,0:0:0:0:
256,192,105867,1,0,0:0:0:0:
472,40,106295,1,4,0:0:0:0:
320,32,106509,5,2,0:0:0:0:
320,32,106617,1,2,0:0:0:0:
320,32,106724,1,2,0:0:0:0:
216,96,106938,1,2,0:0:0:0:
320,160,107152,1,2,0:0:0:0:
216,224,107367,1,2,0:0:0:0:
320,284,107581,1,2,0:0:0:0:
216,352,107795,1,2,0:0:0:0:
120,288,108009,6,2,L|40:208,1,100,4|0,0:0|0:0,0:0:0:0:
392,288,108652,2,2,L|472:208,1,100,4|0,0:0|0:0,0:0:0:0:
256,192,109081,1,2,0:0:0:0:
300,104,109295,2,0,P|256:84|212:104,1,100,2|0,0:0|0:0,0:0:0:0:
300,280,109724,2,2,P|256:300|212:280,1,100,4|0,0:0|0:0,0:0:0:0:
168,144,110152,1,0,0:0:0:0:
344,144,110367,1,6,0:0:0:0:
256,192,110474,12,4,113152,0:0:0:0:
