osu file format v12

[General]
AudioFilename: Steel Samurai (Remix).mp3
AudioLeadIn: 0
PreviewTime: 60000
Countdown: 0
SampleSet: Soft
StackLeniency: 0.6
Mode: 0
LetterboxInBreaks: 0

[Editor]
Bookmarks: 6857,59999
DistanceSpacing: 1.1
BeatDivisor: 2
GridSize: 4

[Metadata]
Title:Steel Samurai
TitleUnicode:Steel Samurai
Artist:Aoi Shoudo
ArtistUnicode:Aoi Shoudo
Creator:rezoons
Version:Normal
Source:Phoenix Wright: Ace Attorney
Tags:Gyakuten Saiban Appellate Project
BeatmapID:210091
BeatmapSetID:73671

[Difficulty]
HPDrainRate:5
CircleSize:3
OverallDifficulty:5
ApproachRate:5
SliderMultiplier:1.5
SliderTickRate:2

[Events]
//Background and Video events
0,0,"wall4_1024.jpg",0,0
//Break Periods
//Storyboard Layer 0 (Background)
//Storyboard Layer 1 (Fail)
//Storyboard Layer 2 (Pass)
//Storyboard Layer 3 (Foreground)
//Storyboard Sound Samples
//Background Colour Transformations
3,100,163,162,255

[TimingPoints]
10,428.571428571429,4,1,0,50,1,0
20581,-100,4,2,1,50,0,0
34295,-100,4,1,0,50,0,0
60010,-100,4,1,0,50,0,1
73724,-100,4,2,1,50,0,0
87438,-100,4,1,0,50,0,0

[Colours]
Combo1 : 242,168,13
Combo2 : 0,0,128
Combo3 : 255,0,128
Combo4 : 240,5,5

[HitObjects]
180,192,6867,1,4,0:0:0:0:
124,252,7082,2,0,P|99:208|108:164,1,75,0|8,0:0|0:0,0:0:0:0:
36,132,7510,1,0,0:0:0:0:
16,212,7724,1,0,0:0:0:0:
44,288,7938,2,0,P|104:336|148:332,1,75,0|8,0:0|0:0,0:0:0:0:
180,320,8367,6,0,L|256:312,1,75,0|0,0:0|0:0,0:0:0:0:
327,275,8796,2,0,P|336:304|328:348,2,75,0|8|0,0:0|0:0|0:0,0:0:0:0:
172,224,9653,1,0,0:0:0:0:
172,224,9868,1,8,0:0:0:0:
332,192,10295,5,4,0:0:0:0:
388,132,10510,2,0,P|412:175|404:220,1,75,0|8,0:0|0:0,0:0:0:0:
480,248,10938,1,0,0:0:0:0:
496,168,11152,1,0,0:0:0:0:
468,92,11367,2,0,P|428:52|408:44,1,75
332,72,11796,6,0,L|248:72,1,75
184,108,12224,2,0,P|176:80|184:36,2,75,0|8|0,0:0|0:0|0:0,0:0:0:0:
252,156,12868,1,0,0:0:0:0:
336,156,13082,2,0,P|304:224|216:232,1,150
252,156,13725,5,0,0:0:0:0:
396,80,14153,1,4,0:2:0:0:
256,380,15010,1,4,0:2:0:0:
284,216,15439,6,0,P|212:216|188:236,1,75
248,292,15868,1,0,0:0:0:0:
328,284,16082,1,0,0:0:0:0:
364,208,16296,2,0,P|332:80|220:104,1,225
176,84,17153,5,0,0:0:0:0:
140,160,17368,2,0,P|172:288|284:264,1,225
328,284,18225,1,0,0:0:0:0:
336,120,18653,5,0,0:0:0:0:
416,104,18868,2,0,P|384:184|360:192,2,75
256,136,19725,2,0,P|288:56|312:48,2,75,0|8|12,0:0|0:0|0:0,0:0:0:0:
232,300,20582,6,0,P|164:332|100:300,1,150,4|8,0:0|0:0,0:0:0:0:
164,148,21439,2,0,P|208:56|256:36,1,150,8|8,0:0|0:0,0:0:0:0:
328,184,22296,5,8,0:0:0:0:
368,344,22725,1,8,0:0:0:0:
324,272,22939,2,8,L|244:272,2,75
408,268,23582,6,0,P|408:140|368:124,1,150,4|4,0:0|0:0,1:0:0:0:
256,208,24439,1,4,0:0:0:0:
105,138,24868,2,0,P|104:140|104:268,1,150,4|8,0:0|0:0,1:0:0:0:
256,208,25725,5,0,0:0:0:0:
344,348,26153,1,0,0:0:0:0:
176,348,26582,2,0,P|68:348|72:212,1,225
64,172,27439,6,0,P|148:104|224:176,1,225,8|8,0:0|0:0,0:0:0:0:
144,184,28295,2,0,P|228:252|304:180,1,225,8|8,0:0|0:0,0:0:0:0:
381,172,29152,2,0,P|297:104|221:176,1,225,8|8,0:0|0:0,0:0:0:0:
304,187,30010,2,0,P|388:255|464:183,1,225,8|8,0:0|0:0,0:0:0:0:
381,172,30868,5,4,0:0:0:0:
300,316,31296,1,8,0:0:0:0:
464,316,31725,1,4,0:0:0:0:
380,172,32153,1,8,0:0:0:0:
504,64,32582,6,0,B|480:20|404:20|376:64|376:64|348:20|272:20|248:64,1,300
172,92,33653,1,0,0:0:0:0:
96,60,33868,1,0,0:0:0:0:
36,120,34082,1,0,0:0:0:0:
80,192,34296,6,0,B|152:280|152:280|232:184,1,225,4|0,0:0|0:0,0:0:0:0:
152,148,35153,2,0,B|224:60|224:60|300:156,1,225,0|0,0:0|0:0,0:0:0:0:
222,194,36010,2,0,B|294:282|294:282|372:184,1,225,0|0,0:0|0:0,0:0:0:0:
292,148,36868,2,0,B|364:60|364:60|438:160,1,225,0|0,0:0|0:0,0:0:0:0:
480,216,37725,5,8,0:0:0:0:
356,324,38153,1,8,0:0:0:0:
256,192,38582,1,8,0:0:0:0:
156,324,39010,1,8,0:0:0:0:
32,216,39439,6,0,P|64:116|192:80,1,225
212,144,40296,2,0,P|244:244|376:264,1,225
423,237,41153,6,0,P|435:273|424:308,2,75,0|0|4,0:0|0:0|0:0,0:0:0:0:
332,100,42011,2,0,P|322:65|334:29,2,75,0|0|4,0:0|0:0|0:0,0:0:0:0:
172,140,42868,6,0,L|108:204,1,75
100,272,43296,1,0,0:0:0:0:
80,352,43511,2,0,B|152:360|168:300,1,75
180,256,43939,2,0,L|252:184,1,75
240,72,44582,6,0,P|272:16|296:24,1,75
324,80,45011,2,0,P|380:112|372:136,1,75
316,164,45439,2,0,P|284:220|260:212,1,75
232,156,45868,2,0,P|176:124|184:100,1,75
96,152,46296,6,0,B|112:224|200:248|200:248|112:272|88:352,1,300
256,320,47582,1,0,0:0:0:0:
420,344,48011,6,0,B|400:274|312:250|312:250|400:226|416:154,1,300
256,108,49295,1,0,0:0:0:0:
212,180,49510,2,0,L|136:180,2,75
60,244,50368,2,0,P|28:176|80:104,2,150
112,180,51439,5,4,0:0:0:0:
208,44,51868,1,2,0:0:0:0:
256,204,52296,1,4,0:0:0:0:
304,44,52725,1,2,0:0:0:0:
400,180,53153,1,4,0:0:0:0:
324,152,53367,6,0,L|295:118,2,37.5,2|0|2,0:0|0:0|0:0,0:0:0:0:
256,204,53795,1,2,0:0:0:0:
271,283,54009,1,2,0:0:0:0:
348,310,54224,1,2,0:0:0:0:
413,258,54438,1,2,0:0:0:0:
400,180,54652,1,2,0:0:0:0:
336,232,54868,5,4,0:0:0:0:
112,340,55511,1,4,0:0:0:0:
40,192,55939,2,0,L|132:192,1,75,8|8,0:0|0:0,0:0:0:0:
260,148,56582,5,4,0:0:0:0:
296,316,57225,1,4,0:0:0:0:
256,192,57331,12,0,59152,0:0:0:0:
152,336,60010,5,4,0:0:0:0:
236,336,60225,2,0,L|288:240,1,75,0|8,0:0|0:0,0:0:0:0:
224,204,60652,1,0,0:0:0:0:
256,128,60867,1,0,0:0:0:0:
304,196,61081,2,0,P|348:240|352:268,1,75,0|8,0:0|0:0,0:0:0:0:
432,240,61510,6,0,P|420:200|396:168,1,75
340,120,61938,1,0,0:0:0:0:
256,128,62152,2,0,P|192:176|192:204,1,75,8|0,0:0|0:0,0:0:0:0:
64,264,62796,1,0,0:0:0:0:
64,264,63010,1,8,0:0:0:0:
124,112,63439,5,4,0:0:0:0:
168,40,63653,2,0,P|220:32|252:56,1,75,0|8,0:0|0:0,0:0:0:0:
284,108,64082,1,0,0:0:0:0:
204,116,64296,2,0,L|204:204,2,75,0|0|8,0:0|0:0|0:0,0:0:0:0:
284,108,64939,6,0,P|316:196|292:220,1,75,0|0,0:0|0:0,0:0:0:0:
312,248,65368,2,0,P|312:251|356:303,2,75,0|8|0,0:0|0:0|0:0,0:0:0:0:
392,228,66011,1,0,0:0:0:0:
472,208,66225,2,0,P|432:292|398:292,2,75,0|0|0,0:0|0:0|0:0,0:0:0:0:
392,228,66868,5,4,0:0:0:0:
424,68,67296,1,4,0:2:0:0:
256,352,68153,1,6,0:2:0:0:
296,192,68582,6,0,L|216:192,1,75
140,192,69011,1,0,0:0:0:0:
140,192,69225,1,0,0:0:0:0:
60,208,69439,2,0,B|60:154|60:154|196:50,1,225
228,124,70296,5,0,0:0:0:0:
308,112,70510,2,0,B|308:165|308:165|172:269,1,225
140,192,71368,1,0,0:0:0:0:
236,72,71796,5,0,0:0:0:0:
308,112,72010,2,0,P|298:18|278:3,2,75
164,32,72868,2,0,P|173:125|193:140,2,75,0|8|12,0:0|0:0|0:0,0:0:0:0:
256,168,73724,6,0,P|284:156|444:240,1,225,4|8,0:0|0:0,0:0:0:0:
372,288,74582,2,0,P|348:236|272:260,1,150,0|8,0:0|0:0,0:0:0:0:
256,96,75439,1,8,0:0:0:0:
96,136,75868,5,8,0:0:0:0:
44,200,76082,2,8,B|96:236|148:200|148:200|196:160,1,150
244,124,76725,5,4,0:0:0:0:
376,224,77153,1,4,0:0:0:0:
212,224,77582,1,4,0:0:0:0:
344,124,78010,1,4,0:0:0:0:
292,280,78439,1,4,0:0:0:0:
444,212,78867,5,0,0:0:0:0:
428,376,79295,1,0,0:0:0:0:
292,280,79724,2,0,L|448:296,1,150
476,132,80582,6,0,B|483:139|419:75|419:75|347:75|347:75|297:22|297:22,1,225,0|8,0:0|0:0,0:0:0:0:
239,83,81439,2,0,B|237:82|290:132|290:132|290:204|290:204|354:268|347:260,1,225,0|8,0:0|0:0,0:0:0:0:
292,320,82295,2,0,B|228:260|228:260|148:308|92:228,1,225,0|8,0:0|0:0,0:0:0:0:
24,264,83152,2,0,P|84:168|176:204,1,225
256,184,84011,5,4,0:0:0:0:
388,84,84439,1,4,0:0:0:0:
256,184,84868,1,4,0:0:0:0:
124,84,85296,1,4,0:0:0:0:
64,236,85724,6,0,B|88:280|164:280|192:236|192:236|220:280|296:280|320:236,1,300
256,184,86795,1,0,0:0:0:0:
192,132,87010,1,0,0:0:0:0:
128,184,87224,1,0,0:0:0:0:
64,133,87439,6,0,B|64:84|64:84|192:84|192:84|192:132,1,225,4|0,0:0|0:0,0:0:0:0:
128,184,88296,2,0,B|128:232|128:232|256:232|256:232|256:176,1,225
320,132,89153,2,0,B|320:84|320:84|192:84|192:84|192:140,1,225
256,184,90010,2,0,B|256:232|256:232|384:232|384:232|384:176,1,225
320,132,90868,5,8,0:0:0:0:
160,176,91296,1,8,0:0:0:0:
320,220,91725,1,8,0:0:0:0:
160,176,92153,1,8,0:0:0:0:
240,32,92582,6,0,L|240:260,1,225
316,268,93439,2,0,B|308:328|240:340|240:340|160:328|164:252,1,225
144,192,94296,6,0,L|80:128,2,75,2|0|4,0:0|0:0|0:0,0:0:0:0:
308,192,95153,2,0,L|372:256,2,75,2|0|4,0:0|0:0|0:0,0:0:0:0:
144,192,96010,6,0,P|96:184|48:212,1,75,4|0,0:0|0:0,0:0:0:0:
108,268,96439,1,0,0:0:0:0:
28,276,96652,2,0,P|45:321|92:344,1,75,4|0,0:0|0:0,0:0:0:0:
148,336,97081,2,0,P|184:296|184:256,1,75,4|0,0:0|0:0,0:0:0:0:
336,208,97725,6,0,P|304:152|280:160,1,75
340,76,98153,2,0,P|396:44|388:20,1,75
472,80,98582,2,0,P|504:136|528:128,1,75
468,212,99010,2,0,P|412:244|420:268,1,75
336,208,99439,6,0,B|320:136|232:112|232:112|320:88|344:8,1,300
176,32,100725,1,0,0:0:0:0:
12,20,101152,6,0,B|32:90|120:114|120:114|32:138|16:210,1,300
180,232,102438,1,0,0:0:0:0:
236,176,102652,2,0,L|312:176,2,75
388,240,103510,2,0,P|420:172|368:100,2,150
336,176,104582,5,4,0:0:0:0:
192,96,105011,1,8,0:0:0:0:
252,248,105439,1,4,0:0:0:0:
312,96,105868,1,8,0:0:0:0:
168,176,106296,1,4,0:0:0:0:
160,256,106510,6,0,L|131:290,2,37.5,2|0|2,0:0|0:0|0:0,0:0:0:0:
92,204,106938,1,2,0:0:0:0:
107,125,107152,1,2,0:0:0:0:
184,98,107367,1,2,0:0:0:0:
249,150,107581,1,2,0:0:0:0:
236,228,107795,1,2,0:0:0:0:
168,176,108010,5,4,0:0:0:0:
416,176,108652,1,4,0:0:0:0:
364,332,109082,2,0,L|264:332,1,75,8|8,0:0|0:0,0:0:0:0:
124,332,109725,5,4,0:0:0:0:
252,120,110368,1,4,0:0:0:0:
256,192,110475,12,4,113153,0:0:0:0:
