osu file format v12

[General]
AudioFilename: Steel Samurai (Remix).mp3
AudioLeadIn: 0
PreviewTime: 60000
Countdown: 0
SampleSet: Soft
StackLeniency: 0.6
Mode: 0
LetterboxInBreaks: 0

[Editor]
Bookmarks: 6857,59999
DistanceSpacing: 1
BeatDivisor: 4
GridSize: 4

[Metadata]
Title:Steel Samurai
TitleUnicode:Steel Samurai
Artist:Aoi Shoudo
ArtistUnicode:Aoi Shoudo
Creator:rezoons
Version:Hard
Source:Phoenix Wright: Ace Attorney
Tags:Gyakuten Saiban Appellate Project
BeatmapID:238952
BeatmapSetID:73671

[Difficulty]
HPDrainRate:6
CircleSize:3
OverallDifficulty:6
ApproachRate:7
SliderMultiplier:1.8
SliderTickRate:2

[Events]
//Background and Video events
0,0,"wall4_1024.jpg",0,0
//Break Periods
//Storyboard Layer 0 (Background)
//Storyboard Layer 1 (Fail)
//Storyboard Layer 2 (Pass)
//Storyboard Layer 3 (Foreground)
//Storyboard Sound Samples
//Background Colour Transformations
3,100,163,162,255

[TimingPoints]
10,428.571428571429,4,1,0,50,1,0
20581,-100,4,2,1,50,0,0
34295,-100,4,1,0,50,0,0
60010,-100,4,1,0,50,0,1
73724,-100,4,2,1,50,0,0
87438,-100,4,1,0,50,0,0

[Colours]
Combo1 : 242,168,13
Combo2 : 0,0,128
Combo3 : 255,0,128
Combo4 : 240,5,5

[HitObjects]
256,192,6867,1,4,0:0:0:0:
169,197,7081,2,0,P|168:184|204:120,2,90,0|8|0,0:0|0:0|0:0,0:0:0:0:
256,192,7724,1,0,0:0:0:0:
308,120,7938,2,0,P|344:184|343:197,1,90,0|8,0:0|0:0,0:0:0:0:
288,268,8367,6,0,L|336:328,2,45
200,284,8795,1,0,0:0:0:0:
144,216,9010,1,8,0:0:0:0:
164,128,9224,2,0,P|96:68|92:44,1,90
180,40,9652,2,0,P|248:100|252:124,1,90,0|8,0:0|0:0,0:0:0:0:
368,216,10295,5,4,0:0:0:0:
292,268,10510,1,0,0:0:0:0:
292,268,10617,1,0,0:0:0:0:
292,268,10724,1,8,0:0:0:0:
220,216,10938,1,0,0:0:0:0:
292,268,11152,1,0,0:0:0:0:
336,348,11367,2,0,P|288:360|236:340,2,90,0|8|2,0:0|0:0|0:0,0:0:0:0:
292,268,12010,5,2,0:0:0:0:
206,150,12224,1,2,0:0:0:0:
344,195,12438,1,10,0:0:0:0:
206,240,12652,1,2,0:0:0:0:
292,122,12867,1,2,0:0:0:0:
376,88,13081,1,0,0:0:0:0:
400,84,13188,1,0,0:0:0:0:
424,80,13295,1,0,0:0:0:0:
492,140,13510,1,0,0:0:0:0:
424,196,13724,5,0,0:0:0:0:
400,192,13831,1,0,0:0:0:0:
376,188,13938,1,0,0:0:0:0:
300,140,14152,1,4,0:0:0:0:
208,140,14367,2,0,L|92:140,2,90
300,140,15010,1,4,0:0:0:0:
312,320,15438,5,0,0:0:0:0:
324,336,15545,1,0,0:0:0:0:
336,352,15652,2,0,B|364:380|364:380|428:368,1,90,0|8,0:0|0:0,0:0:0:0:
492,304,16081,2,0,B|464:276|464:276|400:288,1,90
336,244,16510,5,0,0:0:0:0:
292,164,16724,1,8,0:0:0:0:
380,164,16938,1,0,0:0:0:0:
336,304,17152,5,0,0:0:0:0:
240,207,17367,1,0,0:0:0:0:
336,111,17581,1,8,0:0:0:0:
430,207,17795,2,0,P|488:276|484:296,2,90
368,140,18438,5,8,0:0:0:0:
280,140,18652,1,0,0:0:0:0:
220,208,18867,2,0,P|162:277|166:297,1,90
24,208,19295,2,0,P|82:277|78:297,1,90,8|0,0:0|0:0,0:0:0:0:
120,152,19724,1,0,0:0:0:0:
120,152,19938,1,0,0:0:0:0:
120,152,20152,1,8,0:0:0:0:
292,88,20581,6,0,B|296:125|308:168|364:192|364:192|308:216|296:256|292:300,1,270,4|8,0:0|0:0,0:0:0:0:
384,288,21438,2,0,P|464:192|384:96,1,270,0|8,0:0|0:0,0:0:0:0:
292,88,22295,2,0,P|248:76|204:88,1,90,0|8,0:0|0:0,0:0:0:0:
192,176,22724,1,8,0:0:0:0:
132,244,22938,1,8,0:0:0:0:
212,284,23152,2,0,P|256:296|300:284,1,90,8|0,0:0|0:0,0:0:0:0:
388,284,23581,6,0,P|324:212|304:216,1,90,4|0,0:0|0:0,0:0:0:0:
224,112,24010,2,0,P|288:184|308:180,1,90,4|0,0:0|0:0,0:0:0:0:
404,88,24438,2,0,P|332:152|336:172,1,90,4|0,0:0|0:0,0:0:0:0:
200,316,24867,2,0,P|272:252|268:232,1,90,4|0,0:0|0:0,0:0:0:0:
464,284,25295,2,0,P|400:212|380:216,1,90,4|0,0:0|0:0,0:0:0:0:
340,172,25724,5,2,0:0:0:0:
320,160,25831,1,2,0:0:0:0:
300,148,25938,1,2,0:0:0:0:
212,148,26152,5,2,0:0:0:0:
192,160,26259,1,2,0:0:0:0:
172,172,26366,1,2,0:0:0:0:
256,224,26581,6,2,L|256:280,1,45
256,312,26795,2,2,L|256:364,1,45
120,336,27117,2,2,L|176:304,1,45
168,224,27438,6,0,P|100:156|120:52,1,180,0|8,0:0|0:0,0:0:0:0:
180,32,28081,1,8,0:0:0:0:
240,96,28295,2,0,P|332:71|412:140,1,180,0|8,0:0|0:0,0:0:0:0:
448,192,28938,1,8,0:0:0:0:
364,228,29152,2,0,P|339:320|239:355,1,180,0|8,0:0|0:0,0:0:0:0:
196,304,29795,1,8,0:0:0:0:
120,256,30010,2,0,B|80:224|80:224|28:224,2,90,0|8|8,0:0|0:0|0:0,0:0:0:0:
196,304,30652,1,8,0:0:0:0:
272,352,30867,6,0,P|324:328|356:276,1,90,4|0,0:0|0:0,0:0:0:0:
264,260,31295,2,0,P|304:219|316:159,1,90,4|0,0:0|0:0,0:0:0:0:
224,180,31724,2,0,P|248:128|239:67,1,90,4|0,0:0|0:0,0:0:0:0:
158,114,32152,2,0,P|163:56|134:3,1,90,4|0,0:0|0:0,0:0:0:0:
76,76,32581,1,4,0:0:0:0:
48,160,32795,5,2,0:0:0:0:
48,184,32902,1,2,0:0:0:0:
48,208,33010,1,2,0:0:0:0:
100,284,33224,1,2,0:0:0:0:
156,212,33438,1,2,0:0:0:0:
84,304,33652,1,2,0:0:0:0:
172,192,33867,1,2,0:0:0:0:
68,324,34081,1,2,0:0:0:0:
192,172,34295,6,0,B|276:88|276:88|368:68|408:168,1,270,4|0,0:0|0:0,0:0:0:0:
312,168,35152,2,0,B|228:252|228:252|136:272|96:171,1,270
312,168,36010,2,0,B|228:252|228:252|208:344|308:384,1,270,4|0,0:0|0:0,0:0:0:0:
312,288,36867,2,0,B|396:204|396:204|416:112|316:72,1,270
256,128,37724,5,8,0:0:0:0:
324,350,38152,1,8,0:0:0:0:
138,210,38581,1,8,0:0:0:0:
371,214,39010,1,8,0:0:0:0:
180,348,39438,6,0,P|48:280|48:232,1,180
96,192,40081,1,0,0:0:0:0:
45,115,40295,2,0,P|48:104|180:36,1,180
256,80,40938,1,0,0:0:0:0:
336,40,41152,6,0,L|424:108,1,90
408,240,41581,1,6,0:0:0:0:
176,344,42010,6,0,L|88:276,1,90
104,144,42439,1,6,0:0:0:0:
264,104,42867,6,0,P|328:112|356:144,1,90,0|0,0:0|0:0,0:0:0:0:
436,116,43295,2,2,P|428:180|396:208,2,90,0|0|0,0:0|0:0|0:0,0:0:0:0:
376,48,43938,2,0,P|284:20|192:56,1,180,0|0,0:0|0:0,0:0:0:0:
160,132,44581,6,0,L|108:216,1,90
248,132,45010,2,0,L|300:216,1,90
160,284,45438,2,0,L|56:308,1,90
248,284,45867,2,0,L|352:308,1,90
388,232,46295,6,0,P|452:152|416:72,1,180,4|0,0:0|0:0,0:0:0:0:
360,144,46938,1,2,0:0:0:0:
292,204,47152,2,0,P|271:138|335:58,1,180,8|0,0:0|0:0,0:0:0:0:
360,144,47795,1,2,0:0:0:0:
292,204,48010,6,0,P|293:310|214:348,1,180,4|0,0:0|0:0,0:0:0:0:
217,257,48653,1,2,0:0:0:0:
204,168,48867,2,0,P|144:204|142:309,1,180,8|0,0:0|0:0,0:0:0:0:
217,257,49510,1,2,0:0:0:0:
300,228,49724,5,0,0:0:0:0:
384,256,49938,2,0,B|424:280|424:280|484:280,1,90
444,196,50367,2,2,B|364:144|364:144|272:144,2,180
480,276,51438,1,4,0:0:0:0:
32,108,52295,5,4,0:0:0:0:
256,192,52724,1,0,0:0:0:0:
480,276,53152,1,4,0:0:0:0:
428,200,53367,5,2,0:0:0:0:
428,200,53474,1,2,0:0:0:0:
428,200,53581,1,2,0:0:0:0:
380,276,53795,1,2,0:0:0:0:
328,200,54010,1,2,0:0:0:0:
280,276,54224,5,2,0:0:0:0:
480,276,54438,1,2,0:0:0:0:
380,128,54652,1,2,0:0:0:0:
304,76,54867,6,2,P|256:44|200:48,1,90,4|0,0:0|0:0,0:0:0:0:
304,308,55510,2,2,P|256:340|200:336,1,90,4|0,0:0|0:0,0:0:0:0:
240,252,55938,1,0,0:0:0:0:
172,192,56152,2,0,L|56:192,1,90,2|0,0:0|0:0,0:0:0:0:
128,112,56581,5,4,0:0:0:0:
236,148,56795,2,0,P|248:212|232:240,1,90
128,272,57224,1,4,0:0:0:0:
256,192,57331,12,0,59581,0:0:0:0:
256,192,60010,5,4,0:0:0:0:
272,104,60224,2,0,L|224:76,2,45,0|0|8,0:0|0:0|0:0,0:0:0:0:
340,164,60652,1,0,0:0:0:0:
404,104,60867,1,0,0:0:0:0:
428,192,61081,2,0,P|404:260|376:268,1,90,0|8,0:0|0:0,0:0:0:0:
308,304,61510,5,0,0:0:0:0:
284,304,61617,1,0,0:0:0:0:
260,304,61724,1,0,0:0:0:0:
196,236,61938,1,0,0:0:0:0:
128,296,62152,1,8,0:0:0:0:
68,228,62367,2,0,P|44:192|80:152,1,90
128,88,62795,1,0,0:0:0:0:
196,148,63009,1,8,0:0:0:0:
372,192,63438,5,4,0:0:0:0:
440,252,63652,2,0,L|492:240,2,45
392,328,64081,1,0,0:0:0:0:
308,300,64295,1,0,0:0:0:0:
216,296,64510,2,0,P|146:276|128:248,1,90,0|8,0:0|0:0,0:0:0:0:
208,208,64938,5,2,0:0:0:0:
360,178,65152,1,2,0:0:0:0:
296,35,65367,1,2,0:0:0:0:
172,128,65581,1,10,0:0:0:0:
290,229,65795,1,2,0:0:0:0:
362,91,66010,1,2,0:0:0:0:
212,51,66224,2,0,L|168:0,2,45
268,136,66652,5,0,0:0:0:0:
208,208,66867,2,0,L|168:252,2,45
268,136,67295,1,6,0:0:0:0:
360,136,67510,2,0,L|456:136,2,90
268,136,68152,1,6,0:0:0:0:
112,252,68581,5,0,0:0:0:0:
112,252,68688,1,0,0:0:0:0:
112,252,68795,2,0,P|76:200|80:160,2,90,0|8|0,0:0|0:0|0:0,0:0:0:0:
164,176,69438,1,0,0:0:0:0:
212,252,69652,6,0,P|248:200|244:160,2,90,0|8|0,0:0|0:0|0:0,0:0:0:0:
164,176,70295,1,0,0:0:0:0:
120,96,70510,1,0,0:0:0:0:
208,96,70724,1,8,0:0:0:0:
72,176,70938,5,0,0:0:0:0:
164,20,71152,1,0,0:0:0:0:
252,176,71367,1,0,0:0:0:0:
392,192,71581,5,8,0:0:0:0:
424,84,71795,2,0,P|472:136|472:168,1,90
424,300,72224,2,0,P|472:248|472:216,1,90,0|8,0:0|0:0,0:0:0:0:
392,192,72652,1,0,0:0:0:0:
316,148,72867,2,0,P|304:192|320:240,2,90,0|8|8,0:0|0:0|0:0,0:0:0:0:
164,88,73724,6,0,B|160:125|148:168|92:192|92:192|148:216|160:256|164:300,1,270,4|8,0:0|0:0,0:0:0:0:
72,288,74581,2,0,P|-8:192|72:96,1,270,0|8,0:0|0:0,0:0:0:0:
92,192,75438,2,0,L|184:216,1,90,0|8,0:0|0:0,0:0:0:0:
256,260,75867,1,8,0:0:0:0:
180,308,76081,2,0,P|140:356|84:364,1,90,8|8,0:0|0:0,0:0:0:0:
96,280,76510,1,0,0:0:0:0:
32,216,76724,6,0,P|24:156|56:116,1,90,4|0,0:0|0:0,0:0:0:0:
152,32,77152,2,0,P|160:92|128:132,1,90,4|0,0:0|0:0,0:0:0:0:
0,64,77581,2,0,P|60:56|100:88,1,90,4|0,0:0|0:0,0:0:0:0:
184,184,78010,2,0,P|124:192|84:160,1,90,4|0,0:0|0:0,0:0:0:0:
196,72,78438,2,0,P|256:64|279:77,1,90,4|0,0:0|0:0,0:0:0:0:
360,116,78867,6,0,L|400:64,2,45
488,116,79295,6,0,L|466:76,2,45
500,204,79724,6,2,L|456:244,1,45
420,236,79938,2,2,L|384:204,1,45
296,204,80260,2,0,L|236:204,1,45
200,280,80581,6,0,P|160:200|212:120,1,180,0|8,0:0|0:0,0:0:0:0:
296,128,81224,1,8,0:0:0:0:
248,204,81438,2,0,L|64:204,1,180,0|8,0:0|0:0,0:0:0:0:
24,124,82081,1,8,0:0:0:0:
116,128,82295,2,0,P|156:208|104:288,1,180,0|8,0:0|0:0,0:0:0:0:
24,288,82938,1,8,0:0:0:0:
68,204,83152,2,0,L|248:204,1,180
300,288,83795,1,8,0:0:0:0:
380,352,84010,6,0,P|432:328|464:276,1,90,4|0,0:0|0:0,0:0:0:0:
372,260,84438,2,0,P|412:219|424:159,1,90,4|0,0:0|0:0,0:0:0:0:
332,180,84867,2,0,P|356:128|347:67,1,90,4|0,0:0|0:0,0:0:0:0:
266,114,85295,2,0,P|271:56|242:3,1,90,4|0,0:0|0:0,0:0:0:0:
184,76,85724,2,0,P|179:134|208:187,1,90,4|2,0:0|0:0,0:0:0:0:
189,162,86045,5,2,0:0:0:0:
189,162,86152,1,2,0:0:0:0:
237,241,86367,1,2,0:0:0:0:
282,163,86581,1,2,0:0:0:0:
189,162,86795,5,2,0:0:0:0:
282,320,87010,1,2,0:0:0:0:
372,164,87224,1,2,0:0:0:0:
372,164,87438,6,0,B|314:126|250:170|250:170|186:214|118:170,1,270,4|0,0:0|0:0,0:0:0:0:
68,248,88296,2,0,P|170:285|318:237,1,270,0|0,0:0|0:0,0:0:0:0:
372,164,89152,2,0,B|314:126|250:170|250:170|186:214|118:170,1,270,4|0,0:0|0:0,0:0:0:0:
180,104,90010,2,0,P|328:56|430:93,1,270
468,176,90867,5,8,0:0:0:0:
256,344,91295,1,8,0:0:0:0:
40,176,91724,1,8,0:0:0:0:
256,16,92152,1,8,0:0:0:0:
256,192,92581,6,0,P|164:236|112:192,1,180
184,136,93224,1,0,0:0:0:0:
256,192,93438,2,0,P|348:148|400:192,1,180
328,248,94081,1,0,0:0:0:0:
256,300,94295,6,0,L|152:300,1,90
332,300,94724,1,6,0:0:0:0:
256,84,95152,6,0,L|360:84,1,90
180,84,95581,1,6,0:0:0:0:
140,332,96010,6,0,L|200:244,1,90
256,320,96438,1,0,0:0:0:0:
372,332,96652,2,0,L|312:244,1,90
320,168,97081,2,0,P|256:116|188:168,1,180
304,272,97724,6,0,B|324:320|324:320|388:340,1,90
208,272,98152,2,0,B|188:320|188:320|124:340,1,90
127,259,98581,2,0,B|147:211|147:211|183:199,1,90
384,259,99010,2,0,B|364:211|364:211|327:199,1,90
300,284,99438,6,0,P|228:357|144:331,1,180,4|0,0:0|0:0,0:0:0:0:
210,264,100081,1,2,0:0:0:0:
263,189,100295,2,0,P|194:176|123:249,1,180,8|0,0:0|0:0,0:0:0:0:
210,264,100938,1,2,0:0:0:0:
263,189,101153,6,0,P|368:177|396:94,1,180,4|0,0:0|0:0,0:0:0:0:
306,108,101796,1,2,0:0:0:0:
216,106,102010,2,0,P|244:42|348:27,1,180,8|0,0:0|0:0,0:0:0:0:
416,80,102652,1,2,0:0:0:0:
452,164,102867,1,0,0:0:0:0:
416,244,103081,2,0,P|336:268|301:261,1,90
381,350,103510,2,0,P|243:242|349:175,1,360
416,116,104581,6,0,P|436:192|416:220,1,90,4|0,0:0|0:0,0:0:0:0:
368,260,105010,1,0,0:0:0:0:
280,260,105224,1,0,0:0:0:0:
212,200,105438,2,0,P|192:276|212:304,1,90,4|0,0:0|0:0,0:0:0:0:
260,344,105867,1,0,0:0:0:0:
348,344,106081,1,0,0:0:0:0:
432,312,106295,2,0,P|452:236|432:208,1,90,4|2,0:0|0:0,0:0:0:0:
449,230,106617,5,2,0:0:0:0:
449,230,106724,1,2,0:0:0:0:
448,91,106938,1,2,0:0:0:0:
326,161,107152,1,2,0:0:0:0:
488,161,107367,1,2,0:0:0:0:
367,91,107581,1,2,0:0:0:0:
367,231,107795,1,2,0:0:0:0:
408,312,108010,6,2,P|348:344|308:344,1,90,6|2,0:0|0:0,0:0:0:0:
104,312,108652,2,2,P|164:344|204:344,1,90,6|2,0:0|0:0,0:0:0:0:
256,288,109081,1,2,0:0:0:0:
256,200,109295,2,0,L|256:100,1,90
300,32,109724,2,2,P|256:20|212:32,1,90,6|2,0:0|0:0,0:0:0:0:
176,112,110152,1,0,0:0:0:0:
336,112,110367,1,4,0:0:0:0:
256,192,110474,12,4,113152,0:0:0:0:
