osu file format v12

[General]
AudioFilename: Steel Samurai (Remix).mp3
AudioLeadIn: 0
PreviewTime: 60000
Countdown: 0
SampleSet: Soft
StackLeniency: 0.6
Mode: 0
LetterboxInBreaks: 0

[Editor]
Bookmarks: 6857,59999
DistanceSpacing: 0.9
BeatDivisor: 2
GridSize: 4

[Metadata]
Title:Steel Samurai
TitleUnicode:Steel Samurai
Artist:Aoi Shoudo
ArtistUnicode:Aoi Shoudo
Creator:rezoons
Version:Easy
Source:Phoenix Wright: Ace Attorney
Tags:Gyakuten Saiban Appellate Project
BeatmapID:210612
BeatmapSetID:73671

[Difficulty]
HPDrainRate:2
CircleSize:3
OverallDifficulty:2
ApproachRate:3
SliderMultiplier:1
SliderTickRate:2

[Events]
//Background and Video events
0,0,"wall4_1024.jpg",0,0
//Break Periods
2,53353,58570
//Storyboard Layer 0 (Background)
//Storyboard Layer 1 (Fail)
//Storyboard Layer 2 (Pass)
//Storyboard Layer 3 (Foreground)
//Storyboard Sound Samples
//Background Colour Transformations
3,100,163,162,255

[TimingPoints]
10,428.571428571429,4,1,0,50,1,0
20581,-100,4,2,1,50,0,0
34295,-100,4,1,0,50,0,0
60010,-100,4,1,0,50,0,1
73724,-100,4,2,1,50,0,0
87438,-100,4,1,0,50,0,0

[Colours]
Combo1 : 242,168,13
Combo2 : 0,0,128
Combo3 : 255,0,128
Combo4 : 240,5,5

[HitObjects]
148,84,6867,2,0,P|120:212|264:228,1,300,4|8,0:0|0:0,0:0:0:0:
204,160,8582,1,0,0:0:0:0:
280,116,9011,2,0,L|220:8,2,100,8|0|8,0:0|0:0|0:0,0:0:0:0:
304,204,10296,6,0,P|204:300|116:204,1,300,4|8,0:0|0:0,0:0:0:0:
160,124,12011,2,0,B|212:92|256:124|256:124,2,100,0|8|0,0:0|0:0|0:0,0:0:0:0:
296,240,13725,5,0,0:0:0:0:
296,152,14153,1,4,0:2:0:0:
296,152,15010,1,4,0:2:0:0:
296,240,15439,6,0,B|333:277|333:277|389:332|480:243|423:186|423:186|387:149,1,300,0|8,0:0|0:0,0:0:0:0:
296,152,17152,5,0,0:0:0:0:
204,152,17582,2,0,L|92:152,1,100,8|0,0:0|0:0,0:0:0:0:
148,240,18439,2,0,L|248:240,1,100,8|0,0:0|0:0,0:0:0:0:
308,312,19296,2,0,B|360:340|412:296,2,100,8|0|8,0:0|0:0|0:0,0:0:0:0:
348,232,20582,6,0,P|372:184|332:144,1,100,12|8,0:0|0:0,0:0:0:0:
264,116,21439,2,0,L|264:228,1,100,8|8,0:0|0:0,0:0:0:0:
180,180,22296,2,8,P|156:132|196:92,2,100
164,268,23582,6,0,L|212:356,1,100,4|4,0:0|0:0,1:0:0:0:
300,356,24439,2,0,L|344:264,1,100,4|4,0:0|0:0,1:0:0:0:
256,236,25296,1,8,0:0:0:0:
212,156,25725,5,4,0:0:0:0:
300,156,26153,1,4,0:0:0:0:
248,84,26582,2,0,P|144:112|132:136,1,100,4|8,0:0|0:0,0:1:0:0:
112,180,27439,6,0,B|60:180|60:180|60:228|60:228,1,100,8|8,0:0|0:0,0:0:0:0:
140,268,28296,2,8,B|140:320|140:320|188:320|188:320,1,100
232,240,29153,2,8,B|284:240|284:240|284:192|284:192,1,100
204,152,30010,2,8,B|204:100|204:100|156:100|156:100,1,100
116,180,30868,5,4,0:0:0:0:
36,224,31296,1,8,0:0:0:0:
76,304,31725,1,4,0:0:0:0:
156,260,32153,1,8,0:0:0:0:
240,296,32582,2,0,P|360:224|328:72,1,300,4|8,0:0|0:0,0:0:0:0:
248,68,34296,6,0,L|168:148,1,100,4|0,0:0|0:0,0:0:0:0:
104,188,35153,2,0,L|184:268,1,100
228,332,36010,2,0,L|308:252,1,100
372,212,36868,2,0,L|292:132,1,100
240,208,37725,5,8,0:0:0:0:
164,252,38153,1,8,0:0:0:0:
100,188,38582,1,8,0:0:0:0:
140,108,39010,1,8,0:0:0:0:
228,116,39439,2,0,B|360:82|333:265|490:217,1,300,0|0,0:0|0:0,3:0:0:0:
436,144,41153,6,2,L|360:56,1,100,2|4,0:0|0:0,0:0:0:0:
288,36,42011,2,2,L|156:48,1,100,2|4,0:0|0:0,0:0:0:0:
148,124,42868,1,2,0:0:0:0:
116,208,43296,2,0,P|52:112|124:40,1,200,8|8,0:0|0:0,0:0:0:0:
148,124,44582,5,0,0:0:0:0:
228,164,45010,1,0,0:0:0:0:
264,244,45439,1,0,0:0:0:0:
344,284,45868,1,0,0:0:0:0:
428,252,46296,2,0,B|417:207|383:195|383:195|349:184|338:150|338:150|326:116|292:105|292:105|259:94|247:60|247:60|239:36,1,300
156,76,48010,6,0,L|76:156,1,100,4|0,0:0|0:0,0:0:0:0:
84,236,48868,2,0,L|172:324,1,100,0|0,0:0|0:0,0:0:0:0:
244,288,49725,1,0,0:0:0:0:
304,220,50153,2,0,L|416:220,2,100,0|0|0,0:0|0:0|0:0,0:0:0:0:
256,144,51439,5,4,0:0:0:0:
168,300,52296,1,4,0:0:0:0:
344,300,53153,1,4,0:0:0:0:
128,48,60010,6,0,B|160:104|160:104|128:152|128:152|160:200|160:200|128:248|128:248|168:320,1,300,4|8,0:0|0:0,0:0:0:0:
232,252,61725,1,0,0:0:0:0:
268,172,62153,2,0,L|380:172,2,100,8|0|8,0:0|0:0|0:0,0:0:0:0:
264,80,63439,6,0,B|364:80|364:80|380:79|456:88|464:168|464:185|464:185|464:228,1,300,0|8,0:0|0:0,0:0:0:0:
388,272,65153,1,0,0:0:0:0:
296,272,65582,1,8,0:0:0:0:
220,224,66010,1,0,0:0:0:0:
352,100,66868,5,0,0:0:0:0:
440,100,67296,1,4,0:2:0:0:
440,284,68153,1,4,0:2:0:0:
444,192,68582,6,0,B|372:192|372:192|344:276|232:276|200:192,1,300,0|8,0:0|0:0,0:0:0:0:
288,168,70295,5,0,0:0:0:0:
344,96,70725,2,0,L|444:96,2,100,8|0|8,0:0|0:0|0:0,0:0:0:0:
256,84,72011,2,0,P|220:108|200:164,1,100,0|8,0:0|0:0,0:0:0:0:
288,168,72867,2,0,P|268:219|232:243,1,100,0|8,0:0|0:0,0:0:0:0:
144,236,73724,6,0,P|96:260|56:220,1,100,12|8,0:0|0:0,0:0:0:0:
52,148,74582,2,0,L|164:148,1,100,0|8,0:0|0:0,0:0:0:0:
144,60,75439,2,0,P|96:36|56:76,2,100,0|8|8,0:0|0:0|0:0,0:0:0:0:
180,144,76725,6,0,L|180:280,1,100,4|4,0:0|0:0,1:0:0:0:
256,292,77582,1,4,0:0:0:0:
332,244,78010,2,0,L|332:140,1,100,4|8,0:0|0:0,1:0:0:0:
256,96,78868,5,4,0:0:0:0:
256,184,79296,1,8,0:0:0:0:
212,264,79725,2,0,P|256:284|304:260,1,100,4|8,0:0|0:0,1:0:0:0:
256,184,80582,6,0,L|140:108,1,100,4|8,0:0|0:0,0:0:0:0:
92,172,81439,2,0,L|208:248,1,100,0|8,0:0|0:0,0:0:0:0:
168,316,82296,2,0,L|52:240,1,100,0|8,0:0|0:0,0:0:0:0:
4,304,83153,2,0,L|120:380,1,100,0|8,0:0|0:0,0:0:0:0:
168,316,84011,5,4,0:0:0:0:
256,316,84439,1,8,0:0:0:0:
212,236,84868,1,4,0:0:0:0:
212,148,85296,1,8,0:0:0:0:
300,144,85725,2,0,P|184:64|140:200,1,300,4|8,0:0|0:0,0:0:0:0:
212,148,87439,6,0,L|240:244,1,100,4|0,0:0|0:0,0:0:0:0:
248,332,88295,2,0,L|344:304,1,100,4|0,0:0|0:0,0:0:0:0:
436,304,89152,2,0,L|408:208,1,100,4|0,0:0|0:0,0:0:0:0:
400,120,90010,2,0,L|304:148,1,100,4|0,0:0|0:0,0:0:0:0:
216,120,90868,5,8,0:0:0:0:
236,208,91296,1,8,0:0:0:0:
304,148,91724,1,0,0:0:0:0:
216,120,92153,1,8,0:0:0:0:
156,52,92582,2,0,B|60:160|240:196|60:236|156:340,1,300,0|0,0:0|0:0,3:0:0:0:
228,272,94296,6,2,P|220:216|260:176,1,100,2|4,0:0|0:0,0:0:0:0:
312,244,95152,2,2,P|320:300|280:340,1,100,2|4,0:0|0:0,0:0:0:0:
228,272,96011,1,2,0:0:0:0:
232,184,96439,2,0,P|192:188|148:244,2,100,0|0|0,0:0|0:0|0:0,0:0:0:0:
292,120,97725,5,0,0:0:0:0:
360,180,98153,1,0,0:0:0:0:
312,256,98582,1,0,0:0:0:0:
380,316,99011,1,0,0:0:0:0:
292,336,99439,2,2,B|236:336|236:336|156:252|236:176|236:176|304:176,1,300,2|0,0:0|0:0,0:0:0:0:
376,220,101153,6,0,B|336:256|336:256|276:256,1,100,4|8,0:0|0:0,0:0:0:0:
296,168,102010,2,0,B|336:132|336:132|396:132,1,100,0|8,0:0|0:0,0:0:0:0:
396,44,102868,1,0,0:0:0:0:
308,36,103296,2,8,L|208:36,2,100,8|0|8,0:0|0:0|0:0,0:0:0:0:
340,120,104582,5,4,0:0:0:0:
316,300,105439,1,4,0:0:0:0:
172,192,106295,1,4,0:0:0:0:
232,84,108011,6,0,L|292:84,1,50,4|0,0:0|0:0,0:0:0:0:
356,136,108652,1,12,0:0:0:0:
276,172,109081,2,0,L|232:224,1,50
280,292,109724,6,0,L|220:292,1,50,4|0,0:0|0:0,0:0:0:0:
156,240,110367,1,12,0:0:0:0:
256,192,110475,12,4,113153,0:0:0:0:
