osu file format v12

[General]
AudioFilename: 04. (TV Size Ver.).mp3
AudioLeadIn: 0
PreviewTime: 35402
Countdown: 1
SampleSet: Normal
StackLeniency: 0.7
Mode: 0
LetterboxInBreaks: 1
WidescreenStoryboard: 0

[Editor]
DistanceSpacing: 1.2
BeatDivisor: 4
GridSize: 4

[Metadata]
Title:Niji no Oto (TV Size Ver.)
TitleUnicode:虹の音 (TV Size Ver.)
Artist:Aoi Eir
ArtistUnicode:藍井エイル
Creator:-RInx-
Version:Hard
Source:Sword Art Online: Extra Edition
Tags:SAO ソードアート・オンライン Ending
BeatmapID:346690
BeatmapSetID:138837

[Difficulty]
HPDrainRate:6
CircleSize:4
OverallDifficulty:6
ApproachRate:7
SliderMultiplier:2.20000000596046
SliderTickRate:1

[Events]
//Background and Video events
0,0,"bg1.jpg",0,0
//Break Periods
//Storyboard Layer 0 (Background)
//Storyboard Layer 1 (Fail)
//Storyboard Layer 2 (Pass)
//Storyboard Layer 3 (Foreground)
//Storyboard Sound Samples
//Background Colour Transformations
3,100,163,162,255

[TimingPoints]
2545,714.285714285714,4,1,1,40,1,0
5402,-100,4,2,1,40,0,0
8259,-100,4,2,1,60,0,0
24687,-133.333333333333,4,2,1,60,0,0
25759,-100,4,2,1,60,0,0
33973,-100,4,1,1,60,0,0
34687,-80,4,1,1,60,0,0
35402,714.285714285714,4,2,1,50,1,1
35402,-80,4,1,1,60,0,1
71830,-80,4,1,1,60,0,1
78259,-80,4,1,1,60,0,0
79687,-200,4,1,1,50,0,0
82901,-100,4,1,1,50,0,0
86116,-100,4,1,1,40,0,0
86830,-100,4,1,1,30,0,0

[Colours]
Combo1 : 0,255,0
Combo2 : 141,61,194
Combo3 : 10,139,245
Combo4 : 39,203,216

[HitObjects]
416,208,2545,6,0,P|388:152|344:116,1,110,6|2,0:0|0:0,0:0:0:0:
296,188,3259,2,0,P|252:132|240:80,1,110,2|2,0:0|0:0,0:0:0:0:
224,32,3795,1,2,0:0:0:0:
176,76,3974,6,2,P|128:124|112:168,1,110.000000298023
176,232,4688,1,2,0:0:0:0:
296,312,4867,1,2,0:0:0:0:
256,168,5045,1,2,0:0:0:0:
216,312,5223,1,2,0:0:0:0:
328,232,5402,1,2,0:0:0:0:
256,192,5580,12,0,7544,0:0:0:0:
264,200,8259,6,0,P|344:116|392:96,1,165.000000447034
420,184,8974,1,0,0:0:0:0:
420,276,9152,1,0,0:0:0:0:
332,296,9331,2,0,L|276:324,1,55.0000001490115
184,312,9687,2,0,P|156:248|164:188,1,110.000000298023
296,140,10402,5,0,0:0:0:0:
216,116,10580,1,0,0:0:0:0:
160,12,10938,1,0,0:0:0:0:
128,104,11117,6,0,P|104:160|116:228,1,110.000000298023
184,180,11652,1,0,0:0:0:0:
336,204,12009,2,0,P|392:208|444:176,1,110.000000298023
376,120,12723,5,0,0:0:0:0:
256,8,13080,1,0,0:0:0:0:
248,84,13259,2,0,P|200:60|180:4,1,110.000000298023
60,12,13974,6,0,P|112:104|128:192,1,165.000000447034
128,240,14687,1,0,0:0:0:0:
212,308,15045,2,0,P|244:300|268:292,1,55.0000001490115
364,232,15580,5,0,0:0:0:0:
360,152,15759,2,0,P|348:120|320:80,1,55.0000001490115
272,52,16116,1,0,0:0:0:0:
128,104,16474,2,0,L|88:152,1,55.0000001490115
52,208,16830,6,0,B|64:264|120:300|176:296,1,165.000000447034
184,256,17545,2,0,P|240:248|296:272,1,110.000000298023
352,304,18081,1,0,0:0:0:0:
456,240,18437,5,0,0:0:0:0:
416,156,18616,2,0,P|364:108|312:76,1,110.000000298023
216,48,19331,2,0,L|172:120,1,55.0000001490115,0|0,0:0|0:0,0:0:0:0:
136,176,19688,1,0,0:0:0:0:
184,296,20044,6,0,P|248:312|304:292,1,110.000000298023
344,208,20759,2,0,P|360:156|344:92,1,110.000000298023
288,144,21294,2,0,P|240:128|176:92,1,110.000000298023
116,56,21830,1,0,0:0:0:0:
84,176,22188,5,0,0:0:0:0:
148,240,22366,1,0,0:0:0:0:
208,300,22545,1,0,0:0:0:0:
276,204,22902,5,0,0:0:0:0:
340,264,23081,1,0,0:0:0:0:
404,320,23259,2,0,P|444:248|444:200,1,110.000000298023
360,172,23974,2,0,P|312:144|276:92,1,110.000000298023
240,32,24509,1,0,0:0:0:0:
168,68,24688,2,0,P|136:108|96:232,1,165.000015258789
76,352,25759,6,0,L|128:324,1,55
184,352,26116,2,0,P|240:324|292:316,1,110.000000298023
368,312,26652,1,0,0:0:0:0:
440,300,26831,2,0,P|452:248|436:180,1,110.000000298023
360,144,27366,1,0,0:0:0:0:
272,112,27545,2,0,P|300:60|340:8,2,110.000000298023
124,192,28616,5,0,0:0:0:0:
144,316,28973,2,0,L|228:224,1,110.000000298023
276,164,29509,1,0,0:0:0:0:
332,96,29688,6,0,L|400:120,1,55.0000001490115
468,160,30045,1,0,0:0:0:0:
376,288,30402,2,0,L|316:320,1,55.0000001490115
248,272,30759,2,0,L|192:300,1,55.0000001490115
120,352,31116,6,0,P|92:296|92:220,1,110.000000298023
96,180,31652,2,0,L|128:116,1,55.0000001490115
176,64,32009,1,0,0:0:0:0:
304,80,32366,6,0,P|332:136|344:208,1,110.000000298023
368,276,33080,2,0,P|300:296|236:288,1,110.000000298023
128,308,33974,6,2,L|104:248,1,55.0000001490115
208,216,34331,2,2,L|232:156,1,55.0000001490115
200,92,34688,2,2,L|148:112,2,45.8333334575096
264,52,35045,2,2,L|280:-12,2,45.8333334575096
336,80,35402,6,0,B|416:120|452:172|464:240,1,206.250000558793,4|8,0:0|0:0,0:0:0:0:
424,280,36116,2,8,P|348:320|276:328,1,137.500000372529
288,248,36652,1,8,0:0:0:0:
228,304,36831,2,0,P|164:240|120:128,1,206.250000558793,2|0,0:0|0:0,0:0:0:0:
176,80,37545,1,8,0:0:0:0:
232,172,37902,5,0,0:0:0:0:
172,224,38081,1,0,0:0:0:0:
100,284,38259,2,0,P|188:316|248:320,1,137.500000372529,8|0,0:0|0:0,0:0:0:0:
248,216,38974,2,0,P|332:240|392:276,1,137.500000372529,8|0,0:0|0:0,0:0:0:0:
408,332,39509,1,0,0:0:0:0:
480,340,39688,6,0,P|484:268|460:200,1,137.500000372529,0|0,0:0|0:0,0:0:0:0:
348,120,40402,2,0,L|272:68,1,68.7500001862644
208,44,40759,2,8,L|160:108,1,68.7500001862644,0|4,0:0|0:0,0:0:0:0:
96,212,41116,5,0,0:0:0:0:
56,268,41295,1,0,0:0:0:0:
92,324,41474,1,0,0:0:0:0:
152,300,41652,1,0,0:0:0:0:
160,232,41831,2,0,P|236:208|296:216,1,137.500000372529,0|0,0:0|0:0,0:0:0:0:
300,284,42366,1,0,0:0:0:0:
360,324,42545,2,0,P|388:252|388:180,1,137.500000372529
340,112,43081,1,8,0:0:0:0:
312,28,43259,1,8,0:0:0:0:
404,4,43438,1,8,0:0:0:0:
432,92,43616,1,8,0:0:0:0:
380,216,43974,5,0,0:0:0:0:
432,272,44152,1,0,0:0:0:0:
392,332,44331,1,0,0:0:0:0:
320,308,44509,1,0,0:0:0:0:
312,236,44688,2,0,P|252:200|228:136,1,137.500000372529
216,44,45224,1,8,0:0:0:0:
136,56,45402,6,0,P|96:132|80:196,1,137.500000372529
56,248,45938,1,0,0:0:0:0:
112,296,46116,6,0,L|176:328,1,68.7500001862644
224,264,46474,2,0,L|304:236,1,68.7500001862644,0|0,0:0|0:0,0:0:0:0:
368,332,46831,6,0,P|396:252|376:188,1,137.500000372529,4|8,0:0|0:0,0:0:0:0:
328,128,47366,1,0,0:0:0:0:
288,232,47545,2,0,P|228:188|188:120,1,137.500000372529
120,84,48081,1,0,0:0:0:0:
80,188,48259,6,0,P|48:260|36:328,2,137.500000372529
172,256,49330,1,0,0:0:0:0:
232,320,49509,1,0,0:0:0:0:
312,324,49688,2,0,P|364:260|392:188,1,137.500000372529
276,208,50402,2,0,P|300:128|348:60,1,137.500000372529
396,64,50938,1,0,0:0:0:0:
480,140,51116,6,0,P|500:172|508:216,1,68.7500001862644
420,204,51474,2,0,L|444:268,1,68.7500001862644
388,328,51831,1,0,0:0:0:0:
348,236,52009,1,0,0:0:0:0:
292,328,52188,1,0,0:0:0:0:
260,236,52366,5,8,0:0:0:0:
192,168,52545,2,0,P|156:240|156:300,1,137.500000372529,2|0,0:0|0:0,0:0:0:0:
224,308,53081,1,0,0:0:0:0:
304,288,53259,2,0,L|352:228,1,68.7500001862644
288,156,53616,2,0,L|292:80,1,68.7500001862644
200,32,53974,6,0,P|128:56|76:104,1,137.500000372529,2|0,0:0|0:0,0:0:0:0:
64,164,54509,1,0,0:0:0:0:
76,232,54688,2,0,L|128:300,1,68.7500001862644
172,232,55045,2,0,L|244:228,1,68.7500001862644
256,192,55401,12,4,56830,0:0:0:0:
192,80,57545,6,0,L|136:152,1,68.7500001862644
96,200,57902,2,0,L|120:276,1,68.7500001862644
180,324,58259,2,0,B|256:288|312:288|384:292,1,206.250000558793
424,352,58974,2,0,B|456:328|464:288|448:240|424:204,1,137.500000372529
376,172,59509,1,0,0:0:0:0:
288,156,59688,6,0,L|328:80,2,68.7500001862644
240,228,60224,1,0,0:0:0:0:
160,276,60402,2,0,L|88:304,2,68.7500001862644
240,228,60938,1,0,0:0:0:0:
312,324,61116,6,0,P|376:264|408:136,1,206.250000558793
372,72,61831,1,0,0:0:0:0:
300,56,62009,1,0,0:0:0:0:
300,124,62188,2,0,L|248:168,1,68.7500001862644
168,248,62545,6,0,P|160:184|128:108,1,137.500000372529
80,60,63081,1,0,0:0:0:0:
64,160,63259,2,0,L|88:240,1,68.7500001862644
116,324,63616,1,0,0:0:0:0:
208,268,63795,1,0,0:0:0:0:
276,336,63974,6,0,P|340:296|404:284,1,137.500000372529,2|0,0:0|0:0,0:0:0:0:
472,212,64688,1,2,0:0:0:0:
400,140,65044,2,0,L|340:96,1,68.7500001862644
284,160,65402,6,0,P|248:104|248:32,2,137.500000372529,2|0|0,0:0|0:0|0:0,0:0:0:0:
352,212,66295,1,0,0:0:0:0:
344,300,66474,1,0,0:0:0:0:
260,268,66652,1,0,0:0:0:0:
216,352,66831,6,0,B|180:324|148:276|128:228|132:164,1,206.250000558793,4|0,0:0|0:0,0:0:0:0:
140,140,67545,2,0,P|176:84|256:44,1,137.500000372529
320,32,68259,6,0,P|388:76|408:152,1,137.500000372529
412,216,68794,1,0,0:0:0:0:
352,284,68974,2,0,L|288:316,1,68.7500001862644
256,236,69331,2,0,L|184:272,1,68.7500001862644
128,336,69688,6,0,P|100:260|96:192,1,137.500000372529,8|0,0:0|0:0,0:0:0:0:
184,64,70402,2,0,B|148:132|144:132,1,68.7500001862644
96,204,70759,1,0,0:0:0:0:
180,240,70938,1,0,0:0:0:0:
248,292,71116,6,0,P|328:328|392:336,1,137.500000372529
464,312,71830,2,8,L|480:232,1,68.75
428,184,72188,2,8,L|408:112,1,68.75
336,52,72545,5,0,0:0:0:0:
248,64,72724,2,0,P|164:88|48:132,1,206.25
144,184,73438,1,0,0:0:0:0:
76,240,73616,2,0,P|104:264|140:276,1,68.7500001862644
264,240,73974,6,0,P|232:304|184:360,2,137.500000372529,2|8|8,0:0|0:0|0:0,0:0:0:0:
248,172,74866,1,8,0:0:0:0:
296,120,75045,2,8,L|360:56,1,68.7500001862644
432,56,75402,6,0,P|440:144|428:200,1,137.500000372529
384,268,75938,1,0,0:0:0:0:
300,332,76116,2,0,L|252:268,1,68.7500001862644
168,220,76474,2,0,L|196:144,1,68.7500001862644
224,68,76831,5,8,0:0:0:0:
300,88,77009,1,8,0:0:0:0:
376,104,77188,2,8,P|400:184|388:248,1,137.500000372529,8|4,0:0|0:0,0:0:0:0:
340,288,77724,1,0,0:0:0:0:
280,324,77902,2,0,L|208:268,1,68.7500001862644
128,320,78259,6,0,P|88:260|72:180,1,137.500000372529
232,136,78973,2,0,P|276:212|288:272,1,137.500000372529
212,332,79687,6,0,B|272:372|364:360|412:304|420:212,1,275.000000745057
492,172,81830,2,0,P|448:128|392:128,1,110.000000298023
432,224,82902,6,0,L|340:304,1,110.000000298023
236,312,83616,1,0,0:0:0:0:
204,244,83794,1,0,0:0:0:0:
256,192,83974,1,0,0:0:0:0:
256,192,84152,12,4,87545,0:0:0:0:
