osu file format v9

[General]
AudioFilename: fate zero ed.mp3
AudioLeadIn: 500
PreviewTime: 57563
Countdown: 0
SampleSet: Soft
StackLeniency: 0.7
Mode: 0
LetterboxInBreaks: 0

[Editor]
DistanceSpacing: 1.3
BeatDivisor: 2
GridSize: 4

[Metadata]
Title:MEMORIA (TV Size)
Artist:Aoi Eir
Creator:Megurine Luka
Version:Rider
Source:Fate/Zero
Tags:JauiPlaY kazenotama Eiru [BRS]miku Twice

[Difficulty]
HPDrainRate:2
CircleSize:3
OverallDifficulty:2
ApproachRate:2
SliderMultiplier:0.8
SliderTickRate:2

[Events]
//Background and Video events
0,0,"BG.jpg"
Video,800,"fz.flv"
//Break Periods
2,19340,24376
//Storyboard Layer 0 (Background)
//Storyboard Layer 1 (Fail)
//Storyboard Layer 2 (Pass)
//Storyboard Layer 3 (Foreground)
//Storyboard Sound Samples
//Background Colour Transformations
3,100,163,162,255

[TimingPoints]
390,468.75,4,2,1,20,1,0
1806,-100,4,2,1,60,0,0
25936,-100,4,2,1,70,0,0
58515,-100,4,2,1,85,0,1
73456,-100,4,2,1,85,0,0
73515,-100,4,2,1,85,0,1
88280,-100,4,2,1,50,0,0

[Colours]
Combo1 : 239,135,41
Combo2 : 234,210,47
Combo3 : 72,94,176
Combo4 : 206,30,30
SliderBorder : 195,193,194

[HitObjects]
256,264,1327,2,0,B|256:344,2,80,0|2|0
315,178,2733,2,0,B|307:138,1,40,2|0
204,138,3436,2,0,B|197:178,1,40,0|2
120,107,4140,5,0
203,45,4608,1,2
309,45,5077,1,0
392,107,5546,1,2
370,208,6015,5,0
316,296,6483,2,0,B|308:336,1,40,0|2
203,335,7186,2,0,B|196:296,1,40,2|0
142,206,7890,5,0
200,120,8358,2,0,B|232:136|256:-36|280:136|312:120,1,160,2|2
256,208,9765,5,0
328,280,10233,2,0,B|304:308|256:320|208:308|184:280,1,160,2|2
108,208,11640,5,0
184,136,12108,2,0,B|208:108|256:96|304:108|328:136,1,160,2|2
404,208,13515,5,0
320,272,13983,2,0,B|284:256|256:224|256:224|228:256|192:272,1,160,2|2
256,192,15390,12,4,19140
200,300,25936,6,0,B|256:336|312:300,1,120,0|2
396,240,27108,2,0,B|356:212|380:160|380:160|352:132|316:140,1,160,0|8
256,56,28515,5,2
196,140,28983,2,0,B|160:132|132:160|132:160|156:212|116:240,1,160,0|8
156,336,30390,5,2
256,296,30858,2,0,B|256:388,2,80,0|0|8
356,336,32265,5,2
328,228,32733,2,0,B|303:199|255:187|207:199|183:227,1,160,0|8
88,200,34140,5,2
148,115,34608,2,0,B|103:92|120:35|169:2|203:36,1,160,0|8
256,128,36015,5,2
308,37,36483,2,0,B|342:2|391:35|408:92|364:115,1,160,0|8
424,200,37890,5,2
336,256,38358,1,0
256,192,38827,5,0
176,256,39296,1,8
124,168,39765,5,2
192,92,40233,2,0,B|232:84|256:48|256:48|280:84|320:92,1,160,0|8
388,168,41640,5,6
320,248,42108,2,0,B|308:288,1,40,8|0
203,286,42811,2,0,B|192:248,1,40,0|8
256,164,43515,5,2
320,80,43983,2,0,B|308:40,1,40,8|0
203,41,44686,2,0,B|191:79,1,40,0|8
136,168,45390,5,2
168,268,45858,2,0,B|216:292,1,40,8|0
308,285,46561,2,0,B|344:268,1,40,0|8
376,168,47265,5,2
328,76,47733,1,8
256,152,48202,5,0
184,76,48671,1,8
156,176,49140,6,0,B|136:228|136:228|100:236|88:268,2,120,6|2|8
256,152,51015,2,0,B|256:276,2,120,6|2|8
356,176,52890,2,0,B|376:228|376:228|412:236|424:268,2,120,6|2|8
384,76,54765,6,0,B|352:68|352:68|344:44|320:36,1,80,0|8
256,116,55702,1,0
191,36,56171,2,0,B|168:44|160:68|160:68|128:76,1,80,8|8
256,240,57577,6,0,B|256:320,1,80,0|8
348,268,58515,6,0,B|372:248|372:248|384:200|436:196,2,120,4|2|8
386,364,60390,2,0,B|310:344,1,80,0|8
203,343,61327,2,0,B|126:364,1,80,0|8
164,268,62265,6,0,B|140:248|140:248|128:200|76:196,2,120,4|2|8
188,166,64140,2,0,B|186:124|204:89,1,80,0|8
307,88,65077,2,0,B|325:124|324:166,1,80,2|8
256,244,66015,6,0,B|256:372,2,120,4|2|8
200,156,67890,2,0,B|256:120|312:156,2,120,0|2|8
200,260,69765,6,0,B|256:296|312:260,2,120,4|2|8
144,172,71640,1,0
204,88,72108,1,8
308,88,72577,5,0
368,172,73046,1,8
408,268,73515,6,0,B|432:300|472:284|472:284|500:296|492:324,2,120,4|2|8
338,345,75390,2,0,B|305:317|307:272,1,80,0|8
204,274,76327,2,0,B|206:317|174:345,1,80,0|8
104,268,77265,6,0,B|80:300|40:284|40:284|12:296|20:324,2,120,4|2|8
114,164,79140,1,0
202,218,79608,1,8
310,218,80077,1,0
398,164,80546,1,8
308,108,81015,6,0,B|347:66|347:66|383:70|395:35,2,120,4|2|8
204,108,82890,2,0,B|164:66|164:66|128:70|116:35,2,120,0|2|8
256,196,84765,6,0,B|256:320,2,120,4|2|8
256,192,86405,12,4,88280
