osu file format v9

[General]
AudioFilename: fate zero ed.mp3
AudioLeadIn: 500
PreviewTime: 57563
Countdown: 0
SampleSet: Soft
StackLeniency: 0.7
Mode: 0
LetterboxInBreaks: 0

[Editor]
DistanceSpacing: 1.4
BeatDivisor: 4
GridSize: 4

[Metadata]
Title:MEMORIA (TV Size)
Artist:Aoi Eir
Creator:Megurine Luka
Version:Lancer
Source:Fate/Zero
Tags:JauiPlaY kazenotama Eiru [BRS]miku Twice

[Difficulty]
HPDrainRate:6
CircleSize:4
OverallDifficulty:6
ApproachRate:8
SliderMultiplier:1.7
SliderTickRate:2

[Events]
//Background and Video events
0,0,"BG.jpg"
Video,800,"fz.flv"
//Break Periods
//Storyboard Layer 0 (Background)
//Storyboard Layer 1 (Fail)
//Storyboard Layer 2 (Pass)
//Storyboard Layer 3 (Foreground)
//Storyboard Sound Samples
//Background Colour Transformations
3,100,163,162,255

[TimingPoints]
390,468.75,4,2,1,20,1,0
2265,-100,4,2,1,50,0,0
7772,-100,4,1,1,50,0,0
8007,-100,4,2,1,50,0,0
11522,-100,4,1,1,50,0,0
11757,-100,4,2,1,50,0,0
19140,-100,4,2,1,70,0,0
20897,-100,4,1,1,70,0,0
21132,-100,4,2,1,70,0,0
24530,-100,4,2,1,50,0,0
26522,-100,4,1,2,50,0,0
26757,-100,4,2,1,50,0,0
27577,-100,4,1,1,50,0,0
27811,-100,4,2,1,50,0,0
28515,-100,4,1,1,50,0,0
28632,-100,4,2,1,50,0,0
29452,-100,4,1,1,50,0,0
29569,-100,4,2,1,50,0,0
30390,-100,4,1,1,50,0,0
30507,-100,4,2,1,50,0,0
31327,-100,4,1,1,50,0,0
31561,-100,4,2,1,50,0,0
32265,-100,4,1,1,50,0,0
32382,-100,4,2,1,50,0,0
33202,-100,4,1,1,50,0,0
33319,-100,4,2,1,50,0,0
34140,-100,4,1,1,50,0,0
34257,-100,4,2,1,50,0,0
35077,-100,4,1,1,50,0,0
35311,-100,4,2,1,50,0,0
36015,-100,4,1,1,50,0,0
36249,-100,4,2,1,50,0,0
36952,-100,4,1,1,50,0,0
37186,-100,4,2,1,50,0,0
37890,-100,4,1,1,50,0,0
38007,-100,4,2,1,50,0,0
38827,-100,4,1,1,50,0,0
38944,-100,4,2,1,50,0,0
39765,-100,4,1,1,50,0,0
39882,-100,4,2,1,50,0,0
40702,-100,4,1,1,50,0,0
40819,-100,4,2,1,50,0,0
41288,-100,4,1,1,50,0,0
41640,-100,4,2,1,50,0,0
41757,-100,4,2,1,50,0,0
42577,-100,4,1,1,50,0,0
42811,-100,4,2,1,50,0,0
43515,-100,4,2,1,50,0,0
43632,-100,4,2,1,50,0,0
44452,-100,4,1,1,50,0,0
44569,-100,4,2,1,50,0,0
45272,-100,4,1,2,40,0,0
45507,-100,4,2,1,50,0,0
46327,-100,4,1,1,50,0,0
46561,-100,4,2,1,50,0,0
47265,-100,4,1,1,50,0,0
47499,-100,4,2,1,50,0,0
48202,-100,4,1,1,50,0,0
48319,-100,4,2,1,50,0,0
49140,-100,4,1,1,50,0,0
49374,-100,4,2,1,50,0,0
50077,-100,4,1,1,50,0,0
50194,-100,4,2,1,50,0,0
51015,-100,4,1,1,50,0,0
51132,-100,4,2,1,50,0,0
51952,-100,4,1,1,50,0,0
52186,-100,4,2,1,50,0,0
52890,-100,4,1,1,50,0,0
53007,-100,4,2,1,50,0,0
53827,-100,4,1,1,50,0,0
54061,-100,4,2,1,50,0,0
58515,-100,4,2,1,80,0,1
59218,-133.333333333333,4,2,1,80,0,1
59921,-100,4,2,1,80,0,1
61327,-100,4,2,2,80,0,1
61561,-100,4,2,1,80,0,1
62265,-100,4,2,2,80,0,1
62499,-100,4,2,1,80,0,1
63202,-100,4,2,2,80,0,1
63319,-100,4,2,1,80,0,1
65077,-100,4,2,2,80,0,1
65194,-100,4,2,1,80,0,1
66015,-100,4,2,2,80,0,1
66249,-100,4,2,1,80,0,1
66952,-100,4,2,2,80,0,1
67186,-100,4,2,1,80,0,1
67890,-100,4,2,2,80,0,1
68007,-100,4,2,1,80,0,1
68827,-100,4,2,2,80,0,1
68944,-100,4,2,1,80,0,1
69765,-100,4,2,2,80,0,1
69882,-100,4,2,1,80,0,1
71640,-100,4,2,2,80,0,1
72694,-100,4,2,1,80,0,1
73456,-100,4,2,1,80,0,0
73515,-100,4,2,1,80,0,1
74452,-100,4,2,2,80,0,1
74686,-100,4,2,1,80,0,1
75390,-100,4,2,2,80,0,1
75507,-100,4,2,1,80,0,1
76327,-100,4,2,2,80,0,1
76444,-100,4,2,1,80,0,1
77265,-100,4,2,2,80,0,1
77382,-100,4,2,1,80,0,1
78202,-100,4,2,2,80,0,1
78436,-100,4,2,1,80,0,1
80077,-100,4,2,2,80,0,1
80311,-100,4,2,1,80,0,1
81015,-100,4,2,2,80,0,1
81132,-100,4,2,1,80,0,1
81952,-100,4,2,2,80,0,1
82186,-100,4,2,1,80,0,1
83827,-100,4,2,2,80,0,1
83944,-100,4,2,1,80,0,1
84765,-100,4,2,2,80,0,1
84882,-100,4,2,1,80,0,1
85702,-100,4,2,2,80,0,1
88280,-100,4,2,2,50,0,0

[Colours]
Combo1 : 239,135,41
Combo2 : 234,210,47
Combo3 : 72,94,176
Combo4 : 206,30,30
SliderBorder : 195,193,194

[HitObjects]
224,304,1327,2,0,B|200:264|224:224,1,85,0|0
287,160,1796,2,0,B|312:120|288:80,1,85,0|0
196,60,2265,6,0,B|172:60|156:84|156:84|140:108|116:108,2,85,2|0|0
288,80,2968,2,0,B|320:88|344:104|344:104|320:160|360:224,1,170,0|0
416,296,3671,1,0
312,336,3905,5,0
312,336,4140,2,0,B|264:336|220:328,1,85,2|0
256,224,4608,1,0
168,96,4843,1,0
344,96,5077,1,0
400,192,5311,1,0
344,288,5546,1,0
232,328,5780,5,0
208,336,5897,1,0
184,344,6015,2,0,B|120:360|96:312|96:312|112:280|96:248,1,170,2|0
44,140,6718,1,0
60,116,6835,1,0
84,100,6952,1,0
200,72,7186,1,0
304,112,7421,5,0
344,212,7655,2,0,B|344:308|256:348,1,170,0|0
152,320,8358,1,0
48,248,8593,1,0
48,120,8827,1,0
160,56,9061,2,0,B|200:40|200:40|240:56,1,85,0|0
352,120,9530,5,0
368,144,9647,1,0
384,168,9765,1,2
400,280,9999,2,0,B|368:288|368:320|368:320|344:336|320:320,1,85,0|0
232,344,10468,2,0,B|192:328|152:344|152:344|128:304|152:256,1,170,0|0
256,152,11171,1,0
361,259,11405,2,0,B|384:304|360:344|360:344|320:328|280:344,1,170
256,236,12108,5,0
288,128,12343,2,0,B|320:120|352:128|352:128|352:184|392:224,1,170
256,320,13046,1,0
152,232,13280,5,0
128,248,13397,1,0
112,272,13515,1,2
176,344,13749,2,0,B|200:344|216:328|216:328|240:328|264:328,1,85,0|0
348,340,14218,1,0
376,348,14335,1,0
404,340,14452,1,0
476,280,14686,2,0,B|487:234|453:200,1,85
256,192,15155,12,2,17265
256,192,17499,5,0
144,176,17733,1,0
32,192,17968,1,0
32,304,18202,2,0,B|80:304|104:344,1,85,2|0
256,304,18671,2,0,B|208:304|184:344,1,85
144,248,19140,6,0,B|144:160,2,85,4|0|8
256,304,19843,1,0
368,248,20077,2,0,B|400:280|400:328,2,85,2|0|8
256,192,20780,6,0,B|176:248|96:192,1,170,4|0
56,104,21483,1,8
144,48,21718,1,0
232,104,21952,1,2
336,112,22186,1,0
336,112,22421,2,0,B|376:136|376:184,1,85,8|0
184,272,22890,6,0,B|144:248|144:200,1,85,4|0
144,104,23358,2,0,B|168:64|216:64,1,85,8|0
300,60,23827,1,0
372,108,24061,1,0
360,192,24296,2,0,B|336:256|336:256|312:280,1,85,8|4
240,336,24765,2,0,B|200:332|200:332|168:288,1,85,0|8
116,208,25233,5,8
276,176,25585,2,0,B|276:220,1,42.5,0|8
240,336,25936,1,8
96,320,26171,5,0
96,320,26405,2,0,B|48:240|96:152,1,170,2|0
196,56,27108,1,8
196,56,27343,2,0,B|244:56|268:96,1,85,0|0
280,208,27811,5,0
304,232,27929,1,0
336,240,28046,1,8
448,192,28280,2,0,B|448:144|408:120,1,85,0|0
312,192,28749,2,0,B|312:240|352:264,1,85,0|10
464,240,29218,2,0,B|464:288|424:312,1,85,0|0
336,344,29686,5,0
256,296,29921,1,8
176,344,30155,1,0
80,344,30390,2,0,B|48:304|80:264|80:264|136:264|136:208,1,170,0|8
128,120,31093,1,0
128,120,31327,1,0
220,152,31561,2,0,B|220:200|260:224,1,85,0|8
332,280,32030,2,0,B|364:288|364:328|404:328,1,85,0|0
496,320,32499,5,0
464,232,32733,1,8
432,144,32968,1,0
344,192,33202,2,0,B|304:168|304:120,1,85,0|0
376,56,33671,1,8
376,56,33905,1,0
432,144,34140,2,0,B|488:232|408:296,1,170,0|8
340,344,34843,5,0
252,340,35077,1,0
176,292,35311,2,0,B|152:252|176:204,1,85,2|8
296,200,35780,2,0,B|317:159|293:119,1,85,0|0
192,64,36249,5,0
160,72,36366,1,0
136,88,36483,1,8
88,192,36718,2,0,B|88:216|88:216|144:256,1,85,0|0
256,320,37186,1,0
304,208,37421,1,8
304,208,37655,1,0
400,136,37890,6,0,B|448:152|448:200,1,85,0|0
424,340,38358,2,0,B|376:324|376:276,1,85,8|0
376,277,38827,1,0
276,224,39061,2,0,B|248:184|192:188,1,85,2|8
160,296,39530,2,0,B|129:331|82:322,1,85,0|0
56,232,39999,5,0
132,152,40233,2,0,B|132:104|92:80,2,85,8|0|0
176,256,40936,1,8
280,288,41171,2,0,B|308:328|364:328,1,85,8|0
448,280,41640,6,0,B|496:200|440:120,1,170,4|8
352,48,42343,1,0
264,120,42577,2,0,B|240:160|264:200,1,85,0|0
312,232,42929,2,0,B|336:288|304:344|264:344,1,127.5,2|0
184,336,43515,2,0,B|84:340|44:228,1,170,4|8
120,184,44218,5,0
88,96,44452,2,0,B|40:112|32:160,2,85,0|0|8
120,184,45155,2,0,B|152:272|176:128|216:264|240:128|264:256|280:200,1,170,0|0
344,272,45858,1,8
432,316,46093,6,0,B|472:292|472:244,2,85,0|0|0
344,352,46796,1,8
248,344,47030,2,0,B|208:320|208:360|168:352,1,85
80,320,47499,5,0
80,216,47733,1,8
176,272,47968,1,0
184,160,48202,1,0
232,48,48436,1,0
328,128,48671,1,8
352,248,48905,6,0,B|352:296|352:296|376:328,1,85,0|4
432,200,49374,1,0
488,72,49608,2,0,B|510:101|510:101|510:149,1,85,8|0
472,248,50077,2,0,B|456:272|456:272|400:272,1,85
399,272,50546,1,8
312,216,50780,5,0
280,224,50897,1,0
256,240,51015,1,4
168,324,51249,1,0
168,324,51483,1,8
40,304,51718,2,0,B|32:250|84:214,1,85
88,128,52186,2,0,B|104:96|136:96|136:96|152:80,1,85,0|8
256,96,52655,5,0
256,96,52890,2,0,B|256:264,1,170,4|8
336,328,53593,1,0
416,264,53827,2,0,B|456:240|456:192,1,85
440,96,54296,2,0,B|392:96,2,42.5,8|0|12
256,192,54999,5,0
376,312,55233,1,8
424,152,55468,1,0
256,192,55702,1,8
200,356,55936,1,0
72,232,56171,1,8
48,208,56288,1,8
40,176,56405,1,0
40,144,56522,1,0
48,112,56640,1,4
376,144,57577,6,0,B|376:192|336:216,1,85,2|0
136,144,58046,2,0,B|136:192|176:216,1,85,10|0
256,288,58515,6,0,B|256:376,2,85,4|0|8
256,288,59218,2,0,B|256:160,1,127.499996200204
256,288,59921,5,8
360,336,60155,2,0,B|456:320|456:216,1,170
352,192,60858,1,8
160,192,61093,1,0
256,96,61327,1,2
256,288,61561,2,0,B|224:352|192:356,1,85,0|2
104,320,62030,5,0
90,294,62147,1,0
87,265,62265,1,12
152,176,62499,2,0,B|184:144|232:144,1,85,0|8
336,280,62968,2,0,B|304:312|256:312,1,85,0|2
152,280,63436,5,0
152,280,63671,1,8
48,312,63905,2,0,B|8:232|48:144,1,170,0|0
140,112,64608,2,0,B|188:112|212:72,2,85,8|0|2
128,200,65311,2,0,B|128:248|152:280,1,85,0|10
236,316,65780,5,0
260,324,65897,1,0
284,332,66015,1,12
376,344,66249,2,0,B|424:344|448:304,1,85,0|8
496,228,66718,1,0
496,228,66952,2,0,B|488:180|445:163,1,85,2|0
288,216,67421,5,8
216,344,67655,2,0,B|176:360|176:360|128:360,1,85,4|8
64,232,68124,1,0
112,96,68358,2,0,B|160:88|192:120,1,85,8|4
400,96,68827,2,0,B|352:88|320:120,1,85,2|0
256,232,69296,1,8
256,232,69530,6,0,B|256:320,1,85,0|12
400,248,69999,2,0,B|384:192|312:192,1,85,0|8
288,288,70468,2,0,B|208:336|128:280,1,170,2|0
112,264,71054,1,0
96,248,71171,1,8
80,80,71405,2,0,B|32:120|32:168,1,85,0|0
120,224,71874,1,0
208,288,72108,2,0,B|209:317|161:357,1,85,8|0
56,352,72577,6,0,B|56:264,1,85,8|0
56,168,73046,2,0,B|72:72|168:56,1,170,8|4
256,96,73749,1,0
144,224,73983,5,8
368,224,74218,1,0
256,344,74452,1,2
368,224,74686,1,0
144,224,74921,1,8
112,320,75155,2,0,B|64:344|32:312,1,85,0|8
16,216,75624,1,0
44,128,75858,1,8
136,88,76093,5,0
160,184,76327,1,2
220,264,76561,1,0
316,272,76796,1,8
340,180,77030,5,0
356,160,77147,1,0
380,140,77265,2,0,B|412:108|460:108,1,85,12|0
472,272,77733,2,0,B|472:320|432:344,1,85,8|0
328,304,78202,1,8
264,208,78436,1,0
200,112,78671,1,8
104,168,78905,6,0,B|64:256|104:336,1,170,4|0
192,264,79608,2,0,B|224:232|272:240,1,85,8|0
376,208,80077,2,0,B|416:240|416:296,2,85,8|0|8
280,152,80780,5,0
256,160,80897,1,0
232,168,81015,2,0,B|192:216|192:216|192:240,1,85,12|0
272,312,81483,2,0,B|344:360,1,85,8|0
448,328,81952,1,8
376,240,82186,2,0,B|352:240|352:240|312:288,1,85,0|8
216,344,82655,6,0,B|152:280|192:184,1,170,4|0
256,96,83358,1,8
256,96,83593,2,0,B|224:64|176:64,1,85,0|8
80,208,84061,2,0,B|64:168|80:120,1,85,0|8
180,64,84530,5,0
204,80,84647,1,0
228,104,84765,1,12
256,192,84999,1,0
192,280,85233,1,8
280,352,85468,2,0,B|328:352|352:312,1,85,0|8
256,224,85936,1,0
256,96,86171,1,8
256,192,86405,12,4,88280
