osu file format v14

[General]
AudioFilename: -TV.Size.mp3
AudioLeadIn: 1000
PreviewTime: 62044
Countdown: 0
SampleSet: Soft
StackLeniency: 0.7
Mode: 0
LetterboxInBreaks: 0
WidescreenStoryboard: 0

[Editor]
DistanceSpacing: 1
BeatDivisor: 4
GridSize: 4
TimelineZoom: 2.5

[Metadata]
Title:Lapis Lazuli (TV size ver.)
TitleUnicode:ラピスラズリ (TV size ver.)
Artist:Aoi Eir
ArtistUnicode:藍井エイル
Creator:tutuhaha
Version:Hard
Source:アルスラーン戦記
Tags:Megurine Luka THE HEROIC LEGEND OF ARSLAN Senki Ending
BeatmapID:677742
BeatmapSetID:301973

[Difficulty]
HPDrainRate:5
CircleSize:4
OverallDifficulty:6
ApproachRate:8
SliderMultiplier:1.8
SliderTickRate:1

[Events]
//Background and Video events
0,0,"BG.jpg",0,0
Video,0,"optc.flv"
//Break Periods
//Storyboard Layer 0 (Background)
//Storyboard Layer 1 (Fail)
//Storyboard Layer 2 (Pass)
//Storyboard Layer 3 (Foreground)
//Storyboard Sound Samples

[TimingPoints]
705,535.714285714286,4,2,2,60,1,0
11419,-100,4,2,2,40,0,0
11553,-100,4,2,2,60,0,0
17847,-100,4,2,1,60,0,0
19990,-100,4,2,2,70,0,0
27490,-100,4,2,1,50,0,0
28562,-100,4,2,2,55,0,0
44097,-100,4,2,2,60,0,0
44633,-100,4,2,1,60,0,0
45705,-100,4,2,2,60,0,0
60705,-100,4,2,1,60,0,0
62044,-100,4,2,2,60,0,0
62847,-100,4,2,1,60,0,1
81062,-83.3333333333333,4,2,2,70,0,1
82133,-100,4,2,2,60,0,0
87490,-100,4,2,2,80,0,0

[Colours]
Combo1 : 230,0,115
Combo2 : 217,217,0
Combo3 : 128,0,255
Combo4 : 117,234,0
Combo5 : 0,0,128

[HitObjects]
388,272,2312,5,2,0:0:0:0:
388,272,2847,6,0,P|344:240|324:212,1,90,4|0,0:0|0:0,0:0:0:0:
308,164,3249,1,0,0:0:0:0:
300,116,3383,2,0,P|260:80|152:112,1,135,2|0,0:0|0:0,0:0:0:0:
132,92,3919,6,0,L|60:56,1,45
112,184,4321,1,0,0:0:0:0:
112,184,4455,2,0,P|144:228|188:244,1,90,2|0,0:0|0:0,0:0:0:0:
224,252,4856,1,0,0:0:0:0:
272,244,4990,5,0,0:0:0:0:
364,204,5258,1,0,0:0:0:0:
400,296,5526,1,2,0:0:0:0:
392,164,5794,5,0,0:0:0:0:
364,204,5928,2,0,P|340:248|328:312,1,90
300,328,6330,2,0,L|308:376,2,45,0|0|2,0:0|0:0|0:0,0:0:0:0:
220,268,6865,1,0,0:0:0:0:
220,268,7133,6,0,P|196:196|160:164,1,90
148,156,7535,2,0,P|124:118|115:74,1,90,2|0,0:0|0:0,0:0:0:0:
88,32,7937,1,2,0:0:0:0:
236,36,8205,6,0,P|248:92|272:132,1,90
276,168,8606,2,0,P|312:208|336:264,1,90,2|0,0:0|0:0,0:0:0:0:
336,288,9008,1,2,0:0:0:0:
420,340,9276,5,0,0:0:0:0:
376,320,9410,2,0,P|328:324|280:348,1,90
240,340,9812,2,0,L|160:332,2,45,2|0|0,0:0|0:0|0:0,0:0:0:0:
220,224,10347,5,0,0:0:0:0:
264,204,10481,2,0,P|300:240|372:260,1,90
384,268,10883,2,0,L|392:212,1,45,2|0,0:0|0:0,0:0:0:0:
400,176,11151,1,0,0:0:0:0:
340,16,11419,6,0,P|376:76|392:128,1,90,4|0,0:1|0:0,0:0:0:0:
380,144,11821,1,0,0:0:0:0:
372,192,11955,2,0,P|412:260|444:292,1,90,2|0,0:0|0:0,0:0:0:0:
500,324,12490,6,0,P|416:332|376:380,1,135
336,352,13026,1,2,0:0:0:0:
276,216,13294,1,0,0:0:0:0:
236,308,13562,5,0,0:0:0:0:
328,276,13830,1,0,0:0:0:0:
308,372,14097,1,2,0:0:0:0:
276,216,14365,1,0,0:0:0:0:
268,168,14499,6,0,P|293:109|339:66,1,90
349,61,14901,1,0,0:0:0:0:
395,39,15035,1,0,0:0:0:0:
443,36,15169,1,2,0:0:0:0:
456,240,15437,1,0,0:0:0:0:
456,240,15705,6,0,P|428:192|420:140,1,90
455,238,16106,2,0,P|411:244|367:236,1,90,2|0,0:0|0:0,0:0:0:0:
320,224,16508,1,0,0:0:0:0:
492,328,16776,5,0,0:0:0:0:
452,164,17044,1,0,0:0:0:0:
396,332,17312,1,2,0:0:0:0:
396,332,17847,6,0,L|300:308,1,90,12|0,0:0|0:0,0:0:0:0:
512,240,18383,2,0,L|416:216,1,90,12|0,0:0|0:0,0:0:0:0:
348,140,18919,6,0,P|388:172|420:216,1,90,12|0,0:0|0:0,0:0:0:0:
332,128,19321,2,0,P|336:68|356:32,1,90,0|0,1:0|0:0,0:0:0:0:
424,88,19722,2,0,L|460:140,1,45,8|0,0:0|0:0,0:0:0:0:
328,144,19990,6,0,P|268:140|220:160,1,90,4|0,0:1|0:0,0:0:0:0:
192,168,20392,1,0,0:0:0:0:
144,180,20526,2,0,P|92:184|24:176,1,90,2|0,0:0|0:0,0:0:0:0:
48,88,21062,5,0,0:0:0:0:
128,28,21330,2,0,L|188:40,1,45,0|2,0:0|0:0,0:0:0:0:
236,140,21731,2,0,L|192:132,1,45,0|2,0:0|0:0,0:0:0:0:
288,240,22133,6,0,P|344:244|396:232,1,90
424,220,22535,1,2,0:0:0:0:
308,120,22803,2,0,L|284:180,1,45,0|2,0:0|0:0,0:0:0:0:
196,264,23205,5,0,0:0:0:0:
244,272,23338,1,0,0:0:0:0:
288,292,23472,1,2,0:0:0:0:
324,328,23606,1,0,0:0:0:0:
352,368,23740,2,0,P|328:308|332:248,1,90,0|2,0:0|0:0,0:0:0:0:
332,232,24142,1,0,0:0:0:0:
336,184,24276,6,0,P|344:120|336:72,1,90,4|0,0:1|0:0,0:0:0:0:
280,16,24812,2,0,P|228:40|188:72,1,90,2|0,0:0|0:0,0:0:0:0:
136,128,25347,5,0,0:0:0:0:
32,208,25615,2,0,L|104:216,1,45,0|2,0:0|0:0,0:0:0:0:
192,276,26017,2,0,L|116:292,1,45,0|2,0:0|0:0,0:0:0:0:
244,180,26419,5,2,0:0:0:0:
288,196,26553,1,0,0:0:0:0:
324,220,26687,1,2,0:0:0:0:
352,256,26821,1,0,0:0:0:0:
372,296,26955,6,0,P|412:284|428:272,1,45,2|0,0:0|0:0,0:0:0:0:
448,252,27222,2,0,P|476:221|484:203,1,45,2|0,0:0|0:0,0:0:0:0:
488,176,27490,5,12,0:0:0:0:
492,132,27624,2,0,P|440:144|400:184,1,90,0|0,1:0|0:0,0:0:0:0:
336,144,28026,2,0,L|332:88,1,45,8|0,0:0|0:0,0:0:0:0:
268,192,28294,2,0,L|271:236,1,45,8|0,0:0|0:0,0:0:0:0:
196,152,28562,6,0,P|160:112|116:92,1,90,10|0,0:0|0:0,0:0:0:0:
55,206,29097,2,0,L|92:180,2,45,8|0|0,0:0|0:0|0:0,0:0:0:0:
164,232,29633,5,10,0:0:0:0:
220,316,29901,1,0,0:0:0:0:
265,293,30035,1,0,0:0:0:0:
302,262,30169,2,0,P|336:220|380:200,1,90,8|0,0:0|0:0,0:0:0:0:
460,168,30705,6,0,L|504:124,1,45,10|0,0:0|0:0,0:0:0:0:
496,88,30972,2,0,P|440:80|408:56,1,90,0|8,0:0|0:0,0:0:0:0:
372,36,31374,1,0,0:0:0:0:
324,28,31508,2,0,L|216:32,1,90,0|10,0:0|0:0,0:0:0:0:
108,76,32044,2,0,L|152:88,1,45
156,132,32312,2,0,P|168:188|164:240,1,90,8|0,0:0|0:0,0:0:0:0:
224,292,32847,5,10,0:0:0:0:
224,292,32981,1,0,0:0:0:0:
224,292,33115,1,0,0:0:0:0:
288,224,33383,2,0,L|360:236,1,45,8|0,0:0|0:0,0:0:0:0:
364,192,33651,2,0,L|436:204,1,45
460,200,33919,6,0,P|440:144|448:96,1,90,10|0,0:0|0:0,0:0:0:0:
448,64,34321,1,0,0:0:0:0:
464,16,34455,1,8,0:0:0:0:
368,36,34722,1,0,0:0:0:0:
268,40,34990,6,0,P|224:48|168:84,1,90,10|0,0:0|0:0,0:0:0:0:
144,100,35392,1,0,0:0:0:0:
104,132,35526,2,0,L|60:152,1,45,8|0,0:0|0:0,0:0:0:0:
72,200,35794,2,0,L|28:220,1,45
12,264,36062,5,10,0:0:0:0:
100,308,36330,2,0,L|112:360,2,45,0|0|8,0:0|0:0|0:0,0:0:0:0:
56,152,36865,1,0,0:0:0:0:
180,248,37133,6,0,P|232:256|272:288,1,90,10|0,0:0|0:0,0:0:0:0:
296,316,37535,1,0,0:0:0:0:
340,336,37669,2,0,P|412:340|456:328,1,90,8|0,0:0|0:0,0:0:0:0:
472,312,38071,1,0,0:0:0:0:
480,264,38205,6,0,L|456:160,1,90,10|0,0:0|0:0,0:0:0:0:
444,128,38606,1,0,0:0:0:0:
432,80,38740,1,8,0:0:0:0:
348,28,39008,1,0,0:0:0:0:
444,128,39276,6,0,P|380:144|328:180,1,90,10|0,0:0|0:0,0:0:0:0:
200,256,39812,2,0,L|328:240,1,90,8|0,0:0|0:0,0:0:0:0:
444,296,40347,6,0,P|420:288|384:292,1,45,10|0,0:0|0:0,0:0:0:0:
368,324,40615,2,0,P|343:329|314:350,1,45
284,360,40883,2,0,P|292:308|284:256,1,90,8|0,0:0|0:0,0:0:0:0:
256,232,41285,1,0,0:0:0:0:
216,204,41419,6,0,P|200:140|204:92,1,90,10|0,0:0|0:0,0:0:0:0:
240,20,41955,2,0,L|268:64,1,45,8|0,0:0|0:0,0:0:0:0:
300,24,42222,2,0,L|311:74,1,45
356,52,42490,6,0,P|352:100|368:156,1,90,10|0,0:0|0:0,0:0:0:0:
388,184,42892,1,0,0:0:0:0:
420,220,43026,2,0,P|452:168|496:136,1,90,8|0,0:0|0:0,0:0:0:0:
436,296,43562,6,0,P|384:296|328:276,1,90,10|0,0:0|0:0,0:0:0:0:
304,264,43963,1,0,0:0:0:0:
260,240,44097,6,0,L|220:272,1,45,8|0,0:0|1:0,0:0:0:0:
148,260,44365,1,0,1:0:0:0:
156,240,44633,6,0,P|128:184|88:152,1,90,12|0,0:0|0:0,0:0:0:0:
220,176,45035,2,0,L|232:76,1,90,12|0,0:0|0:0,0:0:0:0:
256,256,45437,2,0,P|305:217|354:204,1,90,12|14,0:0|0:0,0:0:0:0:
428,188,45972,5,0,0:0:0:0:
496,116,46240,2,0,L|484:64,1,45,0|0,1:0|0:0,0:0:0:0:
396,28,46642,1,0,0:0:0:0:
372,72,46776,6,0,P|360:124|332:176,1,90,10|0,0:0|0:0,0:0:0:0:
312,196,47178,1,0,0:0:0:0:
276,228,47312,2,0,P|252:288|248:336,1,90,0|0,1:0|0:0,0:0:0:0:
156,352,47847,5,10,0:0:0:0:
136,308,47981,1,0,0:0:0:0:
88,296,48115,1,0,0:0:0:0:
72,248,48249,1,0,0:0:0:0:
28,224,48383,2,0,P|80:196|120:160,1,90,0|0,1:0|0:0,0:0:0:0:
128,132,48785,6,0,L|188:132,1,45,0|10,0:0|0:0,0:0:0:0:
318,52,49187,1,0,0:0:0:0:
288,92,49321,1,0,0:0:0:0:
252,128,49455,1,0,1:0:0:0:
188,52,49722,1,0,0:0:0:0:
368,120,49990,6,0,P|416:92|464:88,1,90,14|0,0:0|0:0,0:0:0:0:
468,184,50526,2,0,L|408:200,1,45,0|0,1:0|0:0,0:0:0:0:
504,276,50928,1,0,0:0:0:0:
456,280,51062,6,0,P|396:280|336:304,1,90,10|0,0:0|0:0,0:0:0:0:
320,304,51463,1,0,0:0:0:0:
272,316,51597,2,0,P|212:316|152:292,1,90,0|0,1:0|0:0,0:0:0:0:
92,348,52133,5,10,0:0:0:0:
60,312,52267,1,0,0:0:0:0:
56,264,52401,1,0,0:0:0:0:
13,241,52535,1,0,0:0:0:0:
4,192,52669,2,0,P|56:184|124:196,1,90,0|0,1:0|0:0,0:0:0:0:
140,208,53071,1,0,0:0:0:0:
184,232,53205,6,0,L|236:196,1,45,10|0,0:0|0:0,0:0:0:0:
204,276,53472,2,0,P|248:267|293:269,1,90,0|0,0:0|1:0,0:0:0:0:
160,364,54008,1,0,0:0:0:0:
160,364,54276,6,0,L|116:276,1,90,14|0,0:0|0:0,0:0:0:0:
108,184,54812,2,0,P|164:196|224:196,1,90,0|0,1:0|0:0,0:0:0:0:
236,168,55213,1,0,0:0:0:0:
268,128,55347,6,0,P|284:108|320:88,1,45,10|0,0:0|0:0,0:0:0:0:
340,124,55615,2,0,P|361:110|402:104,1,45
428,100,55883,1,0,1:0:0:0:
504,36,56151,1,0,0:0:0:0:
424,196,56419,5,14,0:0:0:0:
384,228,56553,1,0,0:0:0:0:
336,244,56687,1,0,0:0:0:0:
288,244,56821,1,0,0:0:0:0:
240,232,56955,2,0,P|188:208|120:212,1,90,0|0,1:0|0:0,0:0:0:0:
108,216,57356,1,0,0:0:0:0:
60,228,57490,6,0,L|32:172,1,45,10|0,0:0|0:0,0:0:0:0:
64,144,57758,2,0,L|36:88,1,45
24,56,58026,1,0,1:0:0:0:
160,116,58294,1,0,0:0:0:0:
332,72,58562,6,0,P|284:116|264:156,1,90,14|0,0:0|0:0,0:0:0:0:
432,328,59097,2,0,P|480:284|500:244,1,90,0|0,1:0|0:0,0:0:0:0:
448,240,59499,1,0,0:0:0:0:
400,240,59633,6,0,P|332:252|288:280,1,90,10|0,0:0|0:0,0:0:0:0:
268,284,60035,1,0,0:0:0:0:
224,304,60169,6,0,L|176:248,1,45,0|0,1:0|0:0,0:0:0:0:
104,208,60437,2,0,L|120:268,1,45,0|0,1:0|0:0,0:0:0:0:
96,332,60705,5,12,0:0:0:0:
104,128,61106,1,12,0:0:0:0:
188,336,61508,1,12,0:0:0:0:
184,188,61776,1,12,0:0:0:0:
184,188,62312,5,2,0:0:0:0:
324,36,62580,1,0,0:0:0:0:
324,36,62713,1,0,0:0:0:0:
324,36,62847,6,0,P|360:88|400:116,1,90,4|0,1:0|0:0,0:0:0:0:
424,124,63249,1,0,0:0:0:0:
472,132,63383,2,0,L|496:240,1,90,10|0,0:0|0:0,0:0:0:0:
476,352,63919,6,0,P|416:320|344:344,1,135,0|0,1:0|0:0,0:0:0:0:
308,320,64455,1,10,0:0:0:0:
260,192,64722,1,0,0:0:0:0:
220,360,64990,6,0,P|216:296|208:252,1,90,0|0,1:0|0:0,0:0:0:0:
88,260,65526,1,10,0:0:0:0:
84,136,65794,1,0,0:0:0:0:
128,160,65928,6,0,P|192:176|256:164,1,90,2|0,0:0|0:0,0:0:0:0:
256,144,66330,2,0,L|308:136,1,45,2|0,0:0|0:0,0:0:0:0:
340,104,66597,2,0,P|392:96|448:104,1,90,10|0,0:0|0:0,0:0:0:0:
496,172,67133,5,4,1:0:0:0:
468,268,67401,1,0,0:0:0:0:
456,316,67535,1,2,0:0:0:0:
356,312,67803,1,0,0:0:0:0:
361,361,67937,1,2,0:0:0:0:
272,292,68205,6,0,P|296:252|352:232,1,90,0|0,1:0|0:0,0:0:0:0:
320,184,68606,2,0,P|312:136|268:92,1,90,2|0,0:0|0:0,0:0:0:0:
312,60,69008,1,2,0:0:0:0:
312,60,69276,5,0,1:0:0:0:
376,244,69544,1,0,0:0:0:0:
408,88,69812,1,10,0:0:0:0:
300,156,70080,1,0,0:0:0:0:
132,68,70347,6,0,P|200:88|236:124,1,90,14|0,0:0|0:0,0:0:0:0:
256,128,70749,1,14,0:0:0:0:
200,212,71017,1,0,1:0:0:0:
176,256,71151,1,14,0:0:0:0:
344,144,71419,6,0,P|392:120|424:64,1,90,4|0,1:0|0:0,0:0:0:0:
200,80,71955,2,0,L|228:200,1,90,10|0,0:0|0:0,0:0:0:0:
232,216,72356,1,0,0:0:0:0:
252,260,72490,6,0,P|300:256|380:336,1,135,0|0,1:0|0:0,0:0:0:0:
384,352,73026,1,10,0:0:0:0:
440,216,73294,1,0,0:0:0:0:
284,352,73562,6,0,L|184:356,2,90,0|0|10,1:0|0:0|0:0,0:0:0:0:
440,216,74365,1,0,0:0:0:0:
396,192,74499,6,0,P|344:196|288:244,1,90,2|0,0:0|0:0,0:0:0:0:
264,228,74901,2,0,L|196:208,1,45,2|0,0:0|0:0,0:0:0:0:
172,200,75169,1,10,0:0:0:0:
108,80,75437,1,0,0:0:0:0:
45,222,75705,6,0,P|83:198|128:192,1,90,4|0,1:0|0:0,0:0:0:0:
172,200,76106,1,2,0:0:0:0:
248,136,76374,1,0,0:0:0:0:
284,104,76508,1,2,0:0:0:0:
340,184,76776,5,0,1:0:0:0:
420,264,77044,2,0,P|380:256|344:256,1,45,0|0,0:0|1:0,0:0:0:0:
332,264,77312,1,10,0:0:0:0:
288,276,77446,1,0,1:0:0:0:
260,312,77580,1,0,1:0:0:0:
44,324,77847,6,0,P|68:276|72:224,1,90,4|0,1:0|0:0,0:0:0:0:
64,192,78249,1,0,0:0:0:0:
44,148,78383,2,0,L|24:52,1,90,10|0,0:0|0:0,0:0:0:0:
228,32,78919,6,0,P|172:28|108:40,1,90,0|0,1:0|0:0,0:0:0:0:
108,72,79321,1,2,0:0:0:0:
144,104,79455,2,0,P|180:120|200:136,1,45,10|0,0:0|1:0,0:0:0:0:
224,152,79722,1,0,1:0:0:0:
56,248,79990,6,0,P|104:224|164:216,1,90,4|0,1:0|0:0,0:0:0:0:
184,240,80392,1,2,0:0:0:0:
228,264,80526,2,0,P|264:272|300:272,1,45,10|0,0:0|1:0,0:0:0:0:
320,268,80794,1,0,1:0:0:0:
372,120,81062,6,0,P|402:75|448:49,1,107.999996704102,14|0,0:0|0:0,0:0:0:0:
458,138,81463,2,0,P|480:186|481:240,1,107.999996704102,14|0,0:0|0:0,0:0:0:0:
400,204,81865,2,0,P|346:199|299:173,1,107.999996704102,14|6,0:0|0:0,0:0:0:0:
256,192,82267,12,8,85347,0:0:0:0:
380,88,86151,5,12,0:0:0:0:
380,88,86419,1,12,0:0:0:0:
132,296,86821,1,12,0:0:0:0:
168,76,87222,2,0,L|236:168,1,90,12|4,0:0|0:0,0:0:0:0:
