osu file format v12

[General]
AudioFilename: Lament.mp3
AudioLeadIn: 2000
PreviewTime: 102586
Countdown: 0
SampleSet: Soft
StackLeniency: 0.7
Mode: 0
LetterboxInBreaks: 1
WidescreenStoryboard: 0

[Editor]
Bookmarks: 4802,15667,41613,62370,83127,103721,145397,166154,186910,207505,249181,269775,295883,306262
DistanceSpacing: 1
BeatDivisor: 4
GridSize: 4

[Metadata]
Title:Lament
TitleUnicode:Lament
Artist:Aoi Eir
ArtistUnicode:藍井 エイル
Creator:CXu
Version:Insane
Source:Fate/Zero
Tags:Saber Image Song Soushi Iihama BLAU セイバー フェイト/ゼロ Eiru Kotayo pkhg
BeatmapID:236224
BeatmapSetID:86178

[Difficulty]
HPDrainRate:7
CircleSize:4
OverallDifficulty:9
ApproachRate:9
SliderMultiplier:1.7
SliderTickRate:2

[Events]
//Background and Video events
0,0,"LamentBG.jpg",0,0
//Break Periods
2,150832,165600
//Storyboard Layer 0 (Background)
//Storyboard Layer 1 (Fail)
//Storyboard Layer 2 (Pass)
//Storyboard Layer 3 (Foreground)
//Storyboard Sound Samples
//Background Colour Transformations
3,100,163,162,255

[TimingPoints]
391,324.324324324324,4,2,1,30,1,0
4850,324.324324324324,4,2,2,30,1,0
4850,-200,4,2,2,30,0,0
12633,357.142857142857,4,2,2,30,1,0
12633,-200,4,2,2,30,0,0
14061,332.332642819953,4,2,2,30,1,0
15390,324.324324324324,4,2,2,30,1,0
15714,-133.333333333333,4,2,2,40,0,0
33227,-133.333333333333,4,2,2,5,0,0
33876,324.324324324324,4,2,2,40,1,0
33876,-133.333333333333,4,2,2,40,0,0
40362,-133.333333333333,4,2,1,40,0,0
40605,-133.333333333333,4,2,2,5,0,0
41659,-83.3333333333333,4,2,1,100,0,1
41740,-83.3333333333333,4,2,1,100,0,0
61119,-133.333333333333,4,2,1,60,0,0
62416,-133.333333333333,4,2,2,70,0,0
81713,-100,4,2,1,80,0,0
83821,-100,4,2,1,50,0,0
84308,-100,4,2,1,80,0,0
89011,-100,4,2,1,50,0,0
89497,-100,4,2,1,80,0,0
90632,-100,4,2,1,50,0,0
90957,-100,4,2,1,80,0,0
98740,-100,4,2,1,70,0,0
100038,-100,4,2,1,80,0,0
101335,-100,4,2,1,90,0,0
102470,-100,4,2,1,60,0,0
102957,-200,4,2,1,90,0,0
103686,-200,4,2,1,5,0,0
103767,-83.3333333333333,4,2,1,100,0,1
113821,-133.333333333333,4,2,1,100,0,1
114146,-83.3333333333333,4,2,1,100,0,1
118848,-83.3333333333333,4,2,1,80,0,1
119497,-83.3333333333333,4,2,1,100,0,1
123713,-83.3333333333333,4,2,1,70,0,1
124362,-83.3333333333333,4,2,1,100,0,0
124524,-83.3333333333333,4,2,1,100,0,1
143984,-133.333333333333,4,2,1,60,0,0
166200,-133.333333333333,4,2,2,70,0,0
185659,-100,4,2,1,80,0,0
187605,-100,4,2,1,50,0,0
188092,-100,4,2,1,80,0,0
192794,-100,4,2,1,50,0,0
193281,-100,4,2,1,80,0,0
194416,-100,4,2,1,50,0,0
194740,-100,4,2,1,80,0,0
202524,-100,4,2,1,70,0,0
203821,-100,4,2,1,80,0,0
205119,-100,4,2,1,90,0,0
206254,-100,4,2,1,60,0,0
206740,-200,4,2,1,90,0,0
207470,-200,4,2,1,5,0,0
207551,-83.3333333333333,4,2,1,100,0,1
217605,-133.333333333333,4,2,1,100,0,1
217930,-83.3333333333333,4,2,1,100,0,1
222632,-83.3333333333333,4,2,1,80,0,1
223281,-83.3333333333333,4,2,1,100,0,1
227497,-83.3333333333333,4,2,1,70,0,1
228146,-83.3333333333333,4,2,1,100,0,0
228308,-83.3333333333333,4,2,1,100,0,1
247767,-133.333333333333,4,2,1,60,0,0
249227,-133.333333333333,4,2,1,70,0,0
264794,-125,4,2,1,80,0,0
265930,-111.111111111111,4,2,1,90,0,0
266740,-100,4,2,1,100,0,0
268524,-200,4,2,1,100,0,0
268848,-200,4,2,1,5,0,0
269821,-83.3333333333333,4,2,1,100,0,1
293659,-83.3333333333333,4,2,1,60,0,1
293984,-83.3333333333333,4,2,1,80,0,1
294308,-83.3333333333333,4,2,1,100,0,1
294470,-200,4,2,1,100,0,0
294794,-83.3333333333333,4,2,1,5,0,0
294875,-83.3333333333333,4,2,1,100,0,0
305011,-133.333333333333,4,2,1,70,0,0
305984,-133.333333333333,4,2,1,5,0,0
306308,-133.333333333333,4,2,1,60,0,0
308903,-133.333333333333,4,2,1,50,0,0
310200,-133.333333333333,4,2,1,45,0,0
311497,-133.333333333333,4,2,1,40,0,0
312146,-133.333333333333,4,2,1,35,0,0
312794,-133.333333333333,4,2,1,30,0,0
313443,-133.333333333333,4,2,1,35,0,0
314092,-133.333333333333,4,2,1,20,0,0
314740,-133.333333333333,4,2,1,15,0,0
315389,-133.333333333333,4,2,1,10,0,0
316038,-133.333333333333,4,2,1,5,0,0

[Colours]
Combo1 : 242,218,2
Combo2 : 34,232,118
Combo3 : 67,35,220
Combo4 : 220,46,94

[HitObjects]
256,192,391,12,2,2823,0:0:0:0:
28,104,4850,6,0,P|72:88|120:92,1,85,2|0,0:0|0:0,0:0:0:0:
188,128,5498,2,0,P|232:144|280:140,1,85,0|0,0:0|0:0,0:0:0:0:
324,76,6147,6,0,L|376:148,1,85,2|0,0:0|0:0,0:0:0:0:
436,88,6795,2,0,L|488:160,1,85,0|0,0:0|0:0,0:0:0:0:
428,216,7444,6,0,P|408:264|416:304,1,85,2|0,0:0|0:0,0:0:0:0:
328,288,8093,2,0,P|334:339|361:370,1,85,0|0,0:0|0:0,0:0:0:0:
348,212,8741,6,0,P|304:208|268:224,1,85,2|0,0:0|0:0,0:0:0:0:
168,316,9390,2,0,P|212:320|248:304,1,85,0|0,0:0|0:0,0:0:0:0:
192,240,10039,6,0,L|144:160,1,85,2|0,0:0|0:0,0:0:0:0:
64,180,10687,2,0,L|112:260,1,85,0|0,0:0|0:0,0:0:0:0:
268,228,11336,6,0,P|312:208|332:172,1,85,2|0,0:0|0:0,0:0:0:0:
248,72,11985,2,0,P|243:120|264:155,1,85,0|0,0:0|0:0,0:0:0:0:
396,128,12633,6,0,P|356:104|312:104,1,85,2|0,0:0|0:0,0:0:0:0:
364,196,13347,2,0,P|403:224|456:224,1,85,0|0,0:0|0:0,0:0:0:0:
459,225,14061,1,2,0:0:0:0:
379,65,15714,6,0,P|428:60|480:112,2,127.500004863739,0|2|0,0:0|0:0|0:0,0:0:0:0:
328,116,16525,2,0,P|240:116|208:24,1,191.250007295609,2|0,0:0|0:0,0:0:0:0:
328,116,17335,2,0,P|340:164|296:232,1,127.500004863739,2|0,0:0|0:0,0:0:0:0:
204,196,17984,6,0,P|196:256|236:316,1,127.500004863739,2|0,0:0|0:0,0:0:0:0:
184,356,18471,2,0,P|220:317|309:308,1,127.500004863739,2|0,0:0|0:0,0:0:0:0:
352,340,18957,1,0,0:0:0:0:
424,268,19281,2,0,P|448:176|372:120,2,191.250007295609,2|2|0,0:0|0:0|0:0,0:0:0:0:
336,216,20579,2,0,P|212:220|144:96,1,255.000009727478,2|0,0:0|0:0,0:0:0:0:
188,28,21552,1,2,0:0:0:0:
256,104,21876,6,0,P|219:222|80:246,1,255.000009727478,2|2,0:0|0:0,0:0:0:0:
256,384,23173,2,0,P|293:266|432:242,1,255.000009727478,2|2,0:0|0:0,0:0:0:0:
256,104,24471,2,0,P|352:69|449:96,2,191.250007295609,2|2|0,0:0|0:0|0:0,0:0:0:0:
296,200,25768,2,0,L|240:320,1,127.500004863739,2|0,0:0|0:0,0:0:0:0:
144,344,26417,5,2,0:0:0:0:
68,276,26741,1,0,0:0:0:0:
68,276,26903,2,0,P|48:232|124:120,1,191.250007295609,2|0,0:0|0:0,0:0:0:0:
152,220,27714,2,0,P|224:244|248:288,1,127.500004863739,2|0,0:0|0:0,0:0:0:0:
264,356,28200,2,0,P|352:372|400:280,1,191.250007295609,2|0,0:0|0:0,0:0:0:0:
340,216,29011,6,0,L|388:164,1,63.7500024318696,2|0,0:0|0:0,0:0:0:0:
484,180,29498,2,0,P|491:124|391:56,1,191.250007295609,2|0,0:0|0:0,0:0:0:0:
296,92,30308,1,2,0:0:0:0:
200,56,30633,2,0,P|148:56|80:112,2,127.500004863739,0|2|0,0:0|0:0|0:0,0:0:0:0:
256,192,31606,12,0,33227,0:0:0:0:
256,32,33876,6,0,P|224:72|236:152,1,127.500004863739,0|2,0:0|0:0,0:0:0:0:
292,228,34524,1,0,0:0:0:0:
344,140,34848,1,2,0:0:0:0:
344,140,35011,6,0,P|412:192|396:300,1,191.250007295609,0|2,0:0|0:0,0:0:0:0:
316,344,35821,2,0,L|188:360,1,127.500004863739,0|2,0:0|0:0,0:0:0:0:
120,352,36308,6,0,P|76:304|88:184,1,191.250007295609,0|2,0:0|0:0,0:0:0:0:
156,112,37119,1,0,0:0:0:0:
252,72,37443,1,2,0:0:0:0:
348,108,37767,5,0,0:0:0:0:
392,200,38092,2,0,P|440:188|468:116,1,127.500004863739,2|0,0:0|0:0,0:0:0:0:
348,108,38740,1,2,0:0:0:0:
288,192,39065,6,0,P|296:248|348:296,1,127.500004863739,0|2,0:0|0:0,0:0:0:0:
448,280,39713,1,0,0:0:0:0:
500,192,40038,1,2,0:0:0:0:
448,104,40362,2,0,P|408:64|328:56,1,127.500004863739,0|0,0:0|0:0,0:0:0:0:
304,112,41659,6,0,P|256:128|200:108,1,101.999996887207,4|0,0:0|0:0,0:0:0:0:
104,48,41984,1,8,0:0:0:0:
36,148,42146,2,0,P|40:248|144:292,1,203.999993774414,2|0,0:0|0:0,0:0:0:0:
236,244,42632,2,0,L|352:260,1,101.999996887207,8|0,0:0|0:0,0:0:0:0:
408,360,42957,6,0,P|464:324|436:192,1,203.999993774414,2|8,0:0|0:0,0:0:0:0:
166,21,43605,2,0,P|152:144|208:180,1,203.999993774414,2|8,0:0|0:0,0:0:0:0:
276,76,44092,1,0,0:0:0:0:
208,180,44254,6,0,L|144:268,1,101.999996887207,6|0,0:0|0:0,0:0:0:0:
312,284,44578,2,0,L|400:348,1,101.999996887207,8|0,0:0|0:0,0:0:0:0:
416,180,44903,2,0,L|480:92,1,101.999996887207,2|0,0:0|0:0,0:0:0:0:
312,76,45227,2,0,L|224:12,1,101.999996887207,8|0,0:0|0:0,0:0:0:0:
72,36,45551,6,0,P|32:116|100:200,1,203.999993774414,2|8,0:0|0:0,0:0:0:0:
272,356,46200,2,0,P|312:276|244:192,1,203.999993774414,2|8,0:0|0:0,0:0:0:0:
120,292,46686,6,0,L|228:280,1,101.999996887207,2|4,0:0|0:0,0:0:0:0:
392,256,47011,1,0,0:0:0:0:
464,156,47173,2,0,P|464:108|436:60,1,101.999996887207,8|0,0:0|0:0,0:0:0:0:
316,84,47497,2,0,P|316:132|344:180,1,101.999996887207,2|0,0:0|0:0,0:0:0:0:
472,114,47821,2,0,P|448:72|399:45,1,101.999996887207,8|0,0:0|0:0,0:0:0:0:
252,156,48146,6,0,P|156:196|88:120,1,203.999993774414,2|8,0:0|0:0,0:0:0:0:
252,156,48632,2,0,P|334:219|302:316,1,203.999993774414,2|0,0:0|0:0,0:0:0:0:
252,156,49119,2,0,P|265:52|365:31,2,203.999993774414,10|6|8,0:0|0:0|0:0,0:0:0:0:
376,140,49930,1,0,0:0:0:0:
272,256,50092,2,0,P|208:248|160:196,1,101.999996887207,2|0,0:0|0:0,0:0:0:0:
120,80,50416,1,8,0:0:0:0:
28,240,50578,1,0,0:0:0:0:
180,140,50740,6,0,L|280:160,1,101.999996887207,12|0,0:0|0:0,0:0:0:0:
120,340,51065,2,0,L|87:243,1,101.999996887207,12|0,0:0|0:0,0:0:0:0:
328,296,51389,2,0,L|260:372,1,101.999996887207,12|0,0:0|0:0,0:0:0:0:
280,228,51713,1,8,0:0:0:0:
308,216,51794,1,8,0:0:0:0:
340,216,51875,1,8,0:0:0:0:
368,224,51957,1,8,0:0:0:0:
388,244,52038,6,0,L|488:188,1,101.999996887207,4|0,0:0|0:0,0:0:0:0:
224,124,52362,2,0,L|208:12,1,101.999996887207,8|0,0:0|0:0,0:0:0:0:
336,136,52686,2,0,L|396:44,1,101.999996887207,2|0,0:0|0:0,0:0:0:0:
121,169,53011,2,0,L|32:88,1,101.999996887207,8|0,0:0|0:0,0:0:0:0:
60,264,53335,6,0,P|88:320|220:304,2,203.999993774414,2|8|2,0:0|0:0|0:0,0:0:0:0:
121,169,54146,1,0,0:0:0:0:
224,124,54308,2,0,P|300:120|348:148,1,101.999996887207,8|0,0:0|0:0,0:0:0:0:
363,251,54632,6,0,P|448:172|440:92,1,203.999993774414,6|8,0:0|0:0,0:0:0:0:
256,208,55119,1,0,0:0:0:0:
148,251,55281,2,0,P|64:172|72:92,1,203.999993774414,2|8,0:0|0:0,0:0:0:0:
256,20,55767,1,0,0:0:0:0:
344,80,55930,2,0,P|256:124|168:76,1,203.999993774414,2|8,0:0|0:0,0:0:0:0:
256,20,56416,1,0,0:0:0:0:
360,196,56578,2,0,P|336:248|292:272,1,101.999996887207,2|0,0:0|0:0,0:0:0:0:
176,172,56903,1,8,0:0:0:0:
56,280,57065,1,0,0:0:0:0:
200,352,57227,6,0,P|260:352|308:308,1,101.999996887207,6|0,0:0|0:0,0:0:0:0:
453,218,57551,2,0,P|393:218|360:196,1,101.999996887207,8|0,0:0|0:0,0:0:0:0:
396,80,57875,1,2,0:0:0:0:
453,218,58038,2,0,L|504:320,2,101.999996887207,0|8|0,0:0|0:0|0:0,0:0:0:0:
396,80,58524,6,0,P|348:32|224:56,1,203.999993774414,6|8,0:0|0:0,0:0:0:0:
188,172,59011,1,0,0:0:0:0:
289,231,59173,2,0,P|308:200|304:136,1,101.999996887207,2|0,0:0|0:0,0:0:0:0:
188,172,59497,1,8,0:0:0:0:
120,300,59659,1,0,0:0:0:0:
256,352,59821,6,0,P|336:344|384:224,1,203.999993774414,4|8,0:0|0:0,0:0:0:0:
312,144,60308,1,8,0:0:0:0:
312,144,60389,1,8,0:0:0:0:
312,144,60470,2,0,P|280:196|296:256,1,101.999996887207,12|8,0:0|0:0,0:0:0:0:
348,336,60794,1,8,0:0:0:0:
464,304,60957,1,8,0:0:0:0:
496,176,61119,6,0,P|424:32|220:56,1,382.500014591218,4|0,0:0|0:0,0:0:0:0:
192,224,62416,6,0,P|124:208|92:152,2,127.500004863739,2|0|2,0:0|0:0|0:0,0:0:0:0:
312,152,63389,2,0,P|360:148|384:156,1,63.7500024318696,0|0,0:0|0:0,0:0:0:0:
420,208,63713,2,0,P|484:168|488:104,1,127.500004863739,2|0,0:0|0:0,0:0:0:0:
352,216,64362,2,0,P|354:291|408:326,1,127.500004863739,2|0,0:0|0:0,0:0:0:0:
456,348,64848,1,0,0:0:0:0:
391,322,65011,6,0,L|256:340,1,127.500004863739,2|0,0:0|0:0,0:0:0:0:
144,264,65659,2,0,L|279:246,1,127.500004863739,2|0,0:0|0:0,0:0:0:0:
340,236,66146,1,0,0:0:0:0:
400,200,66308,2,0,P|408:144|260:48,1,255.000009727478,2|2,0:0|0:0,0:0:0:0:
169,146,67281,1,0,0:0:0:0:
101,114,67443,1,0,0:0:0:0:
60,52,67605,6,0,P|28:104|48:172,1,127.500004863739,2|0,0:0|0:0,0:0:0:0:
152,260,68254,2,0,P|184:208|169:146,1,127.500004863739,2|0,0:0|0:0,0:0:0:0:
152,260,68903,2,0,P|213:261|264:100,2,255.000009727478,2|2|2,0:0|0:0|0:0,0:0:0:0:
76,104,70524,5,0,0:0:0:0:
76,104,70686,2,0,L|196:172,1,127.500004863739,2|0,0:0|0:0,0:0:0:0:
232,220,71173,2,0,L|380:196,1,127.500004863739,0|2,0:0|0:0,0:0:0:0:
428,188,71659,1,0,0:0:0:0:
484,232,71821,1,0,0:0:0:0:
504,368,72146,5,2,0:0:0:0:
464,308,72308,1,0,0:0:0:0:
412,352,72470,1,0,0:0:0:0:
384,288,72632,1,0,0:0:0:0:
324,324,72794,6,0,L|124:344,1,191.250007295609,2|0,0:0|0:0,0:0:0:0:
76,304,73443,2,0,P|96:244|64:176,1,127.500004863739,2|0,0:0|0:0,0:0:0:0:
16,148,73930,2,0,P|16:104|32:72,1,63.7500024318696,0|2,0:0|0:0,0:0:0:0:
152,28,74416,1,0,0:0:0:0:
256,124,74740,1,2,0:0:0:0:
360,28,75065,1,0,0:0:0:0:
360,28,75227,1,0,0:0:0:0:
360,28,75389,6,0,P|352:120|488:200,1,255.000009727478,2|2,0:0|0:0,0:0:0:0:
468,80,76362,1,0,0:0:0:0:
468,80,76524,1,0,0:0:0:0:
468,80,76686,2,0,L|268:244,1,255.000009727478,2|2,0:0|0:0,0:0:0:0:
156,320,77659,1,0,0:0:0:0:
36,252,77984,6,0,P|24:192|72:140,1,127.500004863739,2|0,0:0|0:0,0:0:0:0:
196,100,78632,2,0,P|208:160|160:212,1,127.500004863739,2|0,0:0|0:0,0:0:0:0:
196,100,79281,2,0,L|336:84,1,127.500004863739,2|0,0:0|0:0,0:0:0:0:
428,176,79930,2,0,L|288:192,1,127.500004863739,2|0,0:0|0:0,0:0:0:0:
92,268,80578,6,0,P|144:311|200:307,1,127.500004863739,2|0,0:0|0:0,0:0:0:0:
264,276,81065,2,0,P|320:272|380:336,1,127.500004863739,2|0,0:0|0:0,0:0:0:0:
428,356,81551,1,0,0:0:0:0:
464,296,81713,5,0,0:0:0:0:
464,296,81794,1,0,0:0:0:0:
464,296,81875,2,0,L|472:188,1,85,8|0,0:0|0:0,0:0:0:0:
456,128,82200,1,0,0:0:0:0:
368,160,82362,1,0,0:0:0:0:
312,88,82524,6,0,P|264:100|216:80,1,85,8|0,0:0|0:0,0:0:0:0:
80,56,82848,2,0,P|128:44|176:64,1,85,8|0,0:0|0:0,0:0:0:0:
120,128,83173,5,12,0:0:0:0:
56,292,83335,1,12,0:0:0:0:
80,312,83659,6,0,L|172:300,1,85,2|8,2:0|2:0,3:0:0:0:
188,300,83903,1,8,0:0:0:0:
212,304,83984,1,8,0:0:0:0:
236,312,84065,1,8,0:0:0:0:
256,324,84146,1,8,0:0:0:0:
272,344,84227,1,8,0:0:0:0:
284,368,84308,6,0,P|360:344|376:252,1,170,4|0,0:0|0:0,0:0:0:0:
328,120,84794,2,0,P|348:60|388:40,1,85,8|0,0:0|0:0,0:0:0:0:
372,184,85119,2,0,P|310:196|292:189,1,85,2|0,0:0|0:0,0:0:0:0:
164,68,85443,2,0,P|94:64|35:147,2,170,8|4|8,0:0|0:0|0:0,0:0:0:0:
128,156,86254,5,0,0:0:0:0:
132,180,86335,1,0,0:0:0:0:
136,204,86416,1,2,0:0:0:0:
164,328,86578,1,8,0:0:0:0:
244,252,86740,1,0,0:0:0:0:
340,312,86903,6,0,P|436:268|460:192,1,170,4|0,0:0|0:0,0:0:0:0:
332,128,87389,2,0,L|364:232,1,85,8|0,0:0|0:0,0:0:0:0:
472,92,87713,6,0,L|380:60,1,85,2|0,0:0|0:0,0:0:0:0:
192,92,88038,2,0,L|284:60,1,85,8|0,0:0|0:0,0:0:0:0:
332,128,88362,5,12,0:0:0:0:
256,288,88524,1,12,0:0:0:0:
224,308,88848,6,0,P|156:280|136:248,1,85,2|8,2:0|2:0,3:0:0:0:
136,252,89092,1,8,0:0:0:0:
128,228,89173,1,8,0:0:0:0:
128,204,89254,1,8,0:0:0:0:
132,180,89335,1,8,0:0:0:0:
144,160,89416,1,8,0:0:0:0:
164,144,89497,6,0,P|236:128|308:204,1,170,4|0,0:0|0:0,0:0:0:0:
216,212,89984,2,0,P|248:127|319:108,1,170,8|2,0:0|0:0,0:0:0:0:
384,192,90470,1,0,0:0:0:0:
472,72,90632,1,8,0:0:0:0:
476,96,90713,1,8,0:0:0:0:
480,120,90794,1,8,0:0:0:0:
484,144,90875,1,8,0:0:0:0:
488,168,90957,6,0,P|484:224|464:252,1,85,8|0,0:0|0:0,0:0:0:0:
360,252,91281,1,2,0:0:0:0:
384,360,91443,2,0,P|304:348|248:268,1,170,8|0,0:0|0:0,0:0:0:0:
288,188,91930,1,8,0:0:0:0:
196,148,92092,1,0,0:0:0:0:
264,72,92254,6,0,L|360:40,1,85,2|0,0:0|0:0,0:0:0:0:
196,148,92578,2,0,L|100:180,1,85,8|0,0:0|0:0,0:0:0:0:
115,174,92821,1,0,0:0:0:0:
115,174,92903,2,0,P|112:224|144:264,1,85,2|0,0:0|0:0,0:0:0:0:
212,316,93227,1,8,0:0:0:0:
236,324,93308,1,8,0:0:0:0:
260,328,93389,1,8,0:0:0:0:
284,324,93470,1,8,0:0:0:0:
308,316,93551,6,0,P|352:292|376:248,1,85,4|0,0:0|0:0,0:0:0:0:
424,148,93875,2,0,P|456:120|508:116,1,85,8|0,0:0|0:0,0:0:0:0:
496,113,94119,1,0,0:0:0:0:
496,113,94200,2,0,L|487:19,1,85,2|0,0:0|0:0,0:0:0:0:
368,48,94524,1,8,0:0:0:0:
304,152,94686,6,0,P|240:132|212:24,1,170,4|0,0:0|0:0,0:0:0:0:
304,152,95173,2,0,L|316:248,1,85,8|0,0:0|0:0,0:0:0:0:
360,292,95416,1,0,0:0:0:0:
360,292,95497,2,0,P|320:308|276:296,1,85,4|0,0:0|0:0,0:0:0:0:
144,368,95821,2,0,P|96:352|72:312,1,85,8|0,0:0|0:0,0:0:0:0:
44,228,96146,6,0,P|46:151|141:83,1,170,4|8,0:0|0:0,0:0:0:0:
140,192,96632,2,0,L|312:192,1,170,2|0,0:0|0:0,0:0:0:0:
310,192,97119,1,8,0:0:0:0:
408,268,97281,2,0,P|440:192|408:116,1,170,4|0,0:0|0:0,0:0:0:0:
324,36,97767,2,0,P|288:64|276:112,1,85,8|0,0:0|0:0,0:0:0:0:
168,108,98092,6,0,P|158:152|180:197,1,85,2|0,0:0|0:0,0:0:0:0:
94,263,98416,2,0,P|115:303|160:323,1,85,8|0,0:0|0:0,0:0:0:0:
200,328,98659,1,0,0:0:0:0:
252,328,98740,6,0,L|345:306,1,85,4|0,0:0|0:0,0:0:0:0:
415,199,99065,2,0,L|321:220,1,85,8|0,0:0|0:0,0:0:0:0:
212,156,99389,2,0,L|305:134,1,85,2|0,0:0|0:0,0:0:0:0:
375,28,99713,2,0,L|281:49,1,85,8|0,0:0|0:0,0:0:0:0:
112,80,100038,6,0,P|88:128|96:180,1,85,4|0,0:0|0:0,0:0:0:0:
196,352,100362,2,0,P|220:304|212:252,1,85,8|0,0:0|0:0,0:0:0:0:
316,32,100686,2,0,P|292:80|300:132,1,85,2|0,0:0|0:0,0:0:0:0:
400,304,101011,2,0,P|424:256|416:204,1,85,8|0,0:0|0:0,0:0:0:0:
287,24,101335,5,4,0:0:0:0:
119,53,101497,1,8,0:0:0:0:
149,219,101659,1,8,0:0:0:0:
315,190,101821,1,8,0:0:0:0:
249,5,101984,5,8,0:0:0:0:
101,90,102146,1,8,0:0:0:0:
186,237,102308,1,8,0:0:0:0:
333,152,102470,5,8,0:0:0:0:
352,136,102551,1,8,0:0:0:0:
376,128,102632,1,8,0:0:0:0:
400,128,102713,1,8,0:0:0:0:
424,136,102794,1,8,0:0:0:0:
444,152,102875,1,8,0:0:0:0:
456,176,102957,6,0,B|440:204|440:204|456:216|456:216|440:224|440:224|456:236|456:236|448:248|448:248|456:300|424:328,1,191.25,4|0,1:1|0:0,0:0:0:0:
364,360,103767,6,0,P|258:352|206:268,1,203.999993774414,4|0,0:0|0:0,0:0:0:0:
456,176,104254,2,0,P|396:263|297:266,1,203.999993774414,8|0,0:0|0:0,0:0:0:0:
224,180,104740,1,0,0:0:0:0:
172,68,104903,2,0,P|84:96|64:116,1,101.999996887207,8|0,0:0|0:0,0:0:0:0:
44,324,105227,6,0,L|256:292,1,203.999993774414,2|8,0:0|0:0,0:0:0:0:
468,208,105713,2,0,L|256:176,1,203.999993774414,0|0,0:0|0:0,0:0:0:0:
44,92,106200,2,0,L|160:76,1,101.999996887207,8|0,0:0|0:0,0:0:0:0:
372,44,106524,6,0,P|452:72|460:192,1,203.999993774414,6|8,0:0|0:0,0:0:0:0:
324,284,107011,2,0,P|308:200|408:133,1,203.999993774414,0|0,0:0|0:0,0:0:0:0:
408,316,107497,2,0,P|343:371|235:318,1,203.999993774414,8|2,0:0|0:0,0:0:0:0:
200,208,107984,1,0,0:0:0:0:
80,256,108146,2,0,P|68:320|100:372,1,101.999996887207,8|0,0:0|0:0,0:0:0:0:
200,208,108470,2,0,P|212:144|180:92,1,101.999996887207,0|0,0:0|0:0,0:0:0:0:
68,32,108794,1,8,0:0:0:0:
64,184,108957,1,0,0:0:0:0:
198,111,109119,6,0,P|284:92|368:164,1,203.999993774414,4|8,0:0|0:0,0:0:0:0:
256,216,109605,1,0,0:0:0:0:
356,284,109767,6,0,P|416:280|456:232,1,101.999996887207,2|0,0:0|0:0,0:0:0:0:
256,216,110092,2,0,P|229:269|251:328,1,101.999996887207,8|0,0:0|0:0,0:0:0:0:
360,172,110416,2,0,P|326:122|264:111,1,101.999996887207,4|0,0:0|0:0,0:0:0:0:
261,251,110740,6,0,P|265:311|313:351,1,101.999996887207,8|0,0:0|0:0,0:0:0:0:
329,160,111065,2,0,P|275:134|216:156,1,101.999996887207,2|0,0:0|0:0,0:0:0:0:
381,259,111389,2,0,P|431:226|442:164,1,101.999996887207,8|0,0:0|0:0,0:0:0:0:
304,48,111713,6,0,P|220:44|132:124,1,203.999993774414,4|8,0:0|0:0,0:0:0:0:
356,305,112200,2,0,P|402:234|376:118,1,203.999993774414,0|0,0:0|0:0,0:0:0:0:
107,222,112686,2,0,P|145:297|259:333,2,203.999993774414,8|2|8,0:0|0:0|0:0,0:0:0:0:
256,80,113497,5,0,0:0:0:0:
256,80,113578,1,0,0:0:0:0:
256,80,113659,1,8,0:0:0:0:
464,232,113821,2,0,P|464:284|432:324,1,95.6250036478044,8|0,0:0|0:0,0:0:0:0:
372,292,114146,6,0,P|296:272|208:356,1,203.999993774414,4|0,0:0|0:0,0:0:0:0:
88,360,114632,2,0,P|96:300|140:256,1,101.999996887207,8|0,0:0|0:0,0:0:0:0:
256,192,114957,1,2,0:0:0:0:
52,104,115119,1,8,0:0:0:0:
24,88,115443,6,0,L|72:296,1,203.999993774414,4|0,0:0|0:0,0:0:0:0:
180,340,115930,2,0,P|236:268|344:272,1,203.999993774414,8|2,0:0|0:0,0:0:0:0:
448,92,116416,1,8,0:0:0:0:
424,68,116740,6,0,P|336:56|256:129,1,203.999993774414,4|0,0:0|0:0,0:0:0:0:
88,68,117227,2,0,P|176:56|256:129,1,203.999993774414,8|2,0:0|0:0,0:0:0:0:
160,204,117713,1,0,0:0:0:0:
60,148,117875,2,0,P|20:200|16:260,1,101.999996887207,8|0,0:0|0:0,0:0:0:0:
128,360,118200,6,0,P|200:372|296:280,1,203.999993774414,4|8,0:0|0:0,0:0:0:0:
256,164,118686,1,0,0:0:0:0:
392,80,118848,2,0,L|440:52,2,50.9999984436036,8|8|8,0:0|0:0|0:0,0:0:0:0:
392,248,119173,2,0,L|440:276,2,50.9999984436036,8|8|8,0:0|0:0|0:0,0:0:0:0:
256,164,119497,6,0,P|188:108|192:-8,1,203.999993774414,4|8,0:0|0:0,0:0:0:0:
312,48,119984,1,0,0:0:0:0:
312,48,120065,1,0,0:0:0:0:
312,48,120146,2,0,P|366:83|385:131,1,101.999996887207,2|0,0:0|0:0,0:0:0:0:
472,244,120470,1,8,0:0:0:0:
332,316,120632,6,0,L|120:344,1,203.999993774414,4|0,0:0|0:0,0:0:0:0:
16,300,121119,1,8,0:0:0:0:
4,176,121281,2,0,P|60:92|160:80,1,203.999993774414,4|0,0:0|0:0,0:0:0:0:
256,152,121767,2,0,P|324:156|372:136,1,101.999996887207,8|2,0:0|0:0,0:0:0:0:
396,112,122011,1,0,0:0:0:0:
428,72,122092,6,0,P|472:116|448:248,1,203.999993774414,4|8,0:0|0:0,0:0:0:0:
348,308,122578,2,0,L|236:356,1,101.999996887207,2|0,0:0|0:0,0:0:0:0:
109,213,122903,2,0,L|123:92,1,101.999996887207,8|0,0:0|0:0,0:0:0:0:
310,54,123227,2,0,P|396:120|380:216,1,203.999993774414,4|0,0:0|0:0,0:0:0:0:
228,188,123713,1,8,0:0:0:0:
204,192,123794,1,8,0:0:0:0:
180,204,123875,1,8,0:0:0:0:
164,224,123957,1,8,0:0:0:0:
152,248,124038,1,8,0:0:0:0:
148,272,124119,1,8,0:0:0:0:
152,296,124200,1,8,0:0:0:0:
164,316,124524,6,0,P|92:308|36:196,1,203.999993774414,4|0,0:0|0:0,0:0:0:0:
192,20,125011,2,0,P|257:122|228:189,1,203.999993774414,8|0,0:0|0:0,0:0:0:0:
128,120,125497,1,0,0:0:0:0:
336,64,125659,2,0,P|400:64|448:96,1,101.999996887207,8|0,0:0|0:0,0:0:0:0:
464,228,125984,6,0,P|448:324|340:340,1,203.999993774414,2|8,0:0|0:0,0:0:0:0:
216,216,126470,2,0,P|307:181|374:267,1,203.999993774414,0|0,0:0|0:0,0:0:0:0:
276,348,126957,1,8,0:0:0:0:
216,216,127119,1,0,0:0:0:0:
156,348,127281,6,0,P|72:304|80:192,1,203.999993774414,4|8,0:0|0:0,0:0:0:0:
216,216,127767,2,0,P|300:172|292:60,1,203.999993774414,0|0,0:0|0:0,0:0:0:0:
112,72,128254,2,0,L|216:120,1,101.999996887207,8|0,0:0|0:0,0:0:0:0:
374,178,128578,5,2,0:0:0:0:
422,317,128740,1,0,0:0:0:0:
278,284,128903,1,8,0:0:0:0:
444,198,129065,5,0,0:0:0:0:
410,370,129227,1,0,0:0:0:0:
281,249,129389,1,0,0:0:0:0:
449,104,129551,2,0,P|464:154|444:198,1,101.999996887207,8|0,0:0|0:0,0:0:0:0:
278,284,129875,6,0,P|218:203|274:116,1,203.999993774414,4|8,0:0|0:0,0:0:0:0:
416,152,130362,1,0,0:0:0:0:
368,300,130524,2,0,P|331:365|203:345,1,203.999993774414,2|8,0:0|0:0,0:0:0:0:
96,312,131011,1,0,0:0:0:0:
140,192,131173,6,0,P|200:188|244:220,1,101.999996887207,4|0,0:0|0:0,0:0:0:0:
312,72,131497,2,0,P|345:121|339:176,1,101.999996887207,8|0,0:0|0:0,0:0:0:0:
504,172,131821,2,0,P|477:225|427:248,1,101.999996887207,2|0,0:0|0:0,0:0:0:0:
240,148,132146,2,0,P|188:140|140:164,1,101.999996887207,8|0,0:0|0:0,0:0:0:0:
96,312,132470,6,0,P|176:366|256:312,1,203.999993774414,4|8,0:0|0:0,0:0:0:0:
476,80,132957,2,0,P|396:26|316:80,1,203.999993774414,2|0,0:0|0:0,0:0:0:0:
234,209,133443,2,0,L|174:109,1,101.999996887207,8|0,0:0|0:0,0:0:0:0:
48,44,133767,2,0,P|-8:128|68:216,1,203.999993774414,4|8,0:0|0:0,0:0:0:0:
144,140,134254,1,0,0:0:0:0:
176,256,134416,5,8,0:0:0:0:
276,96,134578,1,8,0:0:0:0:
276,96,134659,1,8,0:0:0:0:
276,96,134740,1,8,0:0:0:0:
340,172,134903,6,0,P|432:176|476:76,1,203.999993774414,4|0,0:0|0:0,0:0:0:0:
340,172,135389,2,0,P|290:249|355:337,1,203.999993774414,8|2,0:0|0:0,0:0:0:0:
484,192,135875,1,8,0:0:0:0:
496,228,136200,6,0,P|404:248|340:172,1,203.999993774414,4|0,0:0|0:0,0:0:0:0:
424,20,136686,1,8,0:0:0:0:
396,40,137011,5,10,0:0:0:0:
368,48,137092,1,8,0:0:0:0:
336,52,137173,1,8,0:0:0:0:
304,48,137254,1,8,0:0:0:0:
276,40,137335,1,8,0:0:0:0:
156,12,137497,6,0,P|72:40|60:160,1,203.999993774414,4|0,0:0|0:0,0:0:0:0:
76,264,137984,2,0,L|196:296,1,101.999996887207,8|0,0:0|0:0,0:0:0:0:
232,332,138227,1,0,0:0:0:0:
232,332,138308,2,0,L|348:308,1,101.999996887207,2|0,0:0|0:0,0:0:0:0:
452,284,138632,1,8,0:0:0:0:
476,160,138794,6,0,P|448:80|340:40,1,203.999993774414,4|0,0:0|0:0,0:0:0:0:
204,108,139281,1,8,0:0:0:0:
332,192,139443,1,2,0:0:0:0:
240,40,139605,5,8,0:0:0:0:
212,32,139686,1,8,0:0:0:0:
180,36,139767,1,8,0:0:0:0:
24,104,139930,1,8,0:0:0:0:
20,136,140011,1,8,0:0:0:0:
24,168,140092,1,8,0:0:0:0:
40,196,140173,1,8,0:0:0:0:
64,216,140254,6,0,P|136:216|160:202,1,101.999996887207,4|0,0:0|0:0,0:0:0:0:
112,84,140578,1,8,0:0:0:0:
64,216,140740,2,0,P|88:280|136:304,1,101.999996887207,8|0,0:0|0:0,0:0:0:0:
240,228,141065,1,8,0:0:0:0:
260,252,141146,1,8,0:0:0:0:
280,276,141227,1,8,0:0:0:0:
388,368,141389,6,0,P|440:324|448:276,1,101.999996887207,4|0,0:0|0:0,0:0:0:0:
456,120,141713,1,8,0:0:0:0:
432,140,141794,1,8,0:0:0:0:
408,160,141875,1,8,0:0:0:0:
296,248,142038,2,0,P|210:215|169:117,1,203.999993774414,4|8,0:0|0:0,0:0:0:0:
172,88,142443,1,8,0:0:0:0:
188,60,142524,1,8,0:0:0:0:
276,148,142686,6,0,P|204:205|100:192,1,203.999993774414,4|0,0:0|0:0,0:0:0:0:
36,88,143173,2,8,L|0:40,2,50.9999984436036,8|8|8,0:0|0:0|0:0,0:0:0:0:
36,296,143497,2,8,L|0:344,2,50.9999984436036,8|8|8,0:0|0:0|0:0,0:0:0:0:
98,190,143821,1,8,0:0:0:0:
192,272,143984,6,0,P|296:292|352:228,1,191.250007295609,4|2,0:0|0:0,0:0:0:0:
416,292,144632,2,0,P|432:228|408:164,2,127.500004863739,2|2|2,0:0|0:0|0:0,0:0:0:0:
256,192,145443,12,2,150632,0:0:0:0:
192,332,166200,6,0,P|160:296|160:196,1,127.500004863739,4|0,0:0|0:0,0:0:0:0:
320,332,166848,2,0,P|352:296|352:196,1,127.500004863739,8|0,0:0|0:0,0:0:0:0:
324,160,167335,1,0,0:0:0:0:
324,160,167497,2,0,L|260:132,1,63.7500024318696,2|0,0:0|0:0,0:0:0:0:
200,104,167821,2,0,P|180:56|192:28,1,63.7500024318696,0|0,0:0|0:0,0:0:0:0:
200,104,168146,2,0,P|204:184|160:228,1,127.500004863739,8|0,0:0|0:0,0:0:0:0:
108,208,168632,1,0,0:0:0:0:
132,272,168794,6,0,L|252:356,1,127.500004863739,2|0,0:0|0:0,0:0:0:0:
296,312,169281,1,0,0:0:0:0:
356,348,169443,2,0,P|400:328|412:308,1,63.7500024318696,8|0,0:0|0:0,0:0:0:0:
460,364,169767,2,0,P|480:320|477:297,1,63.7500024318696,0|0,0:0|0:0,0:0:0:0:
436,252,170092,1,2,0:0:0:0:
412,184,170254,1,0,0:0:0:0:
484,196,170416,1,0,0:0:0:0:
436,252,170578,1,0,0:0:0:0:
412,184,170740,2,0,L|372:52,1,127.500004863739,8|0,0:0|0:0,0:0:0:0:
236,32,171389,6,0,L|276:164,1,127.500004863739,2|0,0:0|0:0,0:0:0:0:
328,196,171875,1,0,0:0:0:0:
300,260,172038,2,0,P|252:312|188:324,1,127.500004863739,8|0,0:0|0:0,0:0:0:0:
112,168,172686,2,0,P|165:180|213:232,1,127.500004863739,2|0,0:0|0:0,0:0:0:0:
124,264,173173,1,0,0:0:0:0:
124,264,173335,2,0,P|48:260|8:152,1,191.250007295609,8|0,0:0|0:0,0:0:0:0:
4,94,173984,6,0,P|56:46|120:38,1,127.500004863739,2|0,0:0|0:0,0:0:0:0:
159,86,174470,2,0,P|211:134|275:142,1,127.500004863739,8|0,0:0|0:0,0:0:0:0:
332,122,174957,1,2,0:0:0:0:
332,122,175281,5,8,0:0:0:0:
392,162,175443,1,0,0:0:0:0:
380,230,175605,1,0,0:0:0:0:
232,270,175930,5,8,0:0:0:0:
315,192,176092,1,0,0:0:0:0:
202,206,176254,1,8,0:0:0:0:
302,261,176416,1,8,0:0:0:0:
253,158,176578,6,0,P|200:136|140:172,2,127.500004863739,4|0|8,0:0|0:0|0:0,0:0:0:0:
302,261,177551,1,0,0:0:0:0:
302,261,177713,2,0,P|357:247|385:183,1,127.500004863739,2|0,0:0|0:0,0:0:0:0:
344,132,178200,2,0,L|352:60,1,63.7500024318696,0|0,0:0|0:0,0:0:0:0:
412,32,178524,1,8,0:0:0:0:
264,80,178848,5,0,0:0:0:0:
200,112,179011,1,0,0:0:0:0:
140,76,179173,2,0,P|72:92|44:140,1,127.500004863739,2|0,0:0|0:0,0:0:0:0:
52,280,179821,1,8,0:0:0:0:
184,324,180146,5,0,0:0:0:0:
252,308,180308,1,0,0:0:0:0:
320,292,180470,2,0,P|400:288|452:320,1,127.500004863739,2|0,0:0|0:0,0:0:0:0:
492,200,181119,2,0,P|436:176|412:108,1,127.500004863739,8|2,0:0|0:0,0:0:0:0:
411,117,181524,1,2,0:0:0:0:
411,117,181605,1,2,0:0:0:0:
456,66,181767,6,0,L|320:92,1,127.500004863739,2|0,0:0|0:0,0:0:0:0:
264,104,182254,1,0,0:0:0:0:
197,128,182416,2,0,L|129:113,1,63.7500024318696,8|0,0:0|0:0,0:0:0:0:
250,171,182740,2,0,L|270:236,1,63.7500024318696,0|0,0:0|0:0,0:0:0:0:
264,104,183065,6,0,L|310:53,1,63.7500024318696,2|0,0:0|0:0,0:0:0:0:
184,192,183389,2,0,L|138:243,1,63.7500024318696,0|0,0:0|0:0,0:0:0:0:
76,216,183713,6,0,P|68:256|76:288,1,63.7500024318696,8|0,0:0|0:0,0:0:0:0:
44,344,184038,2,0,L|116:362,1,63.7500024318696,0|0,0:0|0:0,0:0:0:0:
212,336,184362,6,0,L|264:272,1,63.7500024318696,2|0,0:0|0:0,0:0:0:0:
304,224,184686,1,0,0:0:0:0:
304,224,184848,1,0,0:0:0:0:
340,336,185011,2,0,L|392:272,1,63.7500024318696,8|0,0:0|0:0,0:0:0:0:
432,224,185335,1,0,0:0:0:0:
432,224,185497,1,0,0:0:0:0:
484,116,185659,6,0,P|432:108|396:80,1,85,8|0,0:0|0:0,0:0:0:0:
324,28,185984,1,0,0:0:0:0:
224,40,186146,1,0,0:0:0:0:
148,108,186308,6,0,L|124:196,1,85,8|0,0:0|0:0,0:0:0:0:
256,352,186632,2,0,L|280:264,1,85,8|0,0:0|0:0,0:0:0:0:
356,236,186957,5,12,0:0:0:0:
148,108,187119,1,12,0:0:0:0:
128,104,187443,6,0,P|112:68|128:20,1,85,2|8,0:0|0:0,0:0:0:0:
149,25,187686,1,8,0:0:0:0:
174,25,187767,1,8,0:0:0:0:
199,25,187848,1,8,0:0:0:0:
224,25,187930,1,8,0:0:0:0:
249,25,188011,1,8,0:0:0:0:
274,25,188092,6,0,P|360:48|408:116,1,170,4|0,0:0|0:0,0:0:0:0:
308,258,188578,2,0,P|312:202|327:179,1,85,8|0,0:0|0:0,0:0:0:0:
372,320,188903,2,0,P|321:344|294:342,1,85,2|0,0:0|0:0,0:0:0:0:
156,192,189227,2,0,P|68:224|56:316,2,170,8|4|8,0:0|0:0|0:0,0:0:0:0:
148,292,190038,1,0,0:0:0:0:
148,292,190119,1,0,0:0:0:0:
148,292,190200,2,0,P|204:292|244:256,1,85,2|8,0:0|0:0,0:0:0:0:
268,184,190524,1,0,0:0:0:0:
236,88,190686,6,0,L|416:72,1,170,4|0,0:0|0:0,0:0:0:0:
438,168,191173,2,0,L|268:184,1,170,8|2,0:0|0:0,0:0:0:0:
168,196,191659,1,0,0:0:0:0:
96,268,191821,2,0,P|116:320|156:340,1,85,8|0,0:0|0:0,0:0:0:0:
232,292,192146,5,12,0:0:0:0:
432,348,192308,1,12,0:0:0:0:
408,328,192632,6,0,P|392:276|400:236,1,85,2|8,0:0|0:0,0:0:0:0:
412,228,192875,1,8,0:0:0:0:
424,204,192957,1,8,0:0:0:0:
428,180,193038,1,8,0:0:0:0:
424,156,193119,1,8,0:0:0:0:
416,132,193200,1,8,0:0:0:0:
400,112,193281,6,0,P|336:60|256:76,1,170,4|0,0:0|0:0,0:0:0:0:
255,178,193767,2,0,P|175:194|111:142,1,170,8|2,0:0|0:0,0:0:0:0:
200,92,194254,1,0,0:0:0:0:
136,260,194416,1,8,0:0:0:0:
112,272,194497,1,8,0:0:0:0:
88,276,194578,1,8,0:0:0:0:
64,272,194659,1,8,0:0:0:0:
44,256,194740,6,0,L|0:172,1,85,8|0,0:0|0:0,0:0:0:0:
136,260,195065,2,0,L|230:263,1,85,2|8,0:0|0:0,0:0:0:0:
272,308,195308,1,0,0:0:0:0:
272,308,195389,2,0,L|336:232,1,85,0|0,0:0|0:0,0:0:0:0:
416,116,195713,1,8,0:0:0:0:
424,216,195875,1,0,0:0:0:0:
324,116,196038,6,0,P|280:88|224:88,1,85,2|0,0:0|0:0,0:0:0:0:
84,128,196362,2,0,P|52:169|47:225,1,85,8|0,0:0|0:0,0:0:0:0:
112,344,196686,1,8,0:0:0:0:
112,344,196767,1,8,0:0:0:0:
112,344,196848,1,8,0:0:0:0:
254,268,197011,1,8,0:0:0:0:
280,260,197092,1,8,0:0:0:0:
304,260,197173,1,8,0:0:0:0:
328,263,197254,1,8,0:0:0:0:
351,275,197335,1,4,0:0:0:0:
436,328,197497,5,0,0:0:0:0:
476,232,197659,2,0,L|464:136,1,85,8|0,0:0|0:0,0:0:0:0:
465,147,197903,1,0,0:0:0:0:
465,147,197984,2,0,P|408:144|368:112,1,85,2|0,0:0|0:0,0:0:0:0:
340,40,198308,1,8,0:0:0:0:
232,132,198470,6,0,P|160:140|100:40,1,170,4|0,0:0|0:0,0:0:0:0:
292,88,198957,2,0,L|352:156,1,85,8|0,0:0|0:0,0:0:0:0:
348,151,199200,1,0,0:0:0:0:
348,151,199281,2,0,P|328:208|344:244,1,85,4|0,0:0|0:0,0:0:0:0:
436,268,199605,1,8,0:0:0:0:
348,336,199767,5,0,0:0:0:0:
348,336,199848,1,0,0:0:0:0:
348,336,199930,2,0,P|264:324|236:228,1,170,4|8,0:0|0:0,0:0:0:0:
256,96,200416,1,2,0:0:0:0:
84,300,200740,1,8,0:0:0:0:
84,300,200821,1,8,0:0:0:0:
84,300,200903,1,8,0:0:0:0:
36,212,201065,6,0,P|32:136|124:88,1,170,4|0,0:0|0:0,0:0:0:0:
205,86,201551,2,0,P|276:135|272:211,1,170,8|2,0:0|0:0,0:0:0:0:
184,264,202038,1,0,0:0:0:0:
272,316,202200,1,8,0:0:0:0:
296,308,202281,1,8,0:0:0:0:
320,300,202362,1,8,0:0:0:0:
344,292,202443,1,8,0:0:0:0:
368,284,202524,6,0,L|384:192,1,85,4|0,0:0|0:0,0:0:0:0:
144,100,202848,2,0,L|128:192,1,85,8|0,0:0|0:0,0:0:0:0:
348,80,203173,2,0,L|256:64,1,85,2|0,0:0|0:0,0:0:0:0:
164,304,203497,2,0,L|256:320,1,85,8|0,0:0|0:0,0:0:0:0:
216,76,203821,6,0,P|188:40|128:28,1,85,4|0,0:0|0:0,0:0:0:0:
296,308,204146,2,0,P|324:344|384:356,1,85,8|0,0:0|0:0,0:0:0:0:
140,232,204470,2,0,P|104:260|92:320,1,85,2|0,0:0|0:0,0:0:0:0:
372,152,204794,2,0,P|408:124|420:64,1,85,8|0,0:0|0:0,0:0:0:0:
256,48,205119,5,4,0:0:0:0:
91,169,205281,1,8,0:0:0:0:
91,169,205362,1,8,0:0:0:0:
91,169,205443,1,8,0:0:0:0:
279,246,205605,1,8,0:0:0:0:
279,246,205686,1,8,0:0:0:0:
279,246,205767,1,8,0:0:0:0:
256,48,205930,5,8,0:0:0:0:
91,169,206092,1,8,0:0:0:0:
279,246,206254,1,8,0:0:0:0:
292,224,206335,1,8,0:0:0:0:
296,200,206416,1,8,0:0:0:0:
292,176,206497,1,8,0:0:0:0:
280,152,206578,1,8,0:0:0:0:
260,136,206659,1,8,0:0:0:0:
236,132,206740,6,0,B|215:156|215:156|198:146|198:146|196:164|196:164|179:153|179:153|171:165|171:165|120:176|105:216,1,191.25,4|0,1:1|0:0,3:0:0:0:
92,284,207551,6,0,P|136:352|268:336,1,203.999993774414,4|0,0:0|0:0,0:0:0:0:
456,164,208038,2,0,P|412:232|280:216,1,203.999993774414,8|0,0:0|0:0,0:0:0:0:
236,124,208524,1,0,0:0:0:0:
320,36,208686,2,0,P|356:84|356:136,1,101.999996887207,8|0,0:0|0:0,0:0:0:0:
207,243,209011,6,0,P|131:243|63:111,1,203.999993774414,2|8,0:0|0:0,0:0:0:0:
324,208,209497,2,0,P|362:274|282:399,1,203.999993774414,0|0,0:0|0:0,0:0:0:0:
236,124,209984,2,0,P|260:72|304:40,1,101.999996887207,8|0,0:0|0:0,0:0:0:0:
463,90,210308,6,0,L|455:314,1,203.999993774414,4|8,0:0|0:0,0:0:0:0:
196,136,210794,2,0,L|393:30,1,203.999993774414,0|0,0:0|0:0,0:0:0:0:
369,343,211281,2,0,L|179:224,1,203.999993774414,8|2,0:0|0:0,0:0:0:0:
68,152,211767,1,0,0:0:0:0:
60,304,211930,1,8,0:0:0:0:
196,234,212092,1,0,0:0:0:0:
124,92,212254,2,0,P|72:68|16:80,1,101.999996887207,0|0,0:0|0:0,0:0:0:0:
60,304,212578,5,8,0:0:0:0:
264,252,212740,1,0,0:0:0:0:
124,92,212903,2,8,P|44:129|57:250,1,203.999993774414,4|8,0:0|0:0,0:0:0:0:
180,288,213389,1,0,0:0:0:0:
338,176,213551,6,0,L|423:112,1,101.999996887207,2|0,0:0|0:0,0:0:0:0:
261,236,213875,2,0,L|168:197,1,101.999996887207,8|0,0:0|0:0,0:0:0:0:
351,273,214200,2,0,L|365:375,1,101.999996887207,4|0,0:0|0:0,0:0:0:0:
350,143,214524,6,0,L|452:115,1,101.999996887207,8|0,0:0|0:0,0:0:0:0:
325,237,214848,2,0,L|299:340,1,101.999996887207,2|0,0:0|0:0,0:0:0:0:
256,169,215173,2,0,L|181:95,1,101.999996887207,8|0,0:0|0:0,0:0:0:0:
144,64,215416,1,0,0:0:0:0:
104,32,215497,6,0,P|32:96|72:204,1,203.999993774414,4|8,0:0|0:0,0:0:0:0:
256,356,215984,2,0,P|328:292|288:184,1,203.999993774414,0|0,0:0|0:0,0:0:0:0:
112,236,216470,2,0,L|236:260,1,101.999996887207,8|0,0:0|0:0,0:0:0:0:
432,296,216794,2,0,P|492:232|456:108,1,203.999993774414,2|8,0:0|0:0,0:0:0:0:
356,60,217281,1,0,0:0:0:0:
356,192,217443,5,8,0:0:0:0:
160,25,217605,2,0,P|108:24|64:48,1,95.6250036478044,8|0,0:0|0:0,0:0:0:0:
40,108,217930,6,0,L|28:320,1,203.999993774414,4|0,0:0|0:0,0:0:0:0:
148,280,218416,2,0,P|208:256|260:268,1,101.999996887207,8|0,0:0|0:0,0:0:0:0:
356,320,218740,1,2,0:0:0:0:
304,76,218903,1,8,0:0:0:0:
324,44,219227,6,0,P|396:40|476:140,1,203.999993774414,4|0,0:0|0:0,0:0:0:0:
475,250,219713,2,0,P|396:344|324:340,1,203.999993774414,8|2,0:0|0:0,0:0:0:0:
84,256,220200,1,8,0:0:0:0:
116,232,220524,6,0,P|160:160|84:52,1,203.999993774414,4|0,0:0|0:0,0:0:0:0:
4,124,221011,1,8,0:0:0:0:
32,248,221173,1,0,0:0:0:0:
32,248,221254,1,0,0:0:0:0:
32,248,221335,2,0,L|60:356,1,101.999996887207,2|0,0:0|0:0,0:0:0:0:
76,168,221659,6,0,P|132:156|172:180,1,101.999996887207,8|0,0:0|0:0,0:0:0:0:
200,312,221984,2,0,P|280:284|308:168,1,203.999993774414,4|8,0:0|0:0,0:0:0:0:
208,68,222470,1,0,0:0:0:0:
85,68,222632,2,8,L|25:68,2,50.9999984436036,8|8|8,0:0|0:0|0:0,0:0:0:0:
330,68,222957,2,0,L|390:68,2,50.9999984436036,8|8|8,0:0|0:0|0:0,0:0:0:0:
260,184,223281,6,0,P|324:256|420:212,1,203.999993774414,4|8,0:0|0:0,0:0:0:0:
330,68,223767,1,0,0:0:0:0:
330,68,223848,1,0,0:0:0:0:
330,68,223930,2,0,L|348:184,1,101.999996887207,2|0,0:0|0:0,0:0:0:0:
368,344,224254,1,8,0:0:0:0:
260,184,224416,6,0,P|188:148|88:208,1,203.999993774414,4|0,0:0|0:0,0:0:0:0:
68,360,224903,1,8,0:0:0:0:
172,244,225065,2,0,P|181:164|90:90,1,203.999993774414,4|0,0:0|0:0,0:0:0:0:
16,232,225551,1,8,0:0:0:0:
20,264,225632,1,8,0:0:0:0:
36,288,225713,1,8,0:0:0:0:
64,304,225794,1,8,0:0:0:0:
96,308,225875,6,0,P|168:300|208:184,1,203.999993774414,4|8,0:0|0:0,0:0:0:0:
64,64,226362,2,0,P|88:116|152:136,1,101.999996887207,2|0,0:0|0:0,0:0:0:0:
385,135,226686,2,0,P|424:116|448:64,1,101.999996887207,8|0,0:0|0:0,0:0:0:0:
256,16,227011,2,0,L|256:228,1,203.999993774414,4|0,0:0|0:0,0:0:0:0:
172,344,227497,5,8,0:0:0:0:
196,364,227578,1,8,0:0:0:0:
224,376,227659,1,8,0:0:0:0:
256,380,227740,1,8,0:0:0:0:
288,376,227821,1,8,0:0:0:0:
316,364,227903,1,8,0:0:0:0:
340,344,227984,1,8,0:0:0:0:
360,320,228308,6,0,L|424:120,1,203.999993774414,4|0,0:0|0:0,0:0:0:0:
256,28,228794,2,0,L|193:222,1,203.999993774414,8|0,0:0|0:0,0:0:0:0:
256,328,229281,1,0,0:0:0:0:
136,344,229443,2,0,P|88:340|52:280,1,101.999996887207,8|0,0:0|0:0,0:0:0:0:
16,40,229767,6,0,P|108:56|132:168,1,203.999993774414,2|8,0:0|0:0,0:0:0:0:
136,344,230254,2,0,P|234:366|293:294,1,203.999993774414,0|0,0:0|0:0,0:0:0:0:
392,100,230740,2,0,P|460:104|496:144,1,101.999996887207,8|0,0:0|0:0,0:0:0:0:
440,344,231065,6,0,P|336:344|296:252,1,203.999993774414,4|8,0:0|0:0,0:0:0:0:
392,100,231551,2,0,P|444:190|384:270,1,203.999993774414,0|0,0:0|0:0,0:0:0:0:
248,176,232038,2,0,P|316:168|360:196,1,101.999996887207,8|0,0:0|0:0,0:0:0:0:
280,344,232362,5,2,0:0:0:0:
120,288,232524,1,0,0:0:0:0:
248,176,232686,1,8,0:0:0:0:
192,340,232848,5,0,0:0:0:0:
81,211,233011,1,0,0:0:0:0:
248,176,233173,1,0,0:0:0:0:
120,288,233335,2,0,P|64:296|16:272,1,101.999996887207,8|0,0:0|0:0,0:0:0:0:
113,53,233659,6,0,P|151:129|81:211,1,203.999993774414,4|8,0:0|0:0,0:0:0:0:
4,112,234146,1,0,0:0:0:0:
114,53,234308,2,0,L|325:72,1,203.999993774414,2|8,0:0|0:0,0:0:0:0:
400,164,234794,1,0,0:0:0:0:
304,240,234957,6,0,L|197:230,1,101.999996887207,4|0,0:0|0:0,0:0:0:0:
32,144,235281,2,0,L|139:154,1,101.999996887207,8|0,0:0|0:0,0:0:0:0:
392,188,235605,2,0,P|376:308|311:339,1,203.999993774414,2|8,0:0|0:0,0:0:0:0:
200,244,236092,1,0,0:0:0:0:
232,100,236254,6,0,P|312:46|392:100,1,203.999993774414,4|8,0:0|0:0,0:0:0:0:
280,284,236740,2,0,P|200:338|120:284,1,203.999993774414,2|0,0:0|0:0,0:0:0:0:
218,153,237227,2,0,P|228:200|200:244,1,101.999996887207,8|0,0:0|0:0,0:0:0:0:
116,104,237551,2,0,P|172:48|300:80,1,203.999993774414,4|8,0:0|0:0,0:0:0:0:
412,160,238038,1,0,0:0:0:0:
456,308,238200,5,8,0:0:0:0:
476,64,238362,1,8,0:0:0:0:
476,64,238443,1,8,0:0:0:0:
476,64,238524,1,8,0:0:0:0:
392,124,238686,6,0,P|340:152|224:68,1,203.999993774414,4|0,0:0|0:0,0:0:0:0:
0,152,239173,2,0,P|52:124|168:208,1,203.999993774414,8|2,0:0|0:0,0:0:0:0:
40,340,239659,1,8,0:0:0:0:
80,352,239984,6,0,P|188:356|260:288,1,203.999993774414,4|0,0:0|0:0,0:0:0:0:
256,84,240470,1,8,0:0:0:0:
280,64,240794,5,8,0:0:0:0:
308,56,240875,1,8,0:0:0:0:
340,52,240957,1,8,0:0:0:0:
372,56,241038,1,8,0:0:0:0:
400,68,241119,1,8,0:0:0:0:
476,216,241281,6,0,P|492:276|388:368,1,203.999993774414,4|0,0:0|0:0,0:0:0:0:
292,312,241767,2,0,P|232:296|176:308,1,101.999996887207,8|0,0:0|0:0,0:0:0:0:
132,332,242011,1,0,0:0:0:0:
132,332,242092,2,0,P|92:292|80:240,1,101.999996887207,2|0,0:0|0:0,0:0:0:0:
80,60,242416,1,8,0:0:0:0:
176,188,242578,6,0,P|256:216|356:136,1,203.999993774414,4|0,0:0|0:0,0:0:0:0:
228,20,243065,2,0,L|252:128,1,101.999996887207,8|2,0:0|0:0,0:0:0:0:
288,328,243389,1,8,0:0:0:0:
300,300,243470,1,8,0:0:0:0:
312,272,243551,1,8,0:0:0:0:
376,108,243713,1,8,0:0:0:0:
400,128,243794,1,8,0:0:0:0:
424,148,243875,1,8,0:0:0:0:
448,168,243957,1,8,0:0:0:0:
472,188,244038,6,0,P|464:248|432:280,1,101.999996887207,4|0,0:0|0:0,0:0:0:0:
312,272,244362,1,8,0:0:0:0:
472,187,244524,2,0,P|416:211|372:199,1,101.999996887207,8|0,0:0|0:0,0:0:0:0:
236,144,244848,1,8,0:0:0:0:
212,128,244930,1,8,0:0:0:0:
196,100,245011,1,8,0:0:0:0:
372,104,245173,6,0,P|381:202|308:272,1,203.999993774414,4|8,0:0|0:0,0:0:0:0:
280,276,245578,1,8,0:0:0:0:
248,272,245659,1,8,0:0:0:0:
112,152,245821,2,0,P|48:196|48:328,1,203.999993774414,4|0,0:0|0:0,0:0:0:0:
148,376,246308,1,8,0:0:0:0:
272,380,246470,6,0,P|368:360|392:248,1,203.999993774414,4|0,0:0|0:0,0:0:0:0:
376,100,246957,2,8,L|364:28,2,50.9999984436036
312,220,247281,2,8,L|300:292,2,50.9999984436036
256,120,247605,1,8,0:0:0:0:
200,200,247767,6,0,P|96:164|88:72,1,191.250007295609,4|0,0:0|0:0,0:0:0:0:
276,164,248578,2,0,L|281:232,1,63.7500024318696,2|0,0:0|0:0,0:0:0:0:
292,348,249065,5,0,0:0:0:0:
292,348,249227,2,0,P|420:352|416:144,1,382.500014591218,10|0,0:0|0:0,0:0:0:0:
356,248,250524,2,0,L|208:120,2,191.250007295609,2|2|0,0:0|0:0|0:0,0:0:0:0:
292,348,251821,2,0,P|220:368|128:296,2,191.250007295609,2|2|0,0:0|0:0|0:0,0:0:0:0:
232,244,253119,2,0,P|221:135|340:72,1,255.000009727478,2|0,0:0|0:0,0:0:0:0:
344,192,254092,5,2,0:0:0:0:
289,218,254254,1,0,0:0:0:0:
232,244,254416,2,0,P|168:256|96:224,1,127.500004863739,2|0,0:0|0:0,0:0:0:0:
40,128,255065,2,0,P|104:116|176:148,1,127.500004863739,0|0,0:0|0:0,0:0:0:0:
220,24,255713,2,0,P|262:73|270:151,1,127.500004863739,2|0,0:0|0:0,0:0:0:0:
232,244,256362,2,0,P|280:280|356:276,1,127.500004863739,0|0,0:0|0:0,0:0:0:0:
460,200,257011,6,8,P|496:271|444:360,2,191.250007295609,2|2|0,0:0|0:0|0:0,0:0:0:0:
376,276,258308,2,0,L|252:316,1,127.500004863739,2|0,0:0|0:0,0:0:0:0:
140,300,258957,5,2,0:0:0:0:
140,300,259119,2,0,P|104:256|144:132,1,191.250007295609,2|2,0:0|0:0,0:0:0:0:
232,220,259930,2,0,P|276:172|260:96,1,127.500004863739,0|2,0:0|0:0,0:0:0:0:
236,64,260416,1,2,0:0:0:0:
236,64,260740,2,0,L|440:48,1,191.250007295609,2|0,0:0|0:0,0:0:0:0:
496,148,261551,5,2,0:0:0:0:
496,148,261713,1,2,0:0:0:0:
496,148,262038,2,0,L|292:164,1,191.250007295609,2|2,0:0|0:0,0:0:0:0:
236,264,262848,2,0,P|192:312|120:320,2,127.500004863739,2|0|2,0:0|0:0|0:0,0:0:0:0:
128,204,263821,1,0,0:0:0:0:
128,204,263984,2,0,P|100:124|180:56,1,191.250007295609,2|0,0:0|0:0,0:0:0:0:
240,88,264632,1,0,0:0:0:0:
304,56,264794,6,0,P|352:60|412:120,1,136,4|0,0:0|0:0,0:0:0:0:
472,56,265281,2,0,P|492:99|470:181,1,136,2|0,0:0|0:0,0:0:0:0:
384,196,265767,1,8,0:0:0:0:
460,288,265930,6,0,P|416:316|308:284,1,152.999995330811,4|0,0:0|0:0,0:0:0:0:
256,220,266416,1,8,0:0:0:0:
190,297,266578,1,0,0:0:0:0:
124,224,266740,6,0,P|92:144|140:64,1,170,4|8,0:0|0:0,0:0:0:0:
236,48,267227,1,0,0:0:0:0:
276,160,267389,6,0,L|168:148,1,85,4|0,0:0|0:0,0:0:0:0:
324,296,267713,2,0,L|432:308,1,85,8|0,0:0|0:0,0:0:0:0:
232,248,268038,2,0,L|220:356,1,85,8|0,0:0|0:0,0:0:0:0:
368,200,268362,1,8,0:0:0:0:
368,200,268443,1,8,0:0:0:0:
368,200,268524,6,0,L|380:92,1,85,4|0,1:1|0:0,0:0:0:0:
292,20,269821,6,0,P|188:32|140:120,1,203.999993774414,4|0,0:0|0:0,0:0:0:0:
164,252,270308,1,8,0:0:0:0:
276,160,270470,1,0,0:0:0:0:
140,111,270632,2,0,P|76:128|48:164,1,101.999996887207,0|0,0:0|0:0,0:0:0:0:
260,312,270957,2,0,P|324:295|352:259,1,101.999996887207,8|0,0:0|0:0,0:0:0:0:
447,65,271281,6,0,P|333:25|272:68,1,203.999993774414,2|8,0:0|0:0,0:0:0:0:
247,339,271767,2,0,P|338:260|333:186,1,203.999993774414,0|0,0:0|0:0,0:0:0:0:
116,160,272254,2,0,P|164:206|196:217,1,101.999996887207,8|0,0:0|0:0,0:0:0:0:
156,60,272578,6,0,P|64:60|8:148,1,203.999993774414,4|8,0:0|0:0,0:0:0:0:
148,352,273065,2,0,L|372:324,1,203.999993774414,0|0,0:0|0:0,0:0:0:0:
500,204,273551,2,0,L|386:190,1,101.999996887207,8|0,0:0|0:0,0:0:0:0:
184,168,273875,5,2,0:0:0:0:
60,76,274038,1,0,0:0:0:0:
204,16,274200,1,8,0:0:0:0:
136,191,274362,5,0,0:0:0:0:
62,21,274524,1,0,0:0:0:0:
248,46,274686,1,0,0:0:0:0:
328,208,274848,2,0,P|318:231|258:275,1,101.999996887207,8|0,0:0|0:0,0:0:0:0:
88,276,275173,6,0,P|28:232|18:208,1,101.999996887207,4|0,0:0|0:0,0:0:0:0:
248,46,275497,2,0,P|308:90|320:130,1,101.999996887207,8|0,0:0|0:0,0:0:0:0:
264,338,275821,2,0,P|204:294|192:254,1,101.999996887207,2|0,0:0|0:0,0:0:0:0:
424,108,276146,2,0,P|484:152|496:192,1,101.999996887207,8|0,0:0|0:0,0:0:0:0:
272,120,276470,6,0,P|280:46|308:15,1,101.999996887207,4|0,0:0|0:0,0:0:0:0:
360,248,276794,2,0,P|291:277|251:268,1,101.999996887207,8|0,0:0|0:0,0:0:0:0:
180,40,277119,2,0,P|116:40|36:152,1,203.999993774414,2|8,0:0|0:0,0:0:0:0:
24,276,277605,1,0,0:0:0:0:
152,316,277767,6,0,L|356:372,1,203.999993774414,4|8,0:0|0:0,0:0:0:0:
480,132,278254,2,0,L|276:76,1,203.999993774414,2|0,0:0|0:0,0:0:0:0:
144,44,278740,2,0,P|88:59|48:112,1,101.999996887207,8|0,0:0|0:0,0:0:0:0:
212,292,279065,2,0,P|217:194|139:130,1,203.999993774414,4|8,0:0|0:0,0:0:0:0:
0,152,279551,1,0,0:0:0:0:
88,264,279713,5,8,0:0:0:0:
312,156,279875,1,8,0:0:0:0:
312,156,279957,1,8,0:0:0:0:
312,156,280038,1,8,0:0:0:0:
372,224,280200,6,0,P|444:176|424:60,1,203.999993774414,4|0,0:0|0:0,0:0:0:0:
312,156,280686,2,0,P|284:232|368:316,1,203.999993774414,8|2,0:0|0:0,0:0:0:0:
433,70,281173,1,8,0:0:0:0:
400,48,281497,6,0,P|316:20|204:80,1,203.999993774414,4|0,0:0|0:0,0:0:0:0:
196,304,281984,1,8,0:0:0:0:
180,276,282308,5,10,0:0:0:0:
164,248,282389,1,8,0:0:0:0:
148,220,282470,1,8,0:0:0:0:
132,192,282551,1,8,0:0:0:0:
116,164,282632,1,8,0:0:0:0:
44,24,282794,6,0,P|131:13|194:102,1,203.999993774414,4|0,0:0|0:0,0:0:0:0:
40,237,283281,2,0,L|132:192,1,101.999996887207,8|0,0:0|0:0,0:0:0:0:
200,164,283524,1,0,0:0:0:0:
200,164,283605,2,0,P|240:208|240:252,1,101.999996887207,2|0,0:0|0:0,0:0:0:0:
144,356,283930,1,8,0:0:0:0:
364,324,284092,6,0,P|424:264|376:156,1,203.999993774414,4|0,0:0|0:0,0:0:0:0:
256,260,284578,1,8,0:0:0:0:
124,162,284740,1,2,0:0:0:0:
256,64,284903,1,8,0:0:0:0:
284,56,284984,1,8,0:0:0:0:
316,60,285065,1,8,0:0:0:0:
344,244,285227,1,8,0:0:0:0:
316,232,285308,1,8,0:0:0:0:
296,208,285389,1,8,0:0:0:0:
288,180,285470,1,8,0:0:0:0:
284,152,285551,6,0,P|284:108|316:60,1,101.999996887207,4|0,0:0|0:0,0:0:0:0:
452,28,285875,1,8,0:0:0:0:
464,236,286038,2,0,P|448:292|408:324,1,101.999996887207,8|0,0:0|0:0,0:0:0:0:
236,200,286362,1,8,0:0:0:0:
204,176,286686,6,0,P|164:152|100:164,1,101.999996887207,4|0,0:0|0:0,0:0:0:0:
16,308,287011,1,8,0:0:0:0:
24,280,287092,1,8,0:0:0:0:
32,248,287173,1,8,0:0:0:0:
80,80,287335,2,0,P|184:72|272:128,1,203.999993774414,4|8,0:0|0:0,0:0:0:0:
152,312,287821,1,12,0:0:0:0:
368,224,288146,6,0,L|424:120,1,101.999996887207,8|0,0:0|0:0,0:0:0:0:
484,20,288470,1,8,0:0:0:0:
344,84,288632,2,0,P|292:104|236:80,1,101.999996887207,8|0,0:0|0:0,0:0:0:0:
108,28,288957,1,8,0:0:0:0:
92,56,289038,1,8,0:0:0:0:
76,84,289119,1,8,0:0:0:0:
128,224,289281,1,8,0:0:0:0:
0,292,289443,6,0,P|116:376|168:364,1,203.999993774414,4|8,0:0|0:0,0:0:0:0:
220,168,289930,2,0,P|284:176|316:200,1,101.999996887207,12|0,0:0|0:0,0:0:0:0:
384,352,290254,2,0,P|448:344|480:320,1,101.999996887207,8|12,0:0|0:0,0:0:0:0:
492,296,290497,1,8,0:0:0:0:
496,264,290578,1,8,0:0:0:0:
492,232,290659,1,8,0:0:0:0:
476,204,290740,6,0,P|440:168|292:192,1,203.999993774414,4|8,0:0|0:0,0:0:0:0:
216,376,291227,2,0,P|104:342|86:267,1,203.999993774414,12|8,0:0|0:0,0:0:0:0:
92,236,291632,1,8,0:0:0:0:
112,212,291713,1,8,0:0:0:0:
300,92,291875,6,0,P|272:48|208:28,1,101.999996887207,12|0,0:0|0:0,0:0:0:0:
56,56,292200,1,8,0:0:0:0:
68,84,292281,1,8,0:0:0:0:
80,112,292362,1,8,0:0:0:0:
60,240,292524,6,0,L|24:352,1,101.999996887207,12|0,0:0|0:0,0:0:0:0:
220,252,292848,2,0,L|256:140,1,101.999996887207,8|0,0:0|0:0,0:0:0:0:
364,44,293173,6,0,P|448:76|464:192,1,203.999993774414,4|8,0:0|0:0,0:0:0:0:
256,340,293659,1,8,0:0:0:0:
256,340,293740,1,8,0:0:0:0:
256,340,293821,1,8,0:0:0:0:
392,240,293984,1,8,0:0:0:0:
392,240,294065,1,8,0:0:0:0:
392,240,294146,1,8,0:0:0:0:
208,144,294308,1,8,0:0:0:0:
416,76,294470,6,0,P|452:95|472:144,1,85,4|0,0:0|0:0,0:0:0:0:
472,208,295930,6,0,P|452:284|341:320,1,203.999993774414,4|8,0:0|0:0,0:0:0:0:
256,232,296416,1,0,0:0:0:0:
170,320,296578,2,0,P|60:284|40:208,1,203.999993774414,2|8,0:0|0:0,0:0:0:0:
364,16,297227,6,0,P|477:65|494:135,1,203.999993774414,2|8,0:0|0:0,0:0:0:0:
372,136,297713,1,0,0:0:0:0:
256,172,297875,2,0,P|204:156|164:88,1,101.999996887207,2|0,0:0|0:0,0:0:0:0:
68,164,298200,2,0,P|55:110|94:42,1,101.999996887207,8|0,0:0|0:0,0:0:0:0:
148,224,298524,6,0,P|140:312|40:356,1,203.999993774414,2|8,0:0|0:0,0:0:0:0:
32,236,299011,1,0,0:0:0:0:
248,340,299173,2,0,L|356:352,1,101.999996887207,2|0,0:0|0:0,0:0:0:0:
484,256,299497,2,0,L|376:244,1,101.999996887207,8|0,0:0|0:0,0:0:0:0:
240,172,299821,6,0,P|216:88|316:8,1,203.999993774414,2|8,0:0|0:0,0:0:0:0:
412,24,300308,1,0,0:0:0:0:
324,108,300470,2,0,L|108:52,1,203.999993774414,2|8,0:0|0:0,0:0:0:0:
8,28,300957,1,0,0:0:0:0:
28,148,301119,6,0,L|244:204,1,203.999993774414,4|8,0:0|0:0,0:0:0:0:
344,228,301605,1,0,0:0:0:0:
444,156,301767,2,0,P|464:112|444:48,1,101.999996887207,2|0,0:0|0:0,0:0:0:0:
344,228,302092,2,0,P|324:272|344:336,1,101.999996887207,8|0,0:0|0:0,0:0:0:0:
456,272,302416,6,0,L|320:96,1,203.999993774414,4|8,0:0|0:0,0:0:0:0:
216,68,302903,1,0,0:0:0:0:
92,72,303065,2,0,P|36:136|56:264,1,203.999993774414,2|8,0:0|0:0,0:0:0:0:
148,320,303551,1,0,0:0:0:0:
272,316,303713,6,0,P|336:292|368:236,1,101.999996887207,4|0,0:0|0:0,0:0:0:0:
140,143,304038,2,0,P|129:211|161:266,1,101.999996887207,8|0,0:0|0:0,0:0:0:0:
355,116,304362,6,0,P|302:72|238:73,1,101.999996887207,4|0,0:0|0:0,0:0:0:0:
156,267,304686,2,0,P|209:311|273:310,1,101.999996887207,8|0,0:0|0:0,0:0:0:0:
400,192,305011,6,0,P|257:86|112:192,1,382.500014591218,4|0,0:0|0:0,0:0:0:0:
256,192,306308,12,0,316686,0:0:0:0:
