osu file format v12

[General]
AudioFilename: Lament.mp3
AudioLeadIn: 2000
PreviewTime: 102586
Countdown: 0
SampleSet: Soft
StackLeniency: 0.7
Mode: 0
LetterboxInBreaks: 1
WidescreenStoryboard: 0

[Editor]
Bookmarks: 4802,15667,41613,62370,83127,103721,145397,166154,186910,207505,249181,269775,295883,306262
DistanceSpacing: 1
BeatDivisor: 4
GridSize: 4

[Metadata]
Title:Lament
TitleUnicode:Lament
Artist:Aoi Eir
ArtistUnicode:藍井 エイル
Creator:CXu
Version:Easy
Source:Fate/Zero
Tags:Saber Image Song Soushi Iihama BLAU セイバー フェイト/ゼロ Eiru Kotayo pkhg
BeatmapID:271339
BeatmapSetID:86178

[Difficulty]
HPDrainRate:2
CircleSize:2
OverallDifficulty:2
ApproachRate:4
SliderMultiplier:1
SliderTickRate:2

[Events]
//Background and Video events
0,0,"LamentBG.jpg",0,0
//Break Periods
2,150832,164880
//Storyboard Layer 0 (Background)
//Storyboard Layer 1 (Fail)
//Storyboard Layer 2 (Pass)
//Storyboard Layer 3 (Foreground)
//Storyboard Sound Samples
//Background Colour Transformations
3,100,163,162,255

[TimingPoints]
391,324.324324324324,4,2,2,40,1,0
4850,324.324324324324,4,2,2,40,1,0
4850,-133.333333333333,4,2,2,40,0,0
12633,357.142857142857,4,2,2,40,1,0
12633,-133.333333333333,4,2,2,40,0,0
14061,332.332642819953,4,2,2,40,1,0
15390,324.324324324324,4,2,2,40,1,0
33876,324.324324324324,4,2,2,40,1,0
41659,-100,4,2,1,100,0,1
41740,-100,4,2,1,100,0,0
61119,-100,4,2,1,60,0,0
62416,-100,4,2,2,70,0,0
81713,-100,4,2,1,80,0,0
98740,-100,4,2,1,70,0,0
100038,-100,4,2,1,80,0,0
101335,-100,4,2,1,90,0,0
102470,-100,4,2,1,60,0,0
103767,-100,4,2,1,100,0,1
123713,-100,4,2,1,70,0,1
124362,-100,4,2,1,100,0,0
124524,-100,4,2,1,100,0,1
143984,-100,4,2,1,60,0,0
166200,-100,4,2,2,70,0,0
185659,-100,4,2,1,80,0,0
202524,-100,4,2,1,70,0,0
203821,-100,4,2,1,80,0,0
205119,-100,4,2,1,90,0,0
206254,-100,4,2,1,60,0,0
207551,-100,4,2,1,100,0,1
227497,-100,4,2,1,70,0,1
228146,-100,4,2,1,100,0,0
228308,-100,4,2,1,100,0,1
247767,-100,4,2,1,60,0,0
249227,-100,4,2,1,70,0,0
264794,-100,4,2,1,80,0,0
265930,-100,4,2,1,90,0,0
266740,-100,4,2,1,100,0,0
269821,-100,4,2,1,100,0,1
294470,-100,4,2,1,100,0,0
305011,-104.166666666667,4,2,1,70,0,0
306308,-100,4,2,1,60,0,0
307605,-100,4,2,1,50,0,0
308903,-100,4,2,1,40,0,0
310200,-100,4,2,1,30,0,0
311497,-100,4,2,1,20,0,0

[Colours]
Combo1 : 242,218,2
Combo2 : 34,232,118
Combo3 : 67,35,220
Combo4 : 220,46,94

[HitObjects]
256,192,391,12,2,2823,0:0:0:0:
56,192,4850,6,0,P|96:184|184:248,1,150.000005722046,2|0,0:0|0:0,0:0:0:0:
330,241,6147,2,0,P|416:184|456:192,1,150.000005722046,2|0,0:0|0:0,0:0:0:0:
436,340,7444,5,2,0:0:0:0:
288,332,8093,1,0,0:0:0:0:
236,192,8741,2,0,P|164:232|136:304,2,150.000005722046,2|0|2,0:0|0:0|0:0,0:0:0:0:
388,192,10687,5,0,0:0:0:0:
312,60,11336,2,0,P|228:60|156:88,1,150.000005722046,2|0,0:0|0:0,0:0:0:0:
84,192,12633,1,2,0:0:0:0:
166,302,13347,2,0,P|228:324|312:324,1,150.000005722046,0|2,0:0|0:0,0:0:0:0:
256,192,15714,5,2,0:0:0:0:
320,128,16038,2,0,P|372:124|468:240,2,200,2|2|2,0:0|0:0|0:0,0:0:0:0:
256,296,17984,2,0,P|184:276|148:200,2,150,2|2|0,0:0|0:0|0:0,0:0:0:0:
346,296,19281,6,0,L|488:356,2,150,2|2|0,0:0|0:0|0:0,0:0:0:0:
304,216,20579,2,0,P|336:152|472:136,1,200,2|0,0:0|0:0,0:0:0:0:
484,212,21552,1,2,0:0:0:0:
416,272,21876,5,2,0:0:0:0:
256,352,22525,1,0,0:0:0:0:
96,272,23173,1,2,0:0:0:0:
256,192,23822,1,0,0:0:0:0:
432,164,24471,6,0,P|408:88|332:48,2,150,2|2|0,0:0|0:0|0:0,0:0:0:0:
380,236,25768,1,2,0:0:0:0:
256,104,26417,6,0,L|52:68,2,200,2|2|2,0:0|0:0|0:0,0:0:0:0:
340,264,28362,2,0,L|136:228,1,200,2|2,0:0|0:0,0:0:0:0:
300,144,29660,6,0,P|352:128|460:216,1,200,2|2,0:0|0:0,0:0:0:0:
428,292,30633,1,0,0:0:0:0:
360,352,30957,2,0,P|308:368|200:280,1,200,2|2,0:0|0:0,0:0:0:0:
48,72,33876,6,0,P|104:64|156:88,1,100,2|0,0:0|0:0,0:0:0:0:
212,136,34525,2,0,P|296:152|352:112,2,150,2|2|0,0:0|0:0|0:0,0:0:0:0:
128,168,35822,2,0,L|116:280,1,100,2|0,0:0|0:0,0:0:0:0:
180,332,36471,2,0,P|272:280|356:316,4,200,2|0|2|2|2,0:0|0:0|0:0|0:0|0:0,0:0:0:0:
8,276,39714,1,2,0:0:0:0:
64,104,40362,1,0,0:0:0:0:
448,40,41660,6,0,P|440:192|308:252,1,300,4|8,0:0|0:0,0:0:0:0:
376,360,42957,2,0,P|272:360|208:292,1,200,2|2,0:0|0:0,0:0:0:0:
20,184,44254,2,0,P|124:184|188:116,1,200,2|2,0:0|0:0,0:0:0:0:
384,32,45552,2,0,P|428:111|397:210,1,200,2|2,0:0|0:0,0:0:0:0:
220,336,46849,6,0,P|124:324|52:144,1,300,4|8,0:0|0:0,0:0:0:0:
132,80,48146,2,0,L|284:40,2,150,2|2|10,0:0|0:0|0:0,0:0:0:0:
216,152,49444,2,0,L|416:152,1,200,6|2,0:0|0:0,0:0:0:0:
488,236,50417,1,8,0:0:0:0:
412,316,50741,6,0,P|456:344|512:344,2,100,12|12|12,0:0|0:0|0:0,0:0:0:0:
336,236,51714,1,8,0:0:0:0:
232,268,52038,6,0,P|84:244|32:364,1,300,4|8,0:0|0:0,0:0:0:0:
140,332,53335,2,0,L|52:152,1,200,2|2,0:0|0:0,0:0:0:0:
256,72,54632,2,0,L|460:28,2,200,2|2|2,0:0|0:0|0:0,0:0:0:0:
92,220,56579,1,2,0:0:0:0:
284,327,57227,6,0,P|429:309|447:177,1,300,6|8,0:0|0:0,0:0:0:0:
368,100,58525,1,6,0:0:0:0:
148,100,59173,1,2,0:0:0:0:
172,320,59821,2,0,P|72:300|0:208,2,200,4|12|4,0:0|0:0|0:0,0:0:0:0:
384,180,62417,6,0,L|420:84,2,100,2|0|2,0:0|0:0|0:0,0:0:0:0:
344,272,63389,1,0,0:0:0:0:
268,336,63714,2,0,P|192:344|104:252,1,200,2|2,0:0|0:0,0:0:0:0:
80,168,64687,1,0,0:0:0:0:
152,100,65011,6,0,P|112:72|56:72,2,100,2|0|2,0:0|0:0|0:0,0:0:0:0:
208,184,65984,1,0,0:0:0:0:
296,140,66308,2,0,L|496:208,1,200,2|2,0:0|0:0,0:0:0:0:
496,304,67281,1,0,0:0:0:0:
400,336,67606,6,0,L|300:372,2,100,2|0|2,0:0|0:0|0:0,0:0:0:0:
496,304,68579,1,0,0:0:0:0:
420,240,68903,2,0,L|220:164,1,200,2|2,0:0|0:0,0:0:0:0:
116,332,70200,6,0,P|56:296|36:212,2,150,2|2|0,0:0|0:0|0:0,0:0:0:0:
172,252,71498,2,0,P|255:206|340:252,2,200,2|2|2,0:0|0:0|0:0,0:0:0:0:
344,352,73444,6,0,L|444:352,1,100,2|0,0:0|0:0,0:0:0:0:
448,252,74092,2,0,P|412:176|304:112,1,200,2|2,0:0|0:0,0:0:0:0:
256,196,75065,1,0,0:0:0:0:
195,114,75389,6,0,P|100:176|64:252,1,200,2|2,0:0|0:0,0:0:0:0:
56,352,76362,1,0,0:0:0:0:
152,332,76687,2,0,P|247:270|283:194,1,200,2|2,0:0|0:0,0:0:0:0:
292,96,77660,1,0,0:0:0:0:
380,48,77984,6,0,L|492:80,1,100,2|0,0:0|0:0,0:0:0:0:
476,175,78633,2,0,L|364:143,1,100,2|0,0:0|0:0,0:0:0:0:
379,247,79281,2,0,L|475:274,1,100,2|0,0:0|0:0,0:0:0:0:
476,375,79930,2,0,L|379:347,1,100,2|0,0:0|0:0,0:0:0:0:
288,312,80579,2,0,P|224:292|124:372,1,200,2|0,0:0|0:0,0:0:0:0:
36,188,81876,6,0,P|68:152|124:136,1,100,8|0,0:0|0:0,0:0:0:0:
208,180,82525,1,8,0:0:0:0:
300,136,82849,1,8,0:0:0:0:
384,192,83173,6,0,L|448:192,1,50,12|12,0:0|0:0,0:0:0:0:
500,116,83660,5,2,2:0:0:0:
444,32,83984,1,8,0:0:0:0:
344,36,84308,2,0,L|192:64,1,150,4|8,0:0|0:0,0:0:0:0:
100,84,85119,2,0,P|68:132|72:180,1,100,2|8,0:0|0:0,0:0:0:0:
32,264,85768,6,0,L|184:308,1,150,4|2,0:0|0:0,0:0:0:0:
256,248,86579,1,8,0:0:0:0:
335,305,86903,2,0,L|480:264,1,150,4|8,0:0|0:0,0:0:0:0:
472,164,87714,5,2,0:0:0:0:
404,92,88038,1,8,0:0:0:0:
308,116,88362,6,0,L|284:180,1,50,12|12,0:0|0:0,0:0:0:0:
228,240,88849,5,2,2:0:0:0:
128,252,89173,1,8,0:0:0:0:
68,172,89498,2,0,P|84:104|152:64,1,150,4|8,0:0|0:0,0:0:0:0:
232,124,90308,1,2,0:0:0:0:
316,72,90633,1,8,0:0:0:0:
400,128,90957,6,0,P|433:192|400:256,2,150,8|8|8,0:0|0:0|0:0,0:0:0:0:
320,192,92254,2,0,L|204:192,1,100,2|8,0:0|0:0,0:0:0:0:
176,280,92903,2,0,L|292:280,1,100,2|8,0:0|0:0,0:0:0:0:
356,340,93552,6,0,P|416:328|472:256,1,150,4|2,0:0|0:0,0:0:0:0:
470,161,94362,1,8,0:0:0:0:
470,61,94687,2,0,P|410:73|354:145,1,150,4|8,0:0|0:0,0:0:0:0:
316,232,95498,1,4,0:0:0:0:
220,212,95822,1,8,0:0:0:0:
164,296,96146,6,0,P|96:312|28:272,1,150,4|2,0:0|0:0,0:0:0:0:
12,172,96957,1,8,0:0:0:0:
29,72,97281,2,0,P|97:36|237:132,1,250,4|2,0:0|0:0,0:0:0:0:
256,216,98417,1,8,0:0:0:0:
256,316,98741,5,4,0:0:0:0:
100,192,99389,1,2,0:0:0:0:
256,68,100038,1,4,0:0:0:0:
412,192,100687,1,2,0:0:0:0:
211,239,101335,6,0,P|255:95|300:239,1,400,4|8,0:0|0:0,0:0:0:0:
92,204,103768,6,0,P|136:296|372:300,1,350,4|8,0:0|0:0,0:0:0:0:
444,240,105227,2,0,P|466:317|438:377,2,150,2|2|8,0:0|0:0|0:0,0:0:0:0:
380,152,106525,2,0,P|357:74|385:14,2,150,6|2|8,0:0|0:0|0:0,0:0:0:0:
488,180,107822,2,0,L|292:224,1,200,2|0,0:0|0:0,0:0:0:0:
190,263,108795,1,8,0:0:0:0:
92,212,109119,6,0,P|76:136|156:40,1,200,4|2,0:0|0:0,0:0:0:0:
366,43,110417,2,0,P|435:135|419:211,1,200,4|2,0:0|0:0,0:0:0:0:
356,300,111389,1,8,0:0:0:0:
256,348,111714,6,0,L|96:324,2,150,4|2|8,0:0|0:0|0:0,0:0:0:0:
216,244,113011,2,0,L|16:212,1,200,2|8,0:0|0:0,0:0:0:0:
88,68,114146,6,0,P|168:32|236:68,1,150,4|8,0:0|0:0,0:0:0:0:
304,124,114957,2,0,P|224:160|156:124,2,150,2|4|8,0:0|0:0|0:0,0:0:0:0:
372,36,116254,1,2,0:0:0:0:
464,172,116741,6,0,P|468:224|412:300,1,150,4|8,0:0|0:0,0:0:0:0:
306,336,117552,2,0,L|206:336,1,100,2|8,0:0|0:0,0:0:0:0:
100,300,118200,2,0,P|48:252|41:169,2,150,4|2|8,0:0|0:0|0:0,0:0:0:0:
144,200,119498,6,0,L|208:52,1,150,4|2,0:0|0:0,0:0:0:0:
313,62,120308,2,0,L|381:62,2,50,0|8|4,0:0|0:0|0:0,0:0:0:0:
372,152,120957,2,0,L|440:152,2,50,0|8|4,0:0|0:0|0:0,0:0:0:0:
176,344,122092,6,0,P|84:336|48:288,1,150,4|2,0:0|0:0,0:0:0:0:
16,192,122903,1,8,0:0:0:0:
104,128,123227,2,0,P|196:136|232:184,2,150,4|8|8,0:0|0:0|0:0,0:0:0:0:
148,28,124525,6,0,P|284:84|320:272,1,350,4|8,0:0|0:0,0:0:0:0:
248,352,125984,2,0,P|156:352|116:312,2,150,2|2|8,0:0|0:0|0:0,0:0:0:0:
208,248,127281,2,0,P|162:168|176:113,2,150,4|2|8,0:0|0:0|0:0,0:0:0:0:
278,161,128579,2,0,P|324:81|424:76,1,200,2|0,0:0|0:0,0:0:0:0:
484,168,129552,1,8,0:0:0:0:
448,272,129876,6,0,P|364:344|272:308,1,200,4|2,0:0|0:0,0:0:0:0:
68,304,131173,2,0,P|152:232|244:268,1,200,4|2,0:0|0:0,0:0:0:0:
168,344,132146,1,8,0:0:0:0:
68,304,132471,6,0,P|32:240|52:160,2,150,4|2|8,0:0|0:0|0:0,0:0:0:0:
140,220,133767,2,0,P|216:240|240:272,1,100,4|8,0:0|0:0,0:0:0:0:
256,360,134417,5,8,0:0:0:0:
412,304,134903,2,0,L|436:148,1,150,4|8,0:0|0:0,0:0:0:0:
372,64,135714,2,0,P|292:64|236:112,2,150,2|4|8,0:0|0:0|0:0,0:0:0:0:
332,168,137011,1,10,0:0:0:0:
212,280,137498,6,0,P|156:276|72:168,1,200,4|2,0:0|0:0,0:0:0:0:
82,60,138470,2,0,L|186:48,1,100,8|4,0:0|0:0,0:0:0:0:
290,36,139119,1,0,0:0:0:0:
400,32,139444,2,0,P|460:40|508:112,1,150,2|8,0:0|0:0,0:0:0:0:
496,220,140254,6,0,P|436:212|388:140,1,150,4|8,0:0|0:0,0:0:0:0:
308,64,141065,1,8,0:0:0:0:
204,104,141389,2,0,L|184:212,1,100,4|8,0:0|0:0,0:0:0:0:
272,272,142038,2,0,L|292:164,1,100,4|8,0:0|0:0,0:0:0:0:
388,140,142687,2,0,P|440:184|444:268,1,150,4|8,0:0|0:0,0:0:0:0:
392,356,143498,2,0,L|228:368,1,150,8|4,0:0|0:0,0:0:0:0:
256,192,145444,12,2,150632,0:0:0:0:
200,136,166200,6,0,P|156:196|28:188,1,200,4|8,0:0|0:0,0:0:0:0:
40,96,167173,1,0,0:0:0:0:
128,48,167498,2,0,P|200:16|304:80,1,200,2|8,0:0|0:0,0:0:0:0:
288,172,168471,1,0,0:0:0:0:
380,136,168795,6,0,P|400:92|396:36,2,100,2|0|8,0:0|0:0|0:0,0:0:0:0:
288,172,169768,1,0,0:0:0:0:
284,272,170092,2,0,P|352:328|456:280,1,200,2|8,0:0|0:0,0:0:0:0:
484,200,171065,1,0,0:0:0:0:
436,112,171389,6,0,L|488:16,2,100,2|0|8,0:0|0:0|0:0,0:0:0:0:
380,196,172362,1,0,0:0:0:0:
296,140,172687,2,0,P|228:180|224:304,1,200,2|8,0:0|0:0,0:0:0:0:
128,116,173984,2,0,P|168:64|264:32,2,150,2|8|2,0:0|0:0|0:0,0:0:0:0:
60,192,175281,5,8,0:0:0:0:
192,344,175930,1,8,0:0:0:0:
256,268,176254,1,8,0:0:0:0:
320,344,176579,6,0,P|423:335|468:248,1,200,4|8,0:0|0:0,0:0:0:0:
392,192,177552,1,0,0:0:0:0:
467,124,177876,2,0,P|423:48|320:40,1,200,2|8,0:0|0:0,0:0:0:0:
256,116,178849,6,0,L|200:120,2,50,0|0|2,0:0|0:0|0:0,0:0:0:0:
256,216,179498,1,0,0:0:0:0:
256,316,179822,1,8,0:0:0:0:
160,340,180146,2,0,L|104:356,2,50,0|0|2,0:0|0:0|0:0,0:0:0:0:
256,316,180795,1,0,0:0:0:0:
352,288,181119,1,8,0:0:0:0:
440,336,181444,1,2,0:0:0:0:
472,240,181768,6,0,L|472:140,1,100,2|0,0:0|0:0,0:0:0:0:
380,100,182417,2,0,L|380:200,1,100,8|0,0:0|0:0,0:0:0:0:
288,240,183065,2,0,L|288:140,1,100,2|0,0:0|0:0,0:0:0:0:
196,100,183714,2,0,L|196:200,1,100,8|0,0:0|0:0,0:0:0:0:
104,240,184362,2,0,L|104:40,2,200,2|8|8,0:0|0:0|0:0,0:0:0:0:
160,324,185984,5,0,0:0:0:0:
240,264,186308,1,8,0:0:0:0:
304,340,186633,1,8,0:0:0:0:
388,288,186957,6,0,L|448:288,1,50,12|12,0:0|0:0,0:0:0:0:
476,196,187444,5,2,0:0:0:0:
436,104,187768,1,8,0:0:0:0:
372,180,188092,2,0,P|336:128|364:36,1,150,4|8,0:0|0:0,0:0:0:0:
248,35,188903,2,0,L|136:48,1,100,2|8,0:0|0:0,0:0:0:0:
52,80,189552,6,0,P|22:155|61:217,1,150,4|2,0:0|0:0,0:0:0:0:
127,142,190362,1,8,0:0:0:0:
150,238,190687,2,0,P|102:300|24:303,1,150,4|8,0:0|0:0,0:0:0:0:
52,212,191498,5,2,0:0:0:0:
12,120,191822,1,8,0:0:0:0:
68,36,192146,6,0,L|124:48,1,50,12|12,0:0|0:0,0:0:0:0:
188,116,192633,5,2,0:0:0:0:
272,64,192957,1,8,0:0:0:0:
364,104,193281,2,0,P|420:160|428:244,1,150,4|8,0:0|0:0,0:0:0:0:
420,328,194092,1,2,0:0:0:0:
320,336,194417,1,8,0:0:0:0:
220,344,194741,2,0,L|64:356,2,150,8|8|8,0:0|0:0|0:0,0:0:0:0:
256,248,196038,6,0,P|240:204|192:176,1,100,2|8,0:0|0:0,0:0:0:0:
96,176,196687,2,0,P|52:148|36:104,1,100,2|8,0:0|0:0,0:0:0:0:
136,84,197335,6,0,P|212:64|276:98,1,150,4|2,0:0|0:0,0:0:0:0:
352,36,198146,1,8,0:0:0:0:
428,100,198471,2,0,P|448:176|414:240,1,150,4|8,0:0|0:0,0:0:0:0:
468,324,199281,2,0,L|364:336,1,100,4|8,0:0|0:0,0:0:0:0:
268,344,199930,6,0,P|168:320|140:276,1,150,4|2,0:0|0:0,0:0:0:0:
184,192,200741,1,8,0:0:0:0:
268,248,201065,2,0,P|360:244|420:108,1,250,4|2,0:0|0:0,0:0:0:0:
352,40,202200,1,8,0:0:0:0:
256,68,202525,5,4,0:0:0:0:
100,192,203173,1,2,0:0:0:0:
256,316,203822,1,4,0:0:0:0:
412,192,204471,1,2,0:0:0:0:
211,144,205119,6,0,P|255:288|300:144,1,400,4|8,0:0|0:0,0:0:0:0:
376,336,207552,6,0,P|428:244|304:44,1,350,4|8,0:0|0:0,0:0:0:0:
244,128,209011,2,0,L|84:92,2,150,2|2|8,0:0|0:0|0:0,0:0:0:0:
172,212,210308,2,0,L|12:176,2,150,4|2|8,0:0|0:0|0:0,0:0:0:0:
216,312,211606,2,0,P|308:348|392:288,1,200,2|0,0:0|0:0,0:0:0:0:
424,192,212579,1,8,0:0:0:0:
424,84,212903,6,0,L|224:48,1,200,4|2,0:0|0:0,0:0:0:0:
60,192,214200,2,0,L|260:228,1,200,4|2,0:0|0:0,0:0:0:0:
364,252,215173,1,8,0:0:0:0:
300,340,215498,2,0,P|380:360|437:331,2,150,4|2|8,0:0|0:0|0:0,0:0:0:0:
220,264,216795,2,0,P|148:264|68:364,1,200,2|8,0:0|0:0,0:0:0:0:
68,192,217930,6,0,P|144:160|216:164,1,150,4|8,0:0|0:0,0:0:0:0:
305,217,218741,2,0,P|371:219|447:187,2,150,2|4|8,0:0|0:0|0:0,0:0:0:0:
300,108,220038,1,2,0:0:0:0:
212,248,220525,6,0,P|216:316|272:372,1,150,4|8,0:0|0:0,0:0:0:0:
328,276,221335,2,0,L|328:168,1,100,2|8,0:0|0:0,0:0:0:0:
372,76,221984,2,0,P|428:132|432:200,2,150,4|2|8,0:0|0:0|0:0,0:0:0:0:
268,40,223281,6,0,P|176:56|144:112,1,150,4|2,0:0|0:0,0:0:0:0:
208,192,224092,1,8,0:0:0:0:
147,285,224417,2,0,P|176:328|236:340,1,100,4|2,0:0|0:0,0:0:0:0:
304,272,225065,2,0,L|460:296,1,150,4|8,0:0|0:0,0:0:0:0:
440,184,225876,6,0,P|420:108|356:60,1,150,4|2,0:0|0:0,0:0:0:0:
256,64,226687,1,8,0:0:0:0:
146,64,227011,2,0,P|92:107|72:183,2,150,4|8|8,0:0|0:0|0:0,0:0:0:0:
180,168,228308,6,0,P|256:293|332:168,1,350,4|8,0:0|0:0,0:0:0:0:
428,116,229768,2,0,P|452:180|440:264,2,150,2|2|8,0:0|0:0|0:0,0:0:0:0:
332,60,231065,2,0,P|264:71|197:123,2,150,4|2|8,0:0|0:0|0:0,0:0:0:0:
324,172,232362,2,0,L|200:336,1,200,2|0,0:0|0:0,0:0:0:0:
96,344,233335,1,8,0:0:0:0:
64,240,233660,6,0,L|148:56,1,200,4|2,0:0|0:0,0:0:0:0:
364,58,234957,2,0,L|448:240,1,200,4|2,0:0|0:0,0:0:0:0:
416,344,235930,1,8,0:0:0:0:
324,284,236254,6,0,P|256:257|188:284,2,150,4|2|8,0:0|0:0|0:0,0:0:0:0:
256,372,237552,2,0,L|256:156,1,200,4|8,0:0|0:0,0:0:0:0:
120,76,238687,6,0,P|68:120|60:200,1,150,4|8,0:0|0:0,0:0:0:0:
168,180,239498,2,0,P|159:257|107:301,2,150,2|4|8,0:0|0:0|0:0,0:0:0:0:
228,88,240795,1,8,0:0:0:0:
393,88,241281,6,0,P|464:148|456:264,1,200,4|2,0:0|0:0,0:0:0:0:
376,312,242254,2,0,L|272:352,1,100,8|4,0:0|0:0,0:0:0:0:
172,332,242903,1,0,0:0:0:0:
80,272,243227,2,0,P|60:200|96:116,1,150,2|8,0:0|0:0,0:0:0:0:
160,52,244038,6,0,L|324:40,1,150,4|8,0:0|0:0,0:0:0:0:
368,132,244849,1,8,0:0:0:0:
256,140,245173,2,0,L|144:148,1,100,4|8,0:0|0:0,0:0:0:0:
224,236,245822,2,0,L|336:228,1,100,4|8,0:0|0:0,0:0:0:0:
432,204,246471,2,0,P|425:276|369:324,1,150,4|8,0:0|0:0,0:0:0:0:
260,340,247281,6,0,L|92:360,1,150,8|4,0:0|0:0,0:0:0:0:
156,200,249227,6,0,P|256:107|356:200,1,300,8|0,0:0|0:0,0:0:0:0:
256,204,250525,2,0,L|256:360,2,150,2|2|0,0:0|0:0|0:0,0:0:0:0:
332,140,251822,2,0,L|180:140,2,150,2|2|0,0:0|0:0|0:0,0:0:0:0:
412,200,253119,2,0,P|428:116|356:36,1,200,2|0,0:0|0:0,0:0:0:0:
256,44,254092,1,2,0:0:0:0:
156,36,254416,6,0,P|84:116|100:200,1,200,2|2,0:0|0:0,0:0:0:0:
256,328,255713,2,0,L|256:120,1,200,2|2,0:0|0:0,0:0:0:0:
356,128,256686,1,0,0:0:0:0:
420,204,257011,2,0,P|428:292|376:348,2,150,2|2|0,0:0|0:0|0:0,0:0:0:0:
356,128,258308,2,0,L|156:128,1,200,2|2,0:0|0:0,0:0:0:0:
4,252,259606,6,0,P|80:336|208:304,1,250,2|2,0:0|0:0,0:0:0:0:
256,224,260741,2,0,P|300:284|288:360,1,150,2|0,0:0|0:0,0:0:0:0:
202,309,261552,5,2,0:0:0:0:
48,180,262200,2,0,P|56:132|96:88,1,100,2|0,0:0|0:0,0:0:0:0:
152,16,262849,2,0,L|236:72,1,100,2|0,0:0|0:0,0:0:0:0:
292,156,263498,2,0,P|232:196|156:184,2,150,2|2|0,0:0|0:0|0:0,0:0:0:0:
368,76,264795,6,0,P|392:192|300:284,1,250,4|8,0:0|0:0,0:0:0:0:
203,281,265930,2,0,P|120:192|144:76,1,250,4|8,0:0|0:0,0:0:0:0:
236,32,267065,5,2,0:0:0:0:
256,132,267389,2,0,L|256:288,1,150,4|2,0:0|0:0,0:0:0:0:
202,378,268200,1,2,0:0:0:0:
311,378,268525,1,4,1:1:0:0:
404,192,269822,6,0,P|368:88|140:60,1,350,4|8,0:0|0:0,0:0:0:0:
196,152,271281,2,0,P|276:156|292:216,2,150,2|2|8,0:0|0:0|0:0,0:0:0:0:
136,244,272579,2,0,P|152:301|232:305,2,150,4|2|8,0:0|0:0|0:0,0:0:0:0:
80,148,273876,2,0,P|124:64|232:48,1,200,2|0,0:0|0:0,0:0:0:0:
300,120,274849,1,8,0:0:0:0:
404,80,275173,6,0,P|400:180|320:228,1,200,4|2,0:0|0:0,0:0:0:0:
108,304,276471,2,0,P|112:204|192:156,1,200,4|2,0:0|0:0,0:0:0:0:
212,264,277444,1,8,0:0:0:0:
316,292,277768,6,0,P|392:296|448:240,2,150,4|2|8,0:0|0:0|0:0,0:0:0:0:
352,188,279065,2,0,P|320:96|208:56,1,200,4|8,0:0|0:0,0:0:0:0:
80,116,280200,6,0,L|64:272,1,150,4|8,0:0|0:0,0:0:0:0:
152,332,281011,2,0,L|168:176,2,150,2|4|8,0:0|0:0|0:0,0:0:0:0:
256,368,282308,1,10,0:0:0:0:
260,204,282795,6,0,P|356:232|412:332,1,200,4|2,0:0|0:0,0:0:0:0:
476,224,283768,2,0,P|442:172|401:147,1,100,0|4,0:0|0:0,0:0:0:0:
308,112,284417,1,0,0:0:0:0:
200,112,284741,2,0,P|148:172|152:248,1,150,2|8,0:0|0:0,0:0:0:0:
44,200,285552,6,0,P|56:136|104:64,1,150,4|8,0:0|0:0,0:0:0:0:
200,112,286362,1,8,0:0:0:0:
276,32,286687,2,0,L|380:60,1,100,4|8,0:0|0:0,0:0:0:0:
392,168,287335,2,0,L|288:140,1,100,4|8,0:0|0:0,0:0:0:0:
260,300,288146,6,0,P|200:320|108:292,1,150,8|8,0:0|0:0,0:0:0:0:
52,212,288957,1,8,0:0:0:0:
52,46,289444,2,0,P|112:26|204:54,1,150,4|12,0:0|0:0,0:0:0:0:
260,134,290254,1,8,0:0:0:0:
328,284,290741,6,0,P|400:280|448:212,1,150,4|8,0:0|0:0,0:0:0:0:
448,112,291552,1,8,0:0:0:0:
352,164,291876,2,0,L|308:64,1,100,12|8,0:0|0:0,0:0:0:0:
200,72,292525,2,0,L|160:164,1,100,12|8,0:0|0:0,0:0:0:0:
108,260,293173,6,0,P|255:373|404:260,1,400,4|4,0:0|0:0,0:0:0:0:
312,48,295930,6,0,P|224:100|272:272,1,300,4|8,0:0|0:0,0:0:0:0:
320,164,297227,2,0,P|376:200|364:328,1,200,2|2,0:0|0:0,0:0:0:0:
141,321,298525,2,0,P|136:200|192:164,2,200,2|2|2,0:0|0:0|0:0,0:0:0:0:
320,192,300471,1,2,0:0:0:0:
429,192,300795,1,8,0:0:0:0:
372,96,301119,6,0,P|304:48|188:76,1,200,4|2,0:0|0:0,0:0:0:0:
117,147,302092,1,8,0:0:0:0:
39,224,302417,2,0,P|107:272|215:250,1,200,4|2,0:0|0:0,0:0:0:0:
293,172,303389,1,8,0:0:0:0:
372,96,303714,6,0,P|432:168|448:280,1,200,4|4,0:0|0:0,0:0:0:0:
256,360,305011,2,0,B|300:328|320:264|256:192|256:192|192:120|212:56|256:24,1,384.000009375,4|4,0:0|0:1,0:0:0:0:
256,192,306471,12,2,311498,0:0:0:0:
