osu file format v12

[General]
AudioFilename: INNOCENCE (TV Size).mp3
AudioLeadIn: 1500
PreviewTime: 54446
Countdown: 0
SampleSet: Soft
StackLeniency: 0.7
Mode: 0
LetterboxInBreaks: 0
WidescreenStoryboard: 0

[Editor]
DistanceSpacing: 1
BeatDivisor: 4
GridSize: 4
TimelineZoom: 1

[Metadata]
Title:INNOCENCE (TV Size)
TitleUnicode:INNOCENCE (TV Size)
Artist:Aoi Eir
ArtistUnicode:藍井エイル
Creator:wendao2000
Version:Insane
Source:Sword Art Online
Tags:2nd opening SAO Project Alfheim Online ALO DakeDekaane Harez
BeatmapID:199083
BeatmapSetID:68795

[Difficulty]
HPDrainRate:8
CircleSize:4
OverallDifficulty:8
ApproachRate:9
SliderMultiplier:1.8
SliderTickRate:2

[Events]
//Background and Video events
0,0,"bg.jpg",0,0
Video,387,"INNOCENCE (TV Size).avi"
//Break Periods
//Storyboard Layer 0 (Background)
//Storyboard Layer 1 (Fail)
//Storyboard Layer 2 (Pass)
//Storyboard Layer 3 (Foreground)
//Storyboard Sound Samples
//Background Colour Transformations
3,100,0,0,0

[TimingPoints]
-472,327.868852459016,4,2,1,80,1,0
511,-100,4,2,1,10,0,0
675,-100,4,2,1,20,0,0
839,-100,4,2,1,30,0,0
1003,-100,4,2,1,40,0,0
1167,-100,4,2,1,50,0,0
1331,-100,4,2,1,60,0,0
1495,-100,4,2,1,70,0,0
1659,-100,4,2,1,80,0,0
2150,-133.333333333333,4,2,1,80,0,0
7396,-100,4,2,1,80,0,0
9527,-100,4,2,1,60,0,0
9609,-100,4,2,1,50,0,0
9691,-100,4,2,1,60,0,0
9855,-100,4,2,1,50,0,0
10019,-100,4,2,1,80,0,0
23134,-200,4,2,1,60,0,0
27888,-100,4,2,1,80,0,0
28052,-100,4,2,1,70,0,0
28216,-100,4,2,1,80,0,0
33626,-200,4,2,1,60,0,0
38216,-100,4,2,1,80,0,0
43462,-100,4,2,1,40,0,0
43544,-100,4,2,1,45,0,0
43626,-100,4,2,1,50,0,0
43708,-100,4,2,1,55,0,0
43790,-100,4,2,1,60,0,0
43872,-100,4,2,1,65,0,0
43954,-100,4,2,1,70,0,0
44036,-100,4,2,1,75,0,0
44118,-100,4,2,1,80,0,0
44446,-100,4,2,1,40,0,0
45101,-100,4,2,1,50,0,0
45429,-100,4,2,1,60,0,0
45757,-100,4,2,1,70,0,0
46085,-100,4,2,1,80,0,0
47068,-90.9090909090909,4,2,1,50,0,0
47724,-90.9090909090909,4,2,1,60,0,0
48052,-90.9090909090909,4,2,1,70,0,0
48380,-90.9090909090909,4,2,1,80,0,0
48708,-90.9090909090909,4,2,1,90,0,0
49036,-100,4,2,1,50,0,0
49364,-100,4,2,1,80,0,0
51987,-200,4,2,1,80,0,0
52560,-200,4,2,1,5,0,0
52642,-100,4,2,1,80,0,0
53298,-100,4,2,1,60,0,0
53954,-100,4,2,1,80,0,0
54609,-100,4,2,1,80,0,1
59200,-100,4,2,1,60,0,1
59609,-100,4,2,1,65,0,1
59691,-100,4,2,1,70,0,1
59773,-100,4,2,1,75,0,1
59855,-100,4,2,1,80,0,1
64446,-100,4,2,1,80,0,0
64773,-100,4,2,1,75,0,0
64855,-100,4,2,1,70,0,0
64937,-100,4,2,1,65,0,0
65019,-100,4,2,1,60,0,0
65101,-100,4,2,1,80,0,1
69691,-100,4,2,1,60,0,1
70101,-100,4,2,1,65,0,1
70183,-100,4,2,1,70,0,1
70265,-100,4,2,1,75,0,1
70347,-100,4,2,1,80,0,1
74937,-100,4,2,1,80,0,0
75265,-100,4,2,1,75,0,0
75347,-100,4,2,1,70,0,0
75429,-100,4,2,1,65,0,0
75511,-100,4,2,1,60,0,0
75593,-100,4,2,1,80,0,1
82150,-100,4,2,1,80,0,0
85921,-100,4,2,1,80,0,1
86085,-100,4,2,1,80,0,0
86249,-100,4,2,1,75,0,0
86413,-100,4,2,1,70,0,0
86577,-100,4,2,1,65,0,0
86741,-100,4,2,1,60,0,0
86905,-100,4,2,1,55,0,0
87068,-100,4,2,1,50,0,0
87232,-100,4,2,1,45,0,0
87396,-100,4,2,1,40,0,0
87560,-100,4,2,1,35,0,0
87724,-100,4,2,1,30,0,0
87888,-100,4,2,1,25,0,0
88052,-100,4,2,1,20,0,0
88216,-100,4,2,1,15,0,0
88380,-100,4,2,1,10,0,0
88544,-100,4,2,1,5,0,0

[Colours]
Combo1 : 255,255,100
Combo2 : 128,128,255
Combo3 : 255,128,64
Combo4 : 255,100,100

[HitObjects]
256,192,511,12,0,1659,0:0:0:0:
56,56,1987,5,0,0:0:0:0:
120,80,2150,2,0,L|188:84,1,67.5000025749208,2|0,0:0|0:0,0:0:0:0:
252,108,2478,1,0,0:0:0:0:
276,172,2642,2,0,P|296:236|356:260,1,135.000005149842,2|0,0:0|0:0,0:0:0:0:
496,308,3298,2,0,P|476:244|416:220,1,135.000005149842,2|0,0:0|0:0,0:0:0:0:
352,184,3790,1,0,0:0:0:0:
324,116,3954,2,0,P|260:100|208:140,1,135.000005149842,2|0,0:0|0:0,0:0:0:0:
276,172,4446,1,2,0:0:0:0:
152,316,4773,6,0,L|16:324,1,135.000005149842,2|0,0:0|0:0,0:0:0:0:
12,244,5265,2,0,L|148:236,1,135.000005149842,2|0,0:0|0:0,0:0:0:0:
224,260,5757,1,0,0:0:0:0:
268,328,5921,2,0,P|320:376|384:372,1,135.000005149842,2|0,0:0|0:0,0:0:0:0:
456,256,6413,2,0,L|448:324,1,67.5000025749208,0|2,0:0|0:0,0:0:0:0:
456,332,6659,1,0,0:0:0:0:
456,332,6741,1,0,0:0:0:0:
456,332,6823,1,0,0:0:0:0:
256,144,7396,6,0,P|168:164|96:116,1,180,4|0,0:2|0:0,0:0:0:0:
76,20,7888,2,0,L|48:200,1,180,0|0,0:0|0:0,0:0:0:0:
84,300,8380,2,0,L|64:340,2,45
192,288,8708,6,0,B|244:296|276:256|276:256|360:248,1,180,4|0,0:2|0:0,0:0:0:0:
388,144,9200,2,0,L|280:156,1,90,0|0,1:0|0:0,0:0:0:0:
168,96,9527,1,0,1:0:0:0:
168,96,9609,1,0,1:0:0:0:
168,96,9691,2,0,L|276:84,1,90,0|0,1:0|0:0,0:0:0:0:
424,32,10019,5,4,0:2:0:0:
424,32,10183,1,0,0:0:0:0:
464,148,10347,2,0,P|448:192|412:216,1,90,8|0,0:0|0:0,0:0:0:0:
236,200,10675,2,0,P|252:156|288:132,1,90,8|0,0:0|0:0,0:0:0:0:
424,288,11003,2,0,P|380:284|348:252,1,90,8|0,0:0|0:0,0:0:0:0:
276,60,11331,2,0,P|320:64|352:96,1,90,12|0,0:0|0:0,0:0:0:0:
236,324,11659,2,0,P|192:320|160:288,1,90,12|0,0:0|0:0,0:0:0:0:
256,192,11987,5,12,0:0:0:0:
275,211,12068,1,8,0:0:0:0:
296,227,12150,1,8,0:0:0:0:
319,240,12232,1,8,0:0:0:0:
345,250,12314,1,8,0:0:0:0:
372,255,12396,1,8,0:0:0:0:
399,255,12478,1,8,0:0:0:0:
425,252,12560,1,8,0:0:0:0:
451,244,12642,6,0,L|460:152,1,90,6|0,0:0|0:0,0:0:0:0:
376,56,12970,2,0,L|367:148,1,90,8|0,0:0|0:0,0:0:0:0:
319,240,13298,1,0,0:0:0:0:
192,264,13462,1,0,0:0:0:0:
192,264,13544,1,0,0:0:0:0:
192,264,13626,2,0,P|140:248|100:252,1,90,10|0,0:0|0:0,0:0:0:0:
60,340,13954,6,0,L|76:160,1,180,2|8,0:0|0:0,0:0:0:0:
156,60,14446,1,2,0:0:0:0:
156,60,14527,1,8,0:0:0:0:
156,60,14609,2,0,L|248:52,1,90,0|0,0:0|0:0,0:0:0:0:
348,60,14937,2,0,P|336:104|300:136,1,90,10|0,0:0|0:0,0:0:0:0:
192,192,15265,6,0,P|280:168|348:216,1,180,2|8,0:0|0:0,0:0:0:0:
464,272,15757,1,0,0:0:0:0:
464,272,15839,1,0,0:0:0:0:
464,272,15921,2,0,L|476:180,1,90,2|0,0:0|0:0,0:0:0:0:
364,232,16249,2,0,L|352:324,1,90,8|0,0:0|0:0,0:0:0:0:
408,140,16577,5,2,0:0:0:0:
288,148,16741,1,0,0:0:0:0:
280,28,16905,1,8,0:0:0:0:
400,20,17068,1,0,0:0:0:0:
288,148,17232,5,8,0:0:0:0:
261,150,17314,1,8,0:0:0:0:
234,148,17396,1,8,0:0:0:0:
207,141,17478,1,8,0:0:0:0:
182,131,17560,1,8,0:0:0:0:
159,117,17642,1,8,0:0:0:0:
139,99,17724,1,8,0:0:0:0:
121,79,17806,1,8,0:0:0:0:
107,56,17888,6,0,L|92:144,1,90,6|0,0:0|0:0,0:0:0:0:
192,144,18216,2,0,L|208:232,1,90,8|2,0:0|0:0,0:0:0:0:
336,176,18544,2,0,L|320:264,1,90,8|0,0:0|0:0,0:0:0:0:
420,240,18872,2,0,L|436:328,1,90,10|0,0:0|0:0,0:0:0:0:
256,192,19200,5,6,0:0:0:0:
376,96,19364,2,0,P|320:92|284:116,1,90,0|8,0:0|0:0,0:0:0:0:
136,288,19691,1,2,0:0:0:0:
136,288,19773,1,8,0:0:0:0:
136,288,19855,2,0,P|192:292|228:268,1,90
256,192,20183,2,0,L|160:192,1,90,2|0,0:0|0:0,0:0:0:0:
380,192,20511,5,4,0:0:0:0:
256,192,20675,12,8,22478,0:0:0:0:
400,320,22642,5,8,0:0:0:0:
400,320,23134,6,0,L|220:332,1,180,2|0,0:0|0:0,0:0:0:0:
124,244,24446,2,0,P|132:200|124:156,1,90,2|0,0:0|0:0,0:0:0:0:
124,156,24937,2,0,L|212:172,1,90,2|0,0:0|0:0,0:0:0:0:
284,148,25429,1,2,0:0:0:0:
284,148,25757,6,0,P|358:108|344:24,1,180,0|0,0:0|0:0,0:0:0:0:
500,116,26741,1,0,0:0:0:0:
500,116,27068,2,0,L|508:252,1,135,2|2,0:0|0:0,0:0:0:0:
432,276,27724,1,0,0:0:0:0:
313,112,27888,5,8,0:0:0:0:
313,315,28052,1,0,1:0:0:0:
432,150,28216,1,8,0:0:0:0:
238,214,28380,6,0,L|148:220,1,90,4|0,0:0|0:0,0:0:0:0:
64,140,28708,1,8,0:0:0:0:
52,252,28872,2,0,B|96:296|168:292|168:292|221:288,1,180
320,224,29364,2,0,L|312:316,1,90,8|0,0:0|0:0,0:0:0:0:
400,243,29691,6,0,P|377:161|293:147,1,180,0|8,0:0|0:0,0:0:0:0:
216,228,30183,1,0,0:0:0:0:
212,244,30265,1,8,0:0:0:0:
208,260,30347,2,0,L|192:348,1,90
112,272,30675,2,0,P|68:260|24:272,1,90,8|0,0:0|0:0,0:0:0:0:
0,360,31003,6,0,L|16:180,1,180,4|8,0:0|0:0,0:0:0:0:
120,116,31495,2,0,P|200:151|283:124,1,180
312,32,31987,1,8,0:0:0:0:
363,160,32150,6,0,P|295:216|184:232,1,180,4|0,0:0|0:0,0:0:0:0:
104,252,32642,2,0,P|128:296|160:324,1,90,8|0,0:0|0:0,0:0:0:0:
256,352,32970,5,8,0:0:0:0:
284,351,33052,1,8,0:0:0:0:
311,347,33134,1,8,0:0:0:0:
338,339,33216,1,8,0:0:0:0:
364,328,33298,1,8,0:0:0:0:
388,313,33380,1,8,0:0:0:0:
410,296,33462,1,8,0:0:0:0:
430,276,33544,1,8,0:0:0:0:
447,253,33626,6,0,L|456:164,1,90,2|0,0:0|0:0,0:0:0:0:
376,88,34282,2,0,L|367:177,1,90,0|0,0:0|0:0,0:0:0:0:
308,272,34937,2,0,P|268:292|224:292,1,90,2|0,0:0|0:0,0:0:0:0:
152,204,35593,2,0,P|192:184|236:184,1,90,2|0,0:0|0:0,0:0:0:0:
256,72,36249,6,0,P|216:92|172:92,1,90,2|0,0:0|0:0,0:0:0:0:
60,104,36905,2,0,L|76:192,1,90
156,272,37560,2,0,L|172:184,1,90,2|0,0:0|0:0,0:0:0:0:
208,164,38052,1,2,0:0:0:0:
248,156,38216,6,0,P|288:172|336:168,1,90,8|0,0:0|0:0,0:0:0:0:
392,96,38544,2,0,P|352:80|304:84,1,90,8|0,0:0|0:0,0:0:0:0:
208,164,38872,5,4,0:0:0:0:
284,276,39036,1,0,0:0:0:0:
412,232,39200,1,8,0:0:0:0:
432,124,39364,2,0,P|352:72|264:96,1,180
192,252,39855,2,0,L|208:164,1,90,8|0,0:0|0:0,0:0:0:0:
284,276,40183,6,0,L|316:96,1,180,0|8,0:0|0:0,0:0:0:0:
212,56,40675,2,0,P|164:68|124:64,1,90,0|0,0:0|0:0,0:0:0:0:
36,136,41003,1,0,0:0:0:0:
36,136,41085,1,0,0:0:0:0:
36,136,41167,2,0,P|48:184|44:224,1,90,8|0,0:0|0:0,0:0:0:0:
115,311,41495,6,0,P|195:271|284:276,1,180,4|8,0:0|0:0,0:0:0:0:
380,224,41987,2,0,P|388:284|380:316,1,90
432,168,42314,2,0,P|424:108|432:76,1,90,0|8,0:0|0:0,0:0:0:0:
452,240,42642,6,0,P|384:300|312:260,1,180,4|0,0:0|0:0,0:0:0:0:
360,148,43134,1,8,0:0:0:0:
224,88,43298,1,0,0:0:0:0:
140,212,43462,6,0,L|124:256,3,45,0|8|8|8,0:0|0:0|0:0|0:0,0:0:0:0:
156,240,43790,1,8,0:0:0:0:
182,260,43872,1,8,0:0:0:0:
214,270,43954,1,8,0:0:0:0:
248,270,44036,1,8,0:0:0:0:
280,259,44118,5,4,0:0:0:0:
376,288,44282,1,0,0:0:0:0:
452,224,44446,2,0,L|468:312,1,90,0|0,1:0|0:0,0:0:0:0:
383,198,44773,2,0,L|376:288,1,90,0|0,1:0|0:0,0:0:0:0:
323,156,45101,2,0,L|272:230,1,90,0|0,1:0|1:0,0:0:0:0:
276,100,45429,2,0,L|195:138,1,90,0|0,1:0|1:0,0:0:0:0:
52,156,45757,2,0,L|133:194,1,90,0|0,1:0|1:0,0:0:0:0:
264,320,46085,5,4,0:2:0:0:
264,320,46413,5,4,0:2:0:0:
264,320,46741,6,0,P|308:328|352:323,1,90,4|0,0:2|0:0,0:0:0:0:
436,252,47068,2,0,L|452:352,1,99.0000030212403,0|0,1:0|0:0,0:0:0:0:
363,225,47396,2,0,L|353:324,1,99.0000030212403,0|0,1:0|0:0,0:0:0:0:
299,180,47724,2,0,L|241:260,1,99.0000030212403,0|0,1:0|1:0,0:0:0:0:
249,120,48052,2,0,L|158:161,1,99.0000030212403,0|0,1:0|1:0,0:0:0:0:
24,224,48380,2,0,L|114:264,1,99.0000030212403,4|0,0:2|0:0,0:0:0:0:
264,320,48708,2,0,L|354:279,1,99.0000030212403,4|0,0:2|0:0,0:0:0:0:
436,132,49036,5,0,1:0:0:0:
456,160,49118,1,0,1:0:0:0:
464,192,49200,1,0,1:0:0:0:
456,224,49282,1,0,1:0:0:0:
436,252,49364,6,0,L|344:240,1,90,4|0,0:2|0:0,0:0:0:0:
256,148,49691,1,8,0:0:0:0:
256,148,49855,2,0,L|164:160,1,90,0|0,0:0|0:0,0:0:0:0:
52,224,50183,1,0,0:0:0:0:
52,224,50347,1,8,0:0:0:0:
52,224,50511,6,0,P|127:270|215:264,1,180
296,312,51003,2,0,P|308:264|296:216,1,90,8|0,0:0|0:0,0:0:0:0:
392,239,51331,2,8,P|387:195|366:156,1,90
460,144,51659,2,8,P|438:99|398:70,1,90
308,47,51987,6,0,P|230:60|155:39,1,157.5,4|0,0:0|0:0,0:0:0:0:
160,44,52642,2,8,L|148:88,3,45
84,104,52970,2,8,L|96:148,3,45
144,192,53298,5,8,0:0:0:0:
292,228,53462,1,8,0:0:0:0:
144,192,53954,5,8,0:0:0:0:
264,320,54118,1,8,0:0:0:0:
144,192,54446,5,8,0:0:0:0:
143,191,54609,2,0,P|227:168|259:87,1,180,4|8,0:0|0:0,0:0:0:0:
356,60,55101,1,0,0:0:0:0:
356,60,55183,1,0,0:0:0:0:
356,60,55265,2,0,P|356:116|336:152,1,90,0|0,0:0|0:0,0:0:0:0:
260,204,55593,1,8,0:0:0:0:
264,320,55757,6,0,P|350:305|383:226,1,180
416,128,56249,1,8,0:0:0:0:
456,244,56413,1,0,0:0:0:0:
456,244,56495,1,8,0:0:0:0:
456,244,56577,2,0,P|444:296|420:336,1,90
416,128,56905,2,0,P|428:76|452:36,1,90,8|0,0:0|0:0,0:0:0:0:
327,216,57232,6,0,P|242:232|176:176,1,180,0|8,0:0|0:0,0:0:0:0:
120,92,57724,1,0,0:0:0:0:
120,92,57806,1,0,0:0:0:0:
120,92,57888,2,0,L|28:80,2,90,0|0|8,0:0|0:0|0:0,0:0:0:0:
176,176,58380,6,0,P|216:260|296:280,1,180
392,224,58872,2,0,L|384:316,1,90,8|0,0:0|0:0,0:0:0:0:
497,158,59200,5,8,0:0:0:0:
455,173,59282,1,8,0:0:0:0:
410,168,59364,1,8,0:0:0:0:
372,145,59446,1,8,0:0:0:0:
348,108,59527,1,8,0:0:0:0:
323,70,59609,1,8,0:0:0:0:
285,47,59691,1,8,0:0:0:0:
240,42,59773,1,8,0:0:0:0:
198,57,59855,6,0,P|108:72|32:32,1,180,4|8,0:0|0:0,0:0:0:0:
52,148,60347,2,0,L|68:236,1,90
168,280,60675,1,0,0:0:0:0:
168,280,60757,1,0,0:0:0:0:
168,280,60839,2,0,L|152:192,1,90,8|0,0:0|0:0,0:0:0:0:
240,216,61167,6,0,B|248:260|248:260|256:304|232:348|184:368,1,180,0|8,0:0|0:0,0:0:0:0:
80,292,61659,1,0,0:0:0:0:
80,292,61741,1,8,0:0:0:0:
80,292,61823,2,0,P|123:279|168:280,1,90
327,203,62150,2,0,P|284:216|240:216,1,90,8|0,0:0|0:0,0:0:0:0:
172,150,62478,5,4,0:0:0:0:
240,216,62642,1,0,0:0:0:0:
198,61,62806,5,8,0:0:0:0:
106,85,62970,1,0,0:0:0:0:
266,126,63134,5,8,0:0:0:0:
291,36,63298,1,0,0:0:0:0:
198,61,63462,5,8,0:0:0:0:
172,150,63626,1,0,0:0:0:0:
266,126,63790,1,12,0:0:0:0:
240,216,63954,5,0,0:0:0:0:
106,85,64118,1,12,0:0:0:0:
291,36,64282,1,0,0:0:0:0:
240,216,64446,5,12,0:0:0:0:
257,236,64527,1,8,0:0:0:0:
278,254,64609,1,8,0:0:0:0:
301,268,64691,1,8,0:0:0:0:
326,278,64773,1,8,0:0:0:0:
352,284,64855,1,8,0:0:0:0:
379,286,64937,1,8,0:0:0:0:
406,284,65019,1,8,0:0:0:0:
432,278,65101,5,4,0:0:0:0:
460,192,65265,1,0,0:0:0:0:
372,116,65429,2,0,P|324:120|284:104,1,90,8|0,0:0|0:0,0:0:0:0:
164,72,65757,1,0,0:0:0:0:
164,72,65839,1,0,0:0:0:0:
164,72,65921,2,0,L|172:164,1,90,0|8,0:0|0:0,0:0:0:0:
80,228,66249,6,0,P|168:208|248:240,1,180
336,296,66741,2,0,P|344:252|340:208,1,90,8|0,0:0|0:0,0:0:0:0:
376,108,67068,1,0,0:0:0:0:
376,108,67150,1,8,0:0:0:0:
376,108,67232,2,0,P|420:140|444:188,1,90,0|8,0:0|0:0,0:0:0:0:
420,256,67560,1,0,0:0:0:0:
280,364,67724,6,0,P|248:288|256:192,1,180,0|8,0:0|0:0,0:0:0:0:
172,112,68216,1,0,0:0:0:0:
172,112,68298,1,0,0:0:0:0:
172,112,68380,2,0,L|80:120,1,90
24,200,68708,1,8,0:0:0:0:
100,284,68872,6,0,B|132:256|136:212|136:212|176:240|228:232,1,180
320,224,69364,2,0,P|312:272|276:308,1,90,8|0,0:0|0:0,0:0:0:0:
396,236,69691,5,8,0:0:0:0:
388,192,69773,1,8,0:0:0:0:
360,156,69855,1,8,0:0:0:0:
316,144,69937,1,8,0:0:0:0:
276,164,70019,1,8,0:0:0:0:
236,144,70101,1,8,0:0:0:0:
192,156,70183,1,8,0:0:0:0:
164,192,70265,1,8,0:0:0:0:
156,236,70347,6,0,L|140:324,1,90,4|0,0:0|0:0,0:0:0:0:
248,320,70675,2,0,P|287:338|335:338,1,90,8|0,0:0|0:0,0:0:0:0:
432,380,71003,2,0,L|452:200,1,180,0|8,0:0|0:0,0:0:0:0:
363,124,71495,2,0,P|283:156|208:112,1,180
128,32,71987,1,8,0:0:0:0:
144,164,72150,2,0,P|176:204|224:224,1,90
304,260,72478,2,0,P|272:300|224:320,1,90,0|8,0:0|0:0,0:0:0:0:
384,244,72806,1,0,0:0:0:0:
364,124,72970,5,4,0:0:0:0:
364,124,73052,1,0,0:0:0:0:
364,124,73134,1,0,0:0:0:0:
256,48,73298,2,0,L|268:140,1,90,8|0,0:0|0:0,0:0:0:0:
156,132,73626,2,0,L|191:217,1,90,8|0,0:0|0:0,0:0:0:0:
84,248,73954,2,0,L|140:321,1,90,8|0,0:0|0:0,0:0:0:0:
248,300,74282,5,12,0:0:0:0:
364,200,74446,1,0,0:0:0:0:
264,84,74609,1,12,0:0:0:0:
148,184,74773,1,0,0:0:0:0:
248,300,74937,5,12,0:0:0:0:
290,314,75019,1,8,0:0:0:0:
335,317,75101,1,8,0:0:0:0:
378,307,75183,1,8,0:0:0:0:
418,286,75265,1,8,0:0:0:0:
450,254,75347,1,8,0:0:0:0:
471,215,75429,1,8,0:0:0:0:
482,171,75511,1,8,0:0:0:0:
479,127,75593,6,0,L|500:40,1,90,4|0,0:0|0:0,0:0:0:0:
392,52,75921,2,0,L|371:139,1,90,8|0,0:0|0:0,0:0:0:0:
263,151,76249,2,0,L|284:64,2,90,0|0|8,0:0|0:0|0:0,0:0:0:0:
192,96,76741,1,0,0:0:0:0:
212,220,76905,6,0,L|191:307,1,90
299,295,77232,2,0,L|319:207,1,90,8|0,0:0|0:0,0:0:0:0:
448,108,77560,2,0,L|408:284,2,180,0|8|4,0:0|0:0|0:0,0:0:0:0:
368,64,78380,1,0,0:0:0:0:
280,88,78544,6,0,P|232:72|192:80,1,90,8|0,0:0|0:0,0:0:0:0:
232,296,78872,2,0,P|280:312|320:304,1,90,8|0,0:0|0:0,0:0:0:0:
176,148,79200,2,0,P|136:124|124:64,1,90,8|0,0:0|0:0,0:0:0:0:
336,236,79527,2,0,P|376:260|388:320,1,90,8|0,0:0|0:0,0:0:0:0:
192,232,79855,2,0,P|160:272|160:320,1,90,8|0,0:0|0:0,0:0:0:0:
320,152,80183,2,0,P|352:112|352:64,1,90,8|0,0:0|0:0,0:0:0:0:
232,296,80511,1,8,0:0:0:0:
280,88,80675,1,0,0:0:0:0:
236,100,80757,1,0,0:0:0:0:
192,112,80839,5,12,0:0:0:0:
160,192,81003,1,0,0:0:0:0:
192,272,81167,1,0,0:0:0:0:
112,96,81331,1,12,0:0:0:0:
80,192,81495,1,0,0:0:0:0:
112,288,81659,1,0,0:0:0:0:
32,80,81823,1,12,0:0:0:0:
32,304,81987,1,0,0:0:0:0:
0,192,82150,5,12,0:0:0:0:
512,192,83134,5,8,0:0:0:0:
476,192,83216,1,8,0:0:0:0:
440,192,83298,1,8,0:0:0:0:
404,192,83380,1,8,0:0:0:0:
367,191,83462,6,0,P|347:276|267:311,1,180,4|8,0:0|0:0,0:0:0:0:
220,232,83954,2,0,P|184:272|176:306,1,90
239,140,84282,2,0,P|222:89|192:62,1,90,0|8,0:0|0:0,0:0:0:0:
308,203,84609,6,0,P|394:204|441:132,1,180,4|0,0:0|0:0,0:0:0:0:
352,128,85101,1,8,0:0:0:0:
224,196,85265,2,0,B|224:240|256:284|304:296|351:292,1,180,4|0,0:0|0:0,0:0:0:0:
352,128,85757,1,8,0:0:0:0:
140,188,85921,5,4,0:0:0:0:
256,192,86085,12,0,88544,0:0:0:0:
