osu file format v12

[General]
AudioFilename: Opening.mp3
AudioLeadIn: 0
PreviewTime: 54043
Countdown: 0
SampleSet: Normal
StackLeniency: 0.7
Mode: 1
LetterboxInBreaks: 0

[Editor]
DistanceSpacing: 0.4
BeatDivisor: 4
GridSize: 32

[Metadata]
Title:INNOCENCE (TV Size)
TitleUnicode:INNOCENCE (TV Size)
Artist:Aoi Eir
ArtistUnicode:Aoi Eir
Creator:Lundlerol
Version:Muzukashii
Source:SWORD ART ONLINE
Tags:SAO ReySHeL opening
BeatmapID:185143
BeatmapSetID:61820

[Difficulty]
HPDrainRate:4
CircleSize:5
OverallDifficulty:4
ApproachRate:5
SliderMultiplier:1.4
SliderTickRate:1

[Events]
//Background and Video events
0,0,"SwordArtOnline_02_018.jpg",0,0
//Break Periods
//Storyboard Layer 0 (Background)
//Storyboard Layer 1 (Fail)
//Storyboard Layer 2 (Pass)
//Storyboard Layer 3 (Foreground)
//Storyboard Sound Samples
//Background Colour Transformations
3,100,163,162,255

[TimingPoints]
1748,327.868852459016,4,1,0,60,1,0
6993,-100,4,1,0,90,0,0
22731,-100,4,1,0,60,0,0
27977,-100,4,1,0,90,0,0
33223,-100,4,1,0,60,0,0
37649,-100,4,1,0,90,0,0
43715,-100,4,1,0,75,0,0
45600,-100,4,1,0,90,0,0
46174,-100,4,1,0,80,0,0
48141,-100,4,1,0,90,0,0
54207,-100,4,1,0,100,0,1
81747,-100,4,1,0,100,0,0
82403,-100,4,1,0,90,0,0

[HitObjects]
256,192,1748,1,0,0:0:0:0:
256,192,1911,1,0,0:0:0:0:
256,192,2075,1,0,0:0:0:0:
256,192,2239,5,8,0:0:0:0:
256,192,2567,5,0,0:0:0:0:
256,192,3059,5,8,0:0:0:0:
256,192,4370,5,0,0:0:0:0:
256,192,4534,1,0,0:0:0:0:
256,192,4698,1,0,0:0:0:0:
256,192,4862,5,8,0:0:0:0:
256,192,5190,5,0,0:0:0:0:
256,192,5682,5,8,0:0:0:0:
256,192,6174,1,8,0:0:0:0:
256,192,6256,1,8,0:0:0:0:
256,192,6338,1,8,0:0:0:0:
256,192,6993,5,4,0:0:0:0:
256,192,7977,1,0,0:0:0:0:
256,192,8305,1,4,0:0:0:0:
256,192,8797,1,0,0:0:0:0:
256,192,9125,1,0,0:0:0:0:
256,192,9288,1,0,0:0:0:0:
256,192,9452,1,0,0:0:0:0:
256,192,9616,1,4,0:0:0:0:
256,192,9944,1,0,0:0:0:0:
256,192,10272,1,0,0:0:0:0:
256,192,10436,1,0,0:0:0:0:
256,192,10600,1,0,0:0:0:0:
256,192,10764,1,0,0:0:0:0:
256,192,10928,1,0,0:0:0:0:
256,192,11092,5,8,0:0:0:0:
256,192,11256,1,8,0:0:0:0:
256,192,11420,1,8,0:0:0:0:
256,192,11584,6,0,B|416:192,1,140
256,192,12239,1,4,0:0:0:0:
256,192,12567,5,8,0:0:0:0:
256,192,12895,5,0,0:0:0:0:
256,192,13059,1,0,0:0:0:0:
256,192,13223,5,8,0:0:0:0:
256,192,13551,5,0,0:0:0:0:
256,192,13715,5,8,0:0:0:0:
256,192,13879,1,8,0:0:0:0:
256,192,14043,5,0,0:0:0:0:
256,192,14207,1,0,0:0:0:0:
256,192,14370,1,0,0:0:0:0:
256,192,14534,5,8,0:0:0:0:
256,192,14862,5,0,0:0:0:0:
256,192,15026,1,0,0:0:0:0:
256,192,15190,5,8,0:0:0:0:
256,192,15518,5,0,0:0:0:0:
256,192,15682,1,0,0:0:0:0:
256,192,15846,5,8,0:0:0:0:
256,192,16174,1,8,0:0:0:0:
256,192,16338,1,8,0:0:0:0:
256,192,16502,5,0,0:0:0:0:
256,192,16829,5,8,0:0:0:0:
256,192,16993,5,0,0:0:0:0:
256,192,17157,5,8,0:0:0:0:
256,192,17485,5,4,0:0:0:0:
256,192,17813,1,0,0:0:0:0:
256,192,17977,5,8,0:0:0:0:
256,192,18305,5,0,0:0:0:0:
256,192,18469,1,0,0:0:0:0:
256,192,18633,1,0,0:0:0:0:
256,192,18797,5,8,0:0:0:0:
256,192,19125,1,8,0:0:0:0:
256,192,19288,1,8,0:0:0:0:
256,192,19452,5,0,0:0:0:0:
256,192,19616,1,0,0:0:0:0:
256,192,19780,1,0,0:0:0:0:
256,192,19944,1,0,0:0:0:0:
256,192,20108,1,4,0:0:0:0:
256,192,20600,1,0,0:0:0:0:
256,192,20764,5,8,0:0:0:0:
256,192,21256,1,8,0:0:0:0:
256,192,21420,5,0,0:0:0:0:
256,192,22075,1,4,0:0:0:0:
256,192,22239,1,4,0:0:0:0:
256,192,22731,1,0,0:0:0:0:
256,192,24043,5,8,0:0:0:0:
256,192,24534,1,8,0:0:0:0:
256,192,25026,1,8,0:0:0:0:
256,192,25354,5,0,0:0:0:0:
256,192,26666,1,0,0:0:0:0:
256,192,27157,5,8,0:0:0:0:
256,192,27485,5,0,0:0:0:0:
256,192,27649,1,0,0:0:0:0:
256,192,27813,1,0,0:0:0:0:
256,192,27977,1,0,0:0:0:0:
256,192,28141,5,8,0:0:0:0:
256,192,28469,1,0,0:0:0:0:
256,192,28633,5,8,0:0:0:0:
256,192,28961,1,0,0:0:0:0:
256,192,29125,5,8,0:0:0:0:
256,192,29288,5,0,0:0:0:0:
256,192,29452,1,0,0:0:0:0:
256,192,29616,1,0,0:0:0:0:
256,192,29780,5,8,0:0:0:0:
256,192,30108,5,0,0:0:0:0:
256,192,30272,5,8,0:0:0:0:
256,192,30600,1,8,0:0:0:0:
256,192,30764,5,0,0:0:0:0:
256,192,30928,1,0,0:0:0:0:
256,192,31092,1,0,0:0:0:0:
256,192,31256,5,8,0:0:0:0:
256,192,31584,1,8,0:0:0:0:
256,192,31747,5,0,0:0:0:0:
256,192,32075,1,0,0:0:0:0:
256,192,32239,5,8,0:0:0:0:
256,192,32567,1,8,0:0:0:0:
256,192,32731,5,0,0:0:0:0:
256,192,32813,1,0,0:0:0:0:
256,192,32895,1,0,0:0:0:0:
256,192,33059,1,0,0:0:0:0:
256,192,33223,1,0,0:0:0:0:
256,192,33551,1,0,0:0:0:0:
256,192,33879,1,0,0:0:0:0:
256,192,34207,1,0,0:0:0:0:
256,192,34534,1,0,0:0:0:0:
256,192,34862,1,0,0:0:0:0:
256,192,35190,1,0,0:0:0:0:
256,192,35518,5,8,0:0:0:0:
256,192,35682,1,8,0:0:0:0:
256,192,35846,5,0,0:0:0:0:
256,192,36174,1,0,0:0:0:0:
256,192,36502,1,0,0:0:0:0:
256,192,36829,1,0,0:0:0:0:
256,192,36993,5,8,0:0:0:0:
256,192,37157,5,0,0:0:0:0:
256,192,37485,1,0,0:0:0:0:
256,192,37813,5,12,0:0:0:0:
256,192,38141,1,12,0:0:0:0:
256,192,38469,5,0,0:0:0:0:
256,192,38633,1,0,0:0:0:0:
256,192,38797,1,0,0:0:0:0:
256,192,38961,1,0,0:0:0:0:
256,192,39125,5,8,0:0:0:0:
256,192,39452,5,0,0:0:0:0:
256,192,39616,5,8,0:0:0:0:
256,192,39780,5,0,0:0:0:0:
256,192,39944,1,0,0:0:0:0:
256,192,40108,5,8,0:0:0:0:
256,192,40272,5,0,0:0:0:0:
256,192,40436,1,0,0:0:0:0:
256,192,40600,1,0,0:0:0:0:
256,192,40764,5,8,0:0:0:0:
256,192,41092,5,0,0:0:0:0:
256,192,41420,5,8,0:0:0:0:
256,192,41584,5,0,0:0:0:0:
256,192,41747,5,8,0:0:0:0:
256,192,41911,5,0,0:0:0:0:
256,192,42075,5,8,0:0:0:0:
256,192,42239,5,0,0:0:0:0:
256,192,42403,5,8,0:0:0:0:
256,192,42567,1,8,0:0:0:0:
256,192,42731,5,0,0:0:0:0:
256,192,43059,5,8,0:0:0:0:
256,192,43223,5,0,0:0:0:0:
256,192,43305,1,0,0:0:0:0:
256,192,43387,1,0,0:0:0:0:
256,192,43551,1,0,0:0:0:0:
256,192,43715,1,0,0:0:0:0:
256,192,43879,1,0,0:0:0:0:
256,192,44043,1,0,0:0:0:0:
256,192,44207,1,0,0:0:0:0:
256,192,44370,5,8,0:0:0:0:
256,192,44698,5,0,0:0:0:0:
256,192,44862,1,0,0:0:0:0:
256,192,45026,1,0,0:0:0:0:
256,192,45190,1,0,0:0:0:0:
256,192,45354,1,0,0:0:0:0:
256,192,45518,1,0,0:0:0:0:
256,192,45682,1,4,0:0:0:0:
256,192,46010,1,4,0:0:0:0:
256,192,46338,5,8,0:0:0:0:
256,192,46666,5,0,0:0:0:0:
256,192,46829,1,0,0:0:0:0:
256,192,46993,1,0,0:0:0:0:
256,192,47157,1,0,0:0:0:0:
256,192,47321,1,0,0:0:0:0:
256,192,47485,1,0,0:0:0:0:
256,192,47649,1,0,0:0:0:0:
256,192,47813,1,0,0:0:0:0:
256,192,47977,1,4,0:0:0:0:
256,192,48305,5,12,0:0:0:0:
256,192,48633,5,4,0:0:0:0:
256,192,48961,5,8,0:0:0:0:
256,192,49125,1,8,0:0:0:0:
256,192,49288,1,8,0:0:0:0:
256,192,49452,5,0,0:0:0:0:
256,192,49616,5,8,0:0:0:0:
256,192,49944,5,0,0:0:0:0:
256,192,50108,5,8,0:0:0:0:
256,192,50436,5,0,0:0:0:0:
256,192,50600,5,8,0:0:0:0:
256,192,50764,5,0,0:0:0:0:
256,192,50928,5,8,0:0:0:0:
256,192,51092,1,8,0:0:0:0:
256,192,51256,5,0,0:0:0:0:
256,192,51420,1,0,0:0:0:0:
256,192,51584,1,0,0:0:0:0:
256,192,52075,1,0,0:0:0:0:
256,192,52239,1,0,0:0:0:0:
256,192,52403,5,8,0:0:0:0:
256,192,52567,1,8,0:0:0:0:
256,192,52731,5,0,0:0:0:0:
256,192,52895,1,4,0:0:0:0:
256,192,53059,1,4,0:0:0:0:
256,192,53551,5,12,0:0:0:0:
256,192,53715,1,12,0:0:0:0:
256,192,54207,5,0,0:0:0:0:
256,192,54370,1,0,0:0:0:0:
256,192,54534,1,0,0:0:0:0:
256,192,54698,5,8,0:0:0:0:
256,192,54780,1,8,0:0:0:0:
256,192,54862,1,8,0:0:0:0:
256,192,55026,5,0,0:0:0:0:
256,192,55190,5,8,0:0:0:0:
256,192,55354,1,8,0:0:0:0:
256,192,55682,1,8,0:0:0:0:
256,192,55846,5,0,0:0:0:0:
256,192,56010,1,0,0:0:0:0:
256,192,56174,1,0,0:0:0:0:
256,192,56338,5,8,0:0:0:0:
256,192,56420,1,8,0:0:0:0:
256,192,56502,1,8,0:0:0:0:
256,192,56829,5,0,0:0:0:0:
256,192,56993,5,8,0:0:0:0:
256,192,57157,5,0,0:0:0:0:
256,192,57321,5,8,0:0:0:0:
256,192,57403,1,8,0:0:0:0:
256,192,57485,1,8,0:0:0:0:
256,192,57649,5,0,0:0:0:0:
256,192,57813,5,8,0:0:0:0:
256,192,57977,5,0,0:0:0:0:
256,192,58305,1,0,0:0:0:0:
256,192,58469,5,8,0:0:0:0:
256,192,58633,6,0,B|480:192,1,210
256,192,59452,1,0,0:0:0:0:
256,192,59616,1,0,0:0:0:0:
256,192,59780,5,8,0:0:0:0:
256,192,59944,5,0,0:0:0:0:
256,192,60108,1,0,0:0:0:0:
256,192,60272,1,0,0:0:0:0:
256,192,60436,5,8,0:0:0:0:
256,192,60764,5,0,0:0:0:0:
256,192,60928,1,0,0:0:0:0:
256,192,61092,5,8,0:0:0:0:
256,192,61256,5,0,0:0:0:0:
256,192,61420,1,0,0:0:0:0:
256,192,61584,1,0,0:0:0:0:
256,192,61747,5,8,0:0:0:0:
256,192,62075,5,0,0:0:0:0:
256,192,62239,5,8,0:0:0:0:
256,192,62403,1,8,0:0:0:0:
256,192,62731,1,8,0:0:0:0:
256,192,62895,5,0,0:0:0:0:
256,192,63059,5,8,0:0:0:0:
256,192,63223,5,0,0:0:0:0:
256,192,63551,1,0,0:0:0:0:
256,192,63715,5,8,0:0:0:0:
256,192,63879,1,8,0:0:0:0:
256,192,64043,5,0,0:0:0:0:
256,192,64207,5,8,0:0:0:0:
256,192,64370,5,0,0:0:0:0:
256,192,64698,1,0,0:0:0:0:
256,192,64862,5,8,0:0:0:0:
256,192,65026,5,0,0:0:0:0:
256,192,65190,5,8,0:0:0:0:
256,192,65272,1,8,0:0:0:0:
256,192,65354,1,8,0:0:0:0:
256,192,65518,5,0,0:0:0:0:
256,192,65682,5,8,0:0:0:0:
256,192,65846,1,8,0:0:0:0:
256,192,66174,1,8,0:0:0:0:
256,192,66338,5,0,0:0:0:0:
256,192,66502,1,0,0:0:0:0:
256,192,66666,1,0,0:0:0:0:
256,192,66829,1,0,0:0:0:0:
256,192,66993,5,8,0:0:0:0:
256,192,67321,5,0,0:0:0:0:
256,192,67485,5,8,0:0:0:0:
256,192,67649,5,0,0:0:0:0:
256,192,67813,5,8,0:0:0:0:
256,192,67895,1,8,0:0:0:0:
256,192,67977,1,8,0:0:0:0:
256,192,68141,5,0,0:0:0:0:
256,192,68305,5,8,0:0:0:0:
256,192,68469,5,0,0:0:0:0:
256,192,68797,1,0,0:0:0:0:
256,192,68961,1,0,0:0:0:0:
256,192,69125,5,8,0:0:0:0:
256,192,69452,5,0,0:0:0:0:
256,192,69616,5,8,0:0:0:0:
256,192,70108,5,0,0:0:0:0:
256,192,70272,5,8,0:0:0:0:
256,192,70436,5,0,0:0:0:0:
256,192,70600,5,8,0:0:0:0:
256,192,70928,5,0,0:0:0:0:
256,192,71092,5,8,0:0:0:0:
256,192,71256,1,8,0:0:0:0:
256,192,71420,5,0,0:0:0:0:
256,192,71747,1,0,0:0:0:0:
256,192,71911,5,8,0:0:0:0:
256,192,72075,5,0,0:0:0:0:
256,192,72239,5,8,0:0:0:0:
256,192,72403,1,8,0:0:0:0:
256,192,72567,5,4,0:0:0:0:
256,192,72895,5,8,0:0:0:0:
256,192,73223,1,8,0:0:0:0:
256,192,73551,1,8,0:0:0:0:
256,192,73715,5,0,0:0:0:0:
256,192,73879,5,8,0:0:0:0:
256,192,74207,1,8,0:0:0:0:
256,192,74370,5,0,0:0:0:0:
256,192,74534,5,8,0:0:0:0:
256,192,74698,5,0,0:0:0:0:
256,192,74862,1,0,0:0:0:0:
256,192,75026,5,8,0:0:0:0:
256,192,75190,5,0,0:0:0:0:
256,192,75354,1,0,0:0:0:0:
256,192,75518,1,0,0:0:0:0:
256,192,75682,5,8,0:0:0:0:
256,192,75846,5,0,0:0:0:0:
256,192,76174,5,8,0:0:0:0:
256,192,76338,1,8,0:0:0:0:
256,192,76502,5,0,0:0:0:0:
256,192,76666,1,0,0:0:0:0:
256,192,76829,5,8,0:0:0:0:
256,192,76993,1,8,0:0:0:0:
256,192,77157,1,8,0:0:0:0:
256,192,77485,5,0,0:0:0:0:
256,192,77813,1,0,0:0:0:0:
256,192,77977,1,0,0:0:0:0:
256,192,78141,5,8,0:0:0:0:
256,192,78469,1,8,0:0:0:0:
256,192,78797,5,0,0:0:0:0:
256,192,78961,5,8,0:0:0:0:
256,192,79288,5,0,0:0:0:0:
256,192,79616,1,0,0:0:0:0:
256,192,79944,1,0,0:0:0:0:
256,192,80108,5,8,0:0:0:0:
256,192,80272,1,8,0:0:0:0:
256,192,80436,1,8,0:0:0:0:
256,192,80600,1,8,0:0:0:0:
256,192,80764,5,0,0:0:0:0:
256,192,80928,1,0,0:0:0:0:
256,192,81092,5,8,0:0:0:0:
256,192,81256,1,8,0:0:0:0:
256,192,81420,5,0,0:0:0:0:
256,192,81584,1,0,0:0:0:0:
256,192,81747,5,12,0:0:0:0:
256,192,82731,6,0,B|416:192,1,140
256,192,83387,5,8,0:0:0:0:
256,192,83551,5,0,0:0:0:0:
256,192,83715,1,0,0:0:0:0:
256,192,83879,1,0,0:0:0:0:
256,192,84043,5,8,0:0:0:0:
256,192,84207,1,8,0:0:0:0:
256,192,84534,5,0,0:0:0:0:
256,192,84698,5,8,0:0:0:0:
256,192,84862,5,0,0:0:0:0:
256,192,85190,1,0,0:0:0:0:
256,192,85354,5,8,0:0:0:0:
256,192,85518,1,12,0:0:0:0:
