osu file format v10

[General]
AudioFilename: SAOP2.mp3
AudioLeadIn: 2000
PreviewTime: 54338
Countdown: 0
SampleSet: Soft
StackLeniency: 0.7
Mode: 0
LetterboxInBreaks: 0

[Editor]
Bookmarks: 82027
DistanceSpacing: 1.1
BeatDivisor: 4
GridSize: 4

[Metadata]
Title:INNOCENCE (TV Size)
TitleUnicode:INNOCENCE (TV Size)
Artist:Aoi Eir
ArtistUnicode:Aoi Eir
Creator:CXu
Version:Insane
Source:Sword Art Online
Tags:SAO Aincrad ALfheim Online ALO kirigaya kazuto kirito Yuuki Asuna Lyfa Suguha Yui OP Opening 2 2nd f_e_a_r NoHitter MMzz
BeatmapID:183364
BeatmapSetID:61401

[Difficulty]
HPDrainRate:7
CircleSize:4
OverallDifficulty:7
ApproachRate:9
SliderMultiplier:2
SliderTickRate:1

[Events]
//Background and Video events
0,0,"Ididntfeellikeusingabgthatspoilsthestorymorethannecessarysohereisanasunaxkiritoonefrombeforeaincraddisappears.png"
Video,320,"SAOP2.avi"
//Break Periods
//Storyboard Layer 0 (Background)
//Storyboard Layer 1 (Fail)
//Storyboard Layer 2 (Pass)
//Storyboard Layer 3 (Foreground)
//Storyboard Sound Samples
//Background Colour Transformations
3,100,163,162,255

[TimingPoints]
-403,327.868852459016,4,2,2,5,1,0
744,-100,4,2,2,10,0,0
908,-100,4,2,2,20,0,0
1236,-100,4,2,2,30,0,0
1564,-100,4,2,2,40,0,0
2219,-133.333333333333,4,2,2,40,0,0
7453,327.868852459016,4,3,1,50,1,0
7453,-133.333333333333,4,3,1,50,0,0
10403,-133.333333333333,4,3,1,30,0,0
10731,-133.333333333333,4,3,1,40,0,0
11059,-133.333333333333,4,3,1,50,0,0
11386,-100,4,3,1,55,0,0
12043,-100,4,3,1,30,0,0
12370,-100,4,3,1,45,0,0
12698,-100,4,3,1,60,0,0
17616,-100,4,3,1,40,0,0
17944,-100,4,3,1,60,0,0
20239,-100,4,3,0,40,0,0
20567,-133.333333333333,4,2,1,40,0,0
21059,-166.666666666667,4,2,1,50,0,0
21715,-200,4,2,1,60,0,0
23190,-200,4,2,2,60,0,0
27944,-200,4,3,1,60,0,0
28108,-133.333333333333,4,3,1,60,0,0
28435,-100,4,3,1,60,0,0
33190,-100,4,3,1,40,0,0
33681,-133.333333333333,4,2,2,60,0,0
38266,-100,4,3,1,65,0,0
43682,-100,4,3,1,40,0,0
44174,-100,4,3,1,60,0,0
45157,-100,4,3,1,40,0,0
45321,-100,4,3,1,45,0,0
45485,-100,4,3,1,50,0,0
45649,-100,4,3,1,55,0,0
45813,-100,4,3,1,60,0,0
45977,-100,4,3,1,65,0,0
46961,-100,4,3,1,60,0,0
47452,-100,4,3,1,40,0,0
47616,-100,4,3,1,45,0,0
47780,-100,4,3,1,50,0,0
47944,-100,4,3,1,55,0,0
48108,-100,4,3,1,60,0,0
48272,-100,4,3,1,65,0,0
48928,-100,4,3,1,40,0,0
49420,-100,4,3,1,60,0,0
52043,-133.333333333333,4,2,2,60,0,0
52698,-100,4,3,1,65,0,0
54173,-200,4,3,1,65,0,0
54256,-200,4,2,2,5,0,0
54666,-100,4,3,1,80,0,1
64665,-100,4,3,1,40,0,1
64993,-100,4,3,1,40,0,0
65157,-100,4,3,1,80,0,1
75157,-100,4,3,1,40,0,1
75649,-100,4,3,1,70,0,1
82207,-100,4,3,1,80,0,0
83190,-100,4,3,1,30,0,0
83518,-100,4,3,1,60,0,0
86469,-100,4,3,1,55,0,0
86797,-100,4,3,1,50,0,0
87124,-100,4,3,1,45,0,0
87452,-100,4,3,1,40,0,0
87780,-100,4,3,1,30,0,0
88108,-100,4,3,1,20,0,0
88436,-100,4,3,1,10,0,0
88764,-100,4,3,1,5,0,0

[Colours]
Combo1 : 231,177,67
Combo2 : 65,167,72
Combo3 : 255,255,128
Combo4 : 176,38,90
Combo5 : 30,121,155

[HitObjects]
256,192,580,12,2,1891,0:0:0
256,192,2055,5,0,0:0:0
196,144,2219,2,2,B|124:104|52:144,1,150.000005722046,2|0,0:0|0:0,0:1:0
80,216,2711,2,0,B|32:360,2,150.000005722046,2|2|2,0:0|0:0|0:0,0:0:0
248,244,3694,1,0,0:0:0
374,354,4022,1,2,0:0:0
374,354,4351,1,2,0:0:0
412,288,4514,2,0,B|452:212|412:144,1,150.000005722046,2|2,0:0|0:0,0:0:0
284,68,5170,5,0,0:0:0
284,68,5334,2,0,B|216:104|216:104|216:184,1,150.000005722046,2|0,0:0|0:0,0:0:0
68,192,5989,2,0,B|136:228|136:228|136:308,1,150.000005722046,2|0,0:0|0:0,0:0:0
204,336,6481,1,2,0:0:0
204,336,6646,2,0,B|248:352,3,37.5000014305115,2|2|2|0,0:0|0:0|0:0|0:0,0:0:0
288,344,7453,6,0,B|348:336|364:292|364:292|340:244,1,150.000005722046,4|2,0:1|0:2,0:0:0
268,220,7944,2,0,B|244:172|244:172|260:128|320:120,1,150.000005722046,8|2,0:0|0:2,0:0:0
392,136,8435,1,8,0:0:0
248,56,8763,6,0,B|196:76|172:128|172:128|128:128,1,150.000005722046,4|2,0:2|0:2,0:0:0
129,203,9255,2,0,B|171:203|171:203|195:255|247:275,1,150.000005722046,2|4,0:3|0:3,0:2:0
328,216,9747,1,8,0:0:0
408,276,9911,1,8,0:0:0
488,216,10075,6,0,B|488:140|488:140|440:80,1,150.000005722046,4|8,0:2|1:3,0:0:0
360,32,10567,1,0,1:0:0
252,24,10731,1,8,1:3:0
144,56,10894,1,0,1:0:0
104,164,11058,1,8,1:3:0
160,276,11222,1,0,1:0:0
276,348,11386,6,0,B|324:364|380:344,2,100,12|0|12,0:2|0:0|0:2,0:0:0
160,276,11878,1,2,0:2:0
276,216,12042,1,0,1:0:0
289,186,12124,1,0,1:0:0
291,155,12206,1,0,1:0:0
284,125,12288,1,0,1:0:0
268,97,12370,1,0,1:0:0
246,73,12452,1,0,1:0:0
220,58,12534,1,0,1:0:0
190,50,12616,1,0,1:0:0
160,48,12698,6,0,B|88:60|76:136|76:136|16:180,2,200,4|8|0,0:1|0:0|0:2,0:0:0
180,144,13518,1,0,0:0:0
116,220,13681,2,0,B|92:284|140:332|140:332|232:296,1,200,10|2,0:2|0:2,0:0:0
304,348,14173,1,0,0:0:0
380,284,14337,2,0,B|424:212|384:140,1,150,8|0,0:0|0:2,0:0:0
316,160,14665,2,0,B|232:100,1,100,0|0,0:2|0:0,0:0:0
152,44,14993,1,10,0:2:0
36,192,15157,5,0,0:2:0
36,192,15239,1,0,0:0:0
36,192,15321,2,0,B|36:268|36:268|76:304|76:304|76:376,1,200,2|8,0:2|0:0,0:0:0
164,300,15813,1,0,0:0:0
248,376,15977,2,0,B|248:305|248:305|288:269|288:269|288:193,1,200,2|8,0:2|0:0,0:0:0
360,72,16468,5,0,0:0:0
360,72,16550,1,0,0:0:0
360,72,16632,2,0,B|412:48|464:72,1,100,2|0,0:2|0:0,0:0:0
288,193,16960,2,0,B|208:224|144:180,1,150,8|0,0:0|0:0,0:0:0
92,132,17288,2,0,B|20:200,1,100
64,308,17616,1,8,1:3:0
92,320,17698,1,0,1:3:0
120,324,17780,1,0,1:3:0
148,320,17862,1,0,1:3:0
176,308,17944,6,0,B|216:268|196:216,1,100,10|0,0:2|0:0,0:0:0
140,112,18272,2,0,B|180:152|232:132,1,100,8|0,0:0|0:0,0:0:0
336,76,18599,2,0,B|296:116|316:168,1,100,8|0,0:0|0:0,0:0:0
372,272,18927,2,0,B|332:232|280:252,1,100,8|0,0:0|0:0,0:0:0
440,332,19256,6,0,B|480:288|452:228,1,100,10|0,0:2|0:0,0:0:0
481,111,19583,2,0,B|336:76,1,150,8|0,0:0|0:0,0:0:0
272,36,19911,2,0,B|216:44|200:100,1,100,8|0,0:0|0:0,0:0:0
264,244,20239,1,4,1:3:0
120,312,20403,1,4,1:3:0
8,184,20567,6,0,B|-16:104|64:32|144:56,1,225.000008583069,6|2,0:0|0:0,0:0:0
128,128,21141,1,0,0:0:0
128,128,21223,2,0,B|296:196,1,179.999994506836,2|2,0:0|0:0,0:0:0
352,240,21796,1,0,0:0:0
352,240,21878,2,0,B|436:224|460:144,1,150,2|2,0:0|0:0,0:0:0
448,76,22452,5,0,0:0:0
448,76,22534,1,14,0:2:0
256,32,22698,1,12,0:2:0
256,32,23190,6,0,B|52:32,1,200,4|0,0:1|0:0,0:0:0
20,192,24501,2,0,B|28:248|80:272,1,100,2|0,0:0|0:0,0:0:0
40,344,24993,2,0,B|92:365|139:332,1,100,2|0,0:0|0:0,0:0:0
156,256,25485,1,2,0:0:0
156,256,25813,2,0,B|156:52,1,200,2|0,0:0|0:0,0:0:0
356,56,26796,5,0,0:0:0
356,56,27124,2,0,B|412:56|440:104,1,100,2|0,0:0|0:0,0:0:0
408,168,27616,2,0,B|364:260,1,100,2|0,0:0|0:0,0:0:0
288,256,28108,2,0,B|252:276|208:264,1,75.0000028610231,8|0,0:0|0:0,0:0:0
120,236,28435,6,0,B|64:212|44:140|56:92|88:60,1,200,4|8,0:1|0:0,0:0:0
176,132,28927,1,0,0:0:0
284,176,29091,2,0,B|308:128|282:79,1,100
196,28,29419,1,8,0:0:0
392,116,29583,1,0,0:0:0
204,220,29747,6,0,B|208:272|168:304|168:304|196:356|256:348,1,200,2|8,0:2|0:0,0:0:0
306,223,30239,2,0,B|349:193|396:212|396:212|428:161|391:114,1,200,2|0,0:2|0:0,0:0:0
257,132,30731,2,0,B|210:110|203:59|203:59|143:58|120:113,2,200,8|4|8,0:0|0:1|0:0,0:0:0
324,56,31550,5,0,0:0:0
392,132,31715,2,0,B|436:100|428:40,1,100
324,56,32043,1,8,0:0:0
488,144,32206,2,0,B|472:200|424:220|424:220|464:308,1,200,4|0,0:1|0:0,0:0:0
360,312,32698,2,0,B|332:252|332:252|304:216|268:232|268:232|236:248|208:220,1,200,8|0,0:0|0:0,0:0:0
172,68,33190,1,0,1:3:0
144,60,33272,1,0,1:3:0
112,60,33354,1,8,1:3:0
84,68,33435,1,0,1:3:0
60,84,33517,1,0,1:3:0
44,108,33599,1,0,1:3:0
36,136,33681,6,0,B|36:216|36:216|88:272,1,150.000005722046,4|0,3:2|3:0,0:0:0
192,320,34173,1,0,0:0:0
192,320,34338,2,0,B|192:240|192:240|144:188,1,150.000005722046,0|0,3:0|3:0,0:0:0
304,68,34993,2,0,B|376:100|456:68,1,150.000005722046,2|0,3:2|3:0,0:0:0
512,32,35485,2,0,B|438:60|404:139,1,150.000005722046,2|0,0:2|0:0,0:0:0
456,192,35977,1,2,3:2:0
407,250,36140,5,0,0:0:0
407,250,36222,1,0,0:0:0
407,250,36304,2,0,B|438:323|512:352,2,150.000005722046,0|0|0,3:0|3:0|3:0,0:0:0
256,328,37288,1,0,3:0:0
120,260,37616,2,0,B|100:244|100:244|96:216|96:216|56:176|68:128,1,150.000005722046,2|0,3:2|3:0,0:0:0
144,152,38108,1,2,0:2:0
240,184,38272,6,0,B|296:184|296:184|340:148,1,100,8|0,0:0|0:0,0:0:0
216,48,38599,2,0,B|160:48|160:48|116:84,1,100,8|0,0:0|0:0,0:0:0
124,224,38928,6,0,B|124:272|176:272|176:272|304:272,1,200,4|8,0:1|0:0,0:0:0
392,240,39419,1,2,0:2:0
288,348,39583,2,0,B|188:348,1,100,0|0,0:2|0:0,0:0:0
24,148,39911,2,0,B|124:148,1,100,8|0,0:0|0:2,0:0:0
340,268,40239,6,0,B|396:248|412:192|396:136|340:116,1,200,2|8,0:2|0:0,0:0:0
172,116,40731,2,0,B|116:136|100:192|116:248|172:268,1,200,0|0,0:2|0:2,0:0:0
306,192,41223,2,0,B|206:192,1,100,8|0,0:0|0:0,0:0:0
88,80,41550,6,0,B|144:20|212:36|212:36|256:80,1,200,4|8,0:1|0:0,0:0:0
424,80,42042,2,0,B|368:20|300:36|300:36|256:80,1,200,2|0,0:2|0:0,0:0:0
256,192,42534,1,8,0:0:0
340,268,42698,6,0,B|382:246|380:183|380:183|436:156|492:212,1,200,4|0,0:1|0:0,0:0:0
412,320,43190,2,0,B|378:365|323:358,1,100,8|0,0:0|0:0,0:0:0
248,272,43517,1,0,0:0:0
143,324,43681,1,0,1:3:0
112,332,43763,1,0,1:3:0
84,332,43845,1,8,1:3:0
56,324,43927,1,0,1:3:0
32,304,44009,1,0,1:3:0
16,276,44091,1,0,1:3:0
12,248,44173,6,0,B|20:188|80:172,1,100,4|0,0:2|0:0,0:0:0
204,252,44501,2,0,B|196:312|136:328,1,100,8|0,0:0|0:0,0:0:0
200,152,44829,2,0,B|260:144|288:184,1,100,8|0,0:0|0:0,0:0:0
364,352,45157,5,10,1:2:0
284,300,45321,1,0,1:2:0
456,252,45485,1,10,1:2:0
260,204,45648,1,0,1:2:0
480,156,45812,1,10,1:2:0
236,108,45976,1,0,1:2:0
504,60,46140,5,12,1:2:0
212,24,46468,1,12,1:2:0
212,24,46796,6,0,B|112:52,1,100,4|0,0:2|0:0,0:0:0
28,220,47124,2,0,B|128:192,1,100,8|0,0:0|0:0,0:0:0
184,116,47452,5,10,1:2:0
229,279,47616,1,0,1:2:0
274,93,47780,1,10,1:2:0
320,301,47943,1,0,1:2:0
365,70,48107,1,10,1:2:0
411,324,48271,1,0,1:2:0
445,48,48436,2,0,B|483:86|460:142,1,100,12|0,1:2|1:2,0:0:0
411,324,48763,1,12,1:2:0
308,172,48927,5,0,1:2:0
280,164,49009,1,0,1:2:0
248,164,49091,1,8,1:2:0
220,172,49173,1,0,1:2:0
196,192,49255,1,0,1:2:0
180,216,49337,1,0,1:2:0
172,244,49419,1,12,0:2:0
256,344,49583,5,0,0:0:0
411,255,49747,1,10,0:2:0
249,164,49911,1,0,0:0:0
256,344,50075,2,0,B|310:337|328:277,1,100,8|0,0:0|0:0,0:0:0
485,191,50403,2,0,B|450:144|387:156,1,100,8|0,0:0|0:0,0:0:0
236,72,50731,2,0,B|209:120|252:166,1,100,8|0,0:0|0:0,0:0:0
411,255,51059,1,10,0:2:0
324,96,51222,1,0,0:0:0
192,220,51387,2,0,B|140:240|96:212,2,100,10|0|12,0:2|0:2|0:2,0:0:0
152,104,51878,5,0,0:0:0
152,104,52043,2,0,B|196:44|256:72|256:72|316:100|360:40,1,240,4|2,0:1|0:0,0:0:0
456,80,52698,6,0,B|432:124,3,50,8|0|0|0,0:0|0:0|0:0|0:0,0:0:0
464,192,53026,2,0,B|488:236,3,50,8|0|0|0,0:0|0:0|0:0|0:0,0:0:0
456,304,53354,5,12,1:2:0
456,304,53517,1,0,1:2:0
456,80,54010,1,12,1:2:0
456,80,54173,2,0,B|436:92|436:92|392:64|336:80,1,125,0|0,1:2|0:0,0:0:0
280,124,54666,6,0,B|220:105|220:105|187:35|114:30,1,200,4|8,0:1|0:0,0:0:0
56,192,55157,2,0,B|77:227|118:228|157:200|162:152|141:116|100:116,1,200
0,260,55649,1,8,0:0:0
0,260,55813,2,0,B|48:312|144:312|192:260,1,200
348,176,56304,1,8,0:0:0
348,176,56468,2,0,B|312:112|232:128|232:128|232:192,1,200
436,216,56961,6,0,B|457:148|404:96|404:96|440:32,2,200,8|2|8,0:0|0:2|0:0,0:0:0
372,296,57780,2,0,B|300:296|300:296|252:336|252:336|180:336,1,200
24,220,58272,1,8,0:0:0
24,220,58435,2,0,B|96:220|96:220|144:260|144:260|216:260,1,200,2|0,0:2|0:0,0:0:0
360,144,58927,6,0,B|405:76|343:9,1,100,8|0,0:0|0:0,0:0:0
200,236,59255,2,0,B|236:308|325:288,1,100,8|0,0:0|0:0,0:0:0
200,51,59583,2,0,B|120:46|92:133,1,100,8|0,0:0|0:0,0:0:0
80,280,59911,6,0,B|272:336,1,200,6|8,0:2|0:0,0:0:0
64,192,60403,2,0,B|256:248,1,200,2|0,0:2|0:0,0:0:0
352,276,60895,1,8,0:0:0
352,276,61058,1,0,0:0:0
448,192,61222,6,0,B|256:136,1,200,2|8,0:2|0:0,0:0:0
432,104,61714,2,0,B|240:48,1,200,2|0,0:2|0:0,0:0:0
144,20,62206,1,8,0:0:0
144,20,62370,1,0,0:0:0
56,120,62534,6,0,B|32:152|32:152|32:212,1,100,12|0,0:2|0:0,0:0:0
136,332,62862,2,0,B|136:228,1,100,8|0,0:0|0:0,0:0:0
256,332,63190,2,0,B|256:232,1,100,8|0,0:0|0:0,0:0:0
376,332,63518,2,0,B|376:228,1,100,8|0,0:0|0:0,0:0:0
312,152,63845,5,4,0:2:0
420,64,64009,1,0,0:2:0
456,200,64173,1,2,0:2:0
301,118,64338,5,2,0:2:0
451,69,64501,1,2,0:2:0
434,228,64665,1,0,1:0:0
400,248,64747,1,0,1:0:0
360,260,64829,1,0,1:0:0
320,260,64911,1,0,1:0:0
280,252,64993,1,0,1:0:0
244,232,65075,1,0,1:0:0
216,204,65157,6,0,B|168:144|208:48|276:52,1,200,4|8,0:2|0:0,0:0:0
344,180,65649,2,0,B|392:240|352:336|284:332,1,200
124,324,66140,1,8,0:0:0
52,180,66304,2,0,B|120:84,1,100
281,98,66632,2,0,B|224:180,1,100,0|8,0:0|0:0,0:0:0
404,180,66960,2,0,B|472:84,1,100
352,256,67288,5,0,0:0:0
352,256,67452,2,0,B|256:284|256:284|160:256,2,200,8|2|8,0:0|0:2|0:0,0:0:0
256,92,68272,2,0,B|256:204,1,100
96,320,68599,2,0,B|192:352,1,100,0|8,0:0|0:0,0:0:0
416,320,68928,2,0,B|320:352,2,100,2|0|0,0:2|0:0|0:0,0:0:0
512,224,69419,1,8,0:0:0
476,96,69583,2,0,B|444:52|444:52|360:32|324:108,1,200,2|2,0:2|0:2,0:0:0
168,252,70075,1,8,0:0:0
344,252,70239,1,0,0:2:0
188,108,70403,6,0,B|152:32|68:52|68:52|36:96,1,200,4|8,0:1|0:0,0:0:0
112,192,70894,1,0,0:0:0
36,288,71058,2,0,B|68:332|68:332|152:352|188:276,1,200,0|8,0:0|0:0,0:0:0
298,207,71550,2,0,B|317:265|289:312,1,100
369,376,71878,2,0,B|403:347|406:286,1,100,0|8,0:0|0:0,0:0:0
198,205,72206,2,0,B|316:240|368:140,1,200,0|0,0:0|0:0,0:0:0
256,48,72698,1,8,0:0:0
136,124,72862,5,0,0:0:0
136,124,72944,1,0,0:0:0
136,124,73026,2,0,B|40:72,1,100,8|0,0:0|0:0,0:0:0
240,152,73354,2,0,B|216:48,1,100,8|0,0:0|0:0,0:0:0
320,216,73681,2,0,B|352:116,1,100,8|0,0:0|0:0,0:0:0
348,312,74009,2,0,B|444:268,1,100,8|0,0:0|0:0,0:0:0
420,160,74337,6,0,B|420:56|420:56|372:24|324:56,1,200,4|8,0:1|0:0,0:0:0
182,52,74829,2,0,B|140:24|92:56|92:56|92:160,1,200,2|0,0:2|1:2,0:0:0
112,192,75239,1,0,1:2:0
140,220,75321,1,8,1:3:0
176,236,75403,1,0,1:2:0
216,244,75485,1,0,1:2:0
256,248,75567,1,0,1:2:0
296,244,75649,6,0,B|344:280|332:344,2,100,4|2|8,0:2|0:2|0:0,0:0:0
296,140,76140,2,0,B|344:104|332:40,2,100,2|2|0,0:2|0:2|0:0,0:0:0
420,288,76632,2,0,B|450:358|394:423,2,100,10|2|0,0:2|0:2|0:0,0:0:0
420,96,77124,2,0,B|450:25|394:-39,2,100,2|10|0,0:2|0:2|0:0,0:0:0
484,192,77616,1,2,0:2:0
484,192,77780,1,2,0:2:0
368,192,77944,1,10,0:2:0
368,192,78108,1,2,0:2:0
228,104,78272,6,0,B|72:104|72:104|36:140,1,200,4|8,0:1|0:0,0:0:0
96,220,78763,1,0,0:0:0
40,304,78927,2,0,B|71:335|71:335|227:335,1,200,0|8,0:0|0:0,0:0:0
316,292,79419,5,0,0:0:0
316,292,79583,2,0,B|376:284|396:236,1,100,8|0,0:0|0:0,0:0:0
190,84,79911,2,0,B|176:136|208:180,1,100,8|0,0:0|0:0,0:0:0
304,180,80239,2,0,B|336:136|321:84,1,100,8|0,0:0|0:0,0:0:0
116,240,80567,2,0,B|134:285|194:293,1,100,8|0,0:0|0:0,0:0:0
330,228,80894,5,2,3:2:0
396,105,81058,1,2,3:2:0
256,109,81222,1,8,3:3:0
326,150,81386,5,2,3:2:0
256,29,81550,1,2,3:2:0
186,151,81714,1,0,3:3:0
255,109,81878,5,10,3:2:0
115,105,82042,1,10,3:2:0
181,228,82206,1,6,3:2:0
268,204,83190,5,2,1:2:0
268,204,83272,1,0,1:0:0
268,204,83354,1,0,1:2:0
268,204,83435,1,0,1:0:0
268,204,83517,2,0,B|360:260|460:204,1,200,4|8,0:1|0:0,0:0:0
216,156,84010,2,0,B|124:100|24:156,1,200,2|0,0:2|0:2,0:0:0
176,268,84501,5,8,0:0:0
176,268,84665,2,0,B|236:268|256:316|256:316|276:268|336:268,1,200,4|2,0:1|0:2,0:0:0
352,192,85157,1,8,0:0:0
352,192,85321,2,0,B|312:180|256:208|256:208|200:180|160:192,1,200,4|2,0:1|0:2,0:0:0
256,84,85813,1,8,0:0:0
256,84,85976,1,4,0:1:0
256,192,86059,12,0,88764,2:2:0
