osu file format v10

[General]
AudioFilename: SAOP2.mp3
AudioLeadIn: 2000
PreviewTime: 54338
Countdown: 0
SampleSet: None
StackLeniency: 0.7
Mode: 0
LetterboxInBreaks: 0

[Editor]
Bookmarks: 16296,82027
DistanceSpacing: 1.1
BeatDivisor: 4
GridSize: 4

[Metadata]
Title:INNOCENCE (TV Size)
TitleUnicode:INNOCENCE (TV Size)
Artist:Aoi Eir
ArtistUnicode:Aoi Eir
Creator:CXu
Version:Easy
Source:Sword Art Online
Tags:SAO Aincrad ALfheim Online ALO kirigaya kazuto kirito Yuuki Asuna Lyfa Suguha Yui OP Opening 2 2nd f_e_a_r NoHitter MMzz
BeatmapID:183074
BeatmapSetID:61401

[Difficulty]
HPDrainRate:2
CircleSize:2
OverallDifficulty:2
ApproachRate:3
SliderMultiplier:0.999999999999999
SliderTickRate:1

[Events]
//Background and Video events
0,0,"Ididntfeellikeusingabgthatspoilsthestorymorethannecessarysohereisanasunaxkiritoonefrombeforeaincraddisappears.png"
Video,320,"SAOP2.avi"
//Break Periods
//Storyboard Layer 0 (Background)
//Storyboard Layer 1 (Fail)
//Storyboard Layer 2 (Pass)
//Storyboard Layer 3 (Foreground)
//Storyboard Sound Samples
//Background Colour Transformations
3,100,163,162,255

[TimingPoints]
-403,327.868852459016,4,2,2,5,1,0
744,-100,4,2,2,10,0,0
908,-100,4,2,2,20,0,0
1236,-100,4,2,2,30,0,0
1564,-100,4,2,2,40,0,0
2219,-133.333333333333,4,2,2,40,0,0
7453,327.868852459016,4,3,1,50,1,0
7453,-133.333333333333,4,3,1,50,0,0
7553,-133.333333333333,4,3,1,50,0,0
10404,-133.333333333333,4,3,1,30,0,0
10732,-133.333333333333,4,3,1,40,0,0
11060,-133.333333333333,4,3,1,50,0,0
11387,-100,4,3,1,55,0,0
12371,-100,4,3,1,45,0,0
12698,-100,4,3,1,60,0,0
17617,-100,4,3,1,30,0,0
17945,-100,4,3,1,60,0,0
20240,-100,4,3,0,60,0,0
20568,-133.333333333333,4,2,1,60,0,0
21060,-166.666666666667,4,2,1,50,0,0
21716,-133.333333333333,4,2,1,60,0,0
23191,-133.333333333333,4,2,2,60,0,0
28109,-133.333333333333,4,3,1,60,0,0
28436,-100,4,3,1,60,0,0
33682,-133.333333333333,4,2,2,60,0,0
38267,-100,4,3,1,65,0,0
43683,-100,4,3,1,40,0,0
44175,-100,4,3,1,60,0,0
45158,-100,4,3,1,40,0,0
45486,-100,4,3,1,50,0,0
45814,-100,4,3,1,60,0,0
45978,-100,4,3,1,65,0,0
46798,-100,4,3,1,60,0,0
46962,-100,4,3,1,60,0,0
47453,-100,4,3,1,40,0,0
47781,-100,4,3,1,50,0,0
48109,-100,4,3,1,60,0,0
48273,-100,4,3,1,65,0,0
49421,-100,4,3,1,60,0,0
53026,-100,4,3,1,65,0,0
54666,-100,4,3,1,80,0,1
64993,-100,4,3,1,80,0,0
65157,-100,4,3,1,80,0,1
75650,-100,4,3,1,70,0,1
82207,-100,4,3,1,80,0,0
83519,-100,4,3,1,60,0,0
86470,-100,4,3,1,55,0,0
86798,-100,4,3,1,50,0,0
87125,-100,4,3,1,45,0,0
87453,-100,4,3,1,40,0,0
87781,-100,4,3,1,30,0,0
88109,-100,4,3,1,20,0,0
88437,-100,4,3,1,10,0,0
88765,-100,4,3,1,5,0,0

[Colours]
Combo1 : 231,177,67
Combo2 : 65,167,72
Combo3 : 255,255,128
Combo4 : 176,38,90
Combo5 : 30,121,155

[HitObjects]
256,192,580,12,2,2219,0:0:0
120,192,3531,5,2,0:0:0
256,348,4842,1,2,0:0:0
392,192,6154,1,2,0:0:0
256,36,7453,6,0,B|124:20|72:140,1,225.000008583069,4|8,0:1|0:0,0:0:0
73,248,8764,2,0,B|124:364|256:348,1,225.000008583069,4|8,0:1|0:0,0:0:0
368,348,10075,5,4,0:1:0
468,300,10403,1,8,1:3:0
496,192,10731,1,8,1:3:0
468,84,11059,1,8,1:3:0
368,36,11387,1,12,0:2:0
276,96,11715,2,0,B|176:136|84:72,1,200,12|0,0:2|1:0,0:0:0
16,160,12698,6,0,B|64:212|144:220|144:220|176:272,1,200,4|2,0:1|0:2,0:0:0
256,324,13682,1,8,0:0:0
339,267,14010,2,0,B|368:220|368:220|448:212|496:160,1,200,2|2,0:2|0:2,0:0:0
456,56,14993,5,8,0:0:0
456,56,15321,2,0,B|404:132|316:120|316:120|280:152,1,200,2|2,0:2|0:2,0:0:0
256,344,16633,2,0,B|136:356,2,99.9999999999999,0|8|2,0:2|0:0|0:2,0:0:0
356,324,17616,5,8,0:0:0
356,324,17944,2,0,B|416:232|360:136,1,200,4|2,0:2|0:2,0:0:0
152,136,19256,2,0,B|96:232|156:324,1,200,2|2,0:2|0:2,0:0:0
256,276,20239,2,0,B|256:160,1,99.9999999999999,4|4,1:3|0:0,0:0:0
256,192,20895,12,14,22534,0:0:0
152,244,23190,6,0,B|256:320|360:244,1,225.000008583069,4|0,0:1|0:0,0:0:0
360,140,24502,2,0,B|256:64|152:140,1,225.000008583069,2|2,0:0|0:0,0:0:0
60,192,25813,1,2,0:0:0
60,192,26797,5,2,0:0:0
60,192,27124,2,0,B|112:216|112:216|216:180,1,150.000005722046,2|2,0:0|0:0,0:0:0
288,168,28108,1,8,0:0:0
356,232,28436,6,0,B|444:172|404:48,2,200,4|2|2,0:1|0:2|0:2,0:0:0
256,248,30075,1,8,0:0:0
156,232,30403,1,0,0:0:0
100,152,30731,1,8,0:0:0
108,52,31059,5,4,0:1:0
256,188,31715,1,2,0:2:0
404,52,32370,1,2,0:2:0
404,52,32698,1,8,0:0:0
456,136,33026,2,0,B|500:236|444:328,1,200,2|4,0:2|3:2,0:0:0
144,340,34993,6,0,B|144:112,1,225.000008583069,2|0,3:2|3:0,0:0:0
72,48,36305,1,2,3:2:0
256,276,37288,5,0,3:0:0
256,276,37616,2,0,B|344:264|360:176,1,150.000005722046,2|8,3:2|0:0,0:0:0
332,84,38600,1,8,0:0:0
432,104,38928,6,0,B|484:160|456:236|456:236|496:284,2,200,4|2|2,0:1|0:2|0:2,0:0:0
372,184,40567,1,8,0:0:0
280,144,40895,2,0,B|180:96|80:160,1,200,0|2,0:2|0:2,0:0:0
204,320,42206,6,0,B|304:368|404:304,1,200,2|2,0:2|0:2,0:0:0
436,220,43190,1,8,0:0:0
352,164,43518,2,0,B|284:124|228:204|160:164,1,200,8|4,0:0|0:2,0:0:0
80,100,44502,5,8,0:0:0
36,188,44829,2,0,B|36:304,1,99.9999999999999,8|10,0:0|1:2,0:0:0
124,332,45485,2,0,B|236:332,1,99.9999999999999,8|10,1:2|1:2,0:0:0
304,272,46141,1,12,1:2:0
264,180,46469,1,12,1:2:0
332,108,46797,1,4,0:2:0
432,100,47124,5,10,0:2:0
476,188,47451,2,0,B|476:304,1,99.9999999999999,8|10,1:2|1:2,0:0:0
388,332,48108,2,0,B|276:332,1,99.9999999999999,8|4,1:2|1:2,0:0:0
208,272,48764,1,12,1:2:0
248,180,49092,1,12,1:2:0
180,108,49420,1,4,0:2:0
84,132,49747,6,0,B|8:216|60:328,1,200,8|8,0:0|0:0,0:0:0
156,332,50731,1,2,0:2:0
156,332,51059,2,0,B|360:332,1,200,8|8,0:0|0:0,0:0:0
456,317,52043,2,0,B|504:216|440:96|328:96,1,300,4|8,0:2|0:0,0:0:0
232,96,53354,6,0,B|180:96,1,50,12|0,1:2|1:2,0:0:0
280,208,54010,2,0,B|332:208,1,50,12|0,1:2|1:2,0:0:0
232,320,54665,6,0,B|88:320|88:320|40:288,1,200,4|0,0:1|0:0,0:0:0
72,192,55649,1,8,0:0:0
41,95,55977,2,0,B|88:64|88:64|232:64,1,200,2|0,0:2|0:0,0:0:0
332,64,56961,1,8,0:0:0
424,100,57288,6,0,B|492:192|424:284,1,200,2|0,0:2|0:0,0:0:0
328,308,58272,1,8,0:0:0
232,284,58600,2,0,B|164:192|232:100,1,200,2|0,0:2|0:0,0:0:0
328,76,59583,1,8,0:0:0
328,176,59911,6,0,B|328:264|416:288,2,150,4|8|8,0:2|0:0|0:0,0:0:0
240,132,61223,2,0,B|163:176|187:264,2,150,2|8|8,0:2|0:0|0:0,0:0:0
336,100,62534,5,8,0:0:0
432,124,62862,1,8,0:0:0
432,224,63190,1,8,0:0:0
336,256,63518,1,8,0:0:0
276,176,63846,2,0,B|160:192|128:296,1,200,4|2,0:2|0:2,0:0:0
328,328,65157,6,0,B|328:120,1,200,4|0,0:2|0:0,0:0:0
256,60,66141,1,8,0:0:0
184,128,66469,2,0,B|184:328,1,200,2|0,0:2|0:0,0:0:0
83,328,67452,1,8,0:0:0
36,240,67780,6,0,B|-4:168|40:112|40:112|104:112,1,200,2|0,0:2|0:0,0:0:0
164,192,68764,1,8,0:0:0
240,260,69092,2,0,B|304:260|304:260|348:204|308:132,1,200,2|0,0:2|0:0,0:0:0
256,48,70075,1,8,0:0:0
256,48,70403,5,4,0:2:0
116,192,71059,1,2,0:2:0
256,336,71715,1,2,0:2:0
396,192,72370,2,0,B|288:192,1,99.9999999999999,2|8,0:2|0:0,0:0:0
196,192,73026,6,0,B|76:208|80:344,1,200,2|8,0:2|0:0,0:0:0
196,192,74338,2,0,B|76:176|80:40,1,200,4|2,0:1|0:2,0:0:0
180,56,75321,5,8,0:0:0
180,56,75649,2,0,B|384:56,1,200,4|2,0:2|0:2,0:0:0
232,192,76961,2,0,B|28:192,1,200,2|2,0:2|0:2,0:0:0
180,328,78272,6,0,B|384:328,1,200,4|2,0:1|0:2,0:0:0
456,260,79256,1,8,0:0:0
436,164,79583,2,0,B|404:60,1,99.9999999999999,8|8,0:0|0:0,0:0:0
308,68,80239,2,0,B|204:68,1,99.9999999999999,8|8,0:0|0:0,0:0:0
256,192,80895,12,4,82206,0:2:0
132,192,83518,6,0,B|148:296|256:320|364:296|380:192,1,350,4|4,0:1|0:1,0:0:0
376,92,84993,2,0,B|312:88|258:170|258:170|200:88|136:92,1,300,2|4,0:2|0:1,0:0:0
256,192,86141,12,0,88764,2:0:0
