osu file format v12

[General]
AudioFilename: SAOP2.mp3
AudioLeadIn: 0
PreviewTime: 54507
Countdown: 0
SampleSet: Soft
StackLeniency: 0.7
Mode: 3
LetterboxInBreaks: 0
SpecialStyle: 0
WidescreenStoryboard: 0

[Editor]
DistanceSpacing: 1
BeatDivisor: 4
GridSize: 8

[Metadata]
Title:INNOCENCE (TV Size)
TitleUnicode:INNOCENCE (TV Size)
Artist:Aoi Eir
ArtistUnicode:藍井エイル
Creator:17VA
Version:Lv.17
Source:Sword Art Online
Tags:SAO ALO OP Opening 2 2nd
BeatmapID:278049
BeatmapSetID:106040

[Difficulty]
HPDrainRate:8
CircleSize:7
OverallDifficulty:8
ApproachRate:5
SliderMultiplier:1.4
SliderTickRate:1

[Events]
//Background and Video events
Video,0,"SAOP2.avi"
0,0,"maxresdefault.jpg",0,0
//Break Periods
//Storyboard Layer 0 (Background)
//Storyboard Layer 1 (Fail)
//Storyboard Layer 2 (Pass)
//Storyboard Layer 3 (Foreground)
//Storyboard Sound Samples
//Background Colour Transformations
3,100,163,162,255

[TimingPoints]
-411,327.868852459016,4,2,0,0,1,0
54670,-100,4,2,0,0,0,1
82252,-20,4,2,0,0,0,0
82785,-25,4,2,0,0,0,0
82826,-40,4,2,0,0,0,0
82867,-66.6666666666667,4,2,0,0,0,0
82908,-133.333333333333,4,2,0,0,0,0
83072,-200,4,2,0,0,0,0
83195,-100,4,2,0,0,0,0

[HitObjects]
182,192,736,1,0,0:0:0:0:
256,192,777,1,0,0:0:0:0:
329,192,818,1,0,0:0:0:0:
109,192,982,128,0,1351:0:0:0:0:
329,192,1351,1,0,0:0:0:0:
402,192,1392,1,0,0:0:0:0:
475,192,1433,128,0,1843:0:0:0:0:
402,192,2048,1,0,0:0:0:0:
109,192,2211,1,0,0:0:0:0:
182,192,2375,1,0,0:0:0:0:
256,192,2539,1,0,0:0:0:0:
329,192,2703,1,0,0:0:0:0:
475,192,2703,1,0,0:0:0:0:
402,192,3523,1,0,0:0:0:0:
256,192,3523,1,0,0:0:0:0:
36,192,4834,1,0,0:0:0:0:
109,192,4998,1,0,0:0:0:0:
182,192,5162,1,0,0:0:0:0:
475,192,5326,1,0,0:0:0:0:
256,192,5326,1,0,0:0:0:0:
109,192,6146,1,0,0:0:0:0:
329,192,6146,1,0,0:0:0:0:
475,192,6638,1,0,0:0:0:0:
402,192,6720,1,0,0:0:0:0:
329,192,6802,1,0,0:0:0:0:
256,192,6884,1,0,0:0:0:0:
182,192,7457,128,0,8769:0:0:0:0:
36,192,7457,1,0,0:0:0:0:
329,192,7457,1,0,0:0:0:0:
475,192,7457,1,0,0:0:0:0:
329,192,7949,128,0,8441:0:0:0:0:
475,192,8441,128,0,8769:0:0:0:0:
36,192,8769,128,0,10080:0:0:0:0:
402,192,8769,1,0,0:0:0:0:
109,192,8769,1,0,0:0:0:0:
256,192,8769,1,0,0:0:0:0:
182,192,9261,1,0,0:0:0:0:
182,192,9588,1,0,0:0:0:0:
402,192,9752,128,0,10080:0:0:0:0:
182,192,9752,1,0,0:0:0:0:
329,192,9752,1,0,0:0:0:0:
109,192,10080,1,0,0:0:0:0:
256,192,10080,1,0,0:0:0:0:
329,192,10080,128,0,11392:0:0:0:0:
475,192,10080,1,0,0:0:0:0:
109,192,10408,1,0,0:0:0:0:
256,192,10408,1,0,0:0:0:0:
109,192,10736,1,0,0:0:0:0:
256,192,10736,1,0,0:0:0:0:
109,192,11064,1,0,0:0:0:0:
256,192,11064,1,0,0:0:0:0:
182,192,11392,128,0,11720:0:0:0:0:
36,192,11392,1,0,0:0:0:0:
402,192,11720,1,0,0:0:0:0:
475,192,11720,1,0,0:0:0:0:
256,192,12048,1,0,0:0:0:0:
36,192,12048,1,0,0:0:0:0:
475,192,12129,1,0,0:0:0:0:
402,192,12211,1,0,0:0:0:0:
329,192,12293,1,0,0:0:0:0:
256,192,12375,1,0,0:0:0:0:
182,192,12457,1,0,0:0:0:0:
109,192,12539,1,0,0:0:0:0:
36,192,12621,1,0,0:0:0:0:
329,192,12703,128,0,13687:0:0:0:0:
402,192,12703,1,0,0:0:0:0:
109,192,13031,1,0,0:0:0:0:
256,192,13031,1,0,0:0:0:0:
36,192,13359,1,0,0:0:0:0:
475,192,13687,128,0,14015:0:0:0:0:
256,192,13687,1,0,0:0:0:0:
109,192,13687,1,0,0:0:0:0:
402,192,14015,128,0,14507:0:0:0:0:
36,192,14015,1,0,0:0:0:0:
182,192,14179,1,0,0:0:0:0:
36,192,14343,1,0,0:0:0:0:
256,192,14507,128,0,14998:0:0:0:0:
475,192,14670,1,0,0:0:0:0:
329,192,14834,1,0,0:0:0:0:
109,192,14998,128,0,15326:0:0:0:0:
475,192,14998,1,0,0:0:0:0:
36,192,15326,128,0,15982:0:0:0:0:
329,192,15326,1,0,0:0:0:0:
256,192,15490,1,0,0:0:0:0:
182,192,15654,1,0,0:0:0:0:
402,192,15654,1,0,0:0:0:0:
329,192,15982,128,0,16638:0:0:0:0:
109,192,15982,1,0,0:0:0:0:
182,192,16146,1,0,0:0:0:0:
36,192,16310,1,0,0:0:0:0:
256,192,16310,1,0,0:0:0:0:
475,192,16638,1,0,0:0:0:0:
402,192,16638,1,0,0:0:0:0:
36,192,16802,1,0,0:0:0:0:
182,192,16966,1,0,0:0:0:0:
36,192,17129,1,0,0:0:0:0:
329,192,17293,1,0,0:0:0:0:
182,192,17457,1,0,0:0:0:0:
402,192,17621,128,0,17949:0:0:0:0:
329,192,17621,1,0,0:0:0:0:
475,192,17949,128,0,18605:0:0:0:0:
109,192,17949,1,0,0:0:0:0:
256,192,18113,1,0,0:0:0:0:
109,192,18277,1,0,0:0:0:0:
256,192,18441,1,0,0:0:0:0:
329,192,18605,128,0,18933:0:0:0:0:
36,192,18605,1,0,0:0:0:0:
182,192,18769,1,0,0:0:0:0:
402,192,18933,128,0,19261:0:0:0:0:
36,192,18933,1,0,0:0:0:0:
182,192,19097,1,0,0:0:0:0:
256,192,19261,128,0,19916:0:0:0:0:
475,192,19261,1,0,0:0:0:0:
36,192,19425,1,0,0:0:0:0:
475,192,19588,1,0,0:0:0:0:
36,192,19752,1,0,0:0:0:0:
109,192,19916,128,0,20244:0:0:0:0:
329,192,19916,1,0,0:0:0:0:
402,192,19916,1,0,0:0:0:0:
329,192,20080,1,0,0:0:0:0:
402,192,20080,1,0,0:0:0:0:
182,192,20244,128,0,20572:0:0:0:0:
475,192,20244,1,0,0:0:0:0:
402,192,20408,1,0,0:0:0:0:
36,192,20572,128,0,22375:0:0:0:0:
329,192,20572,1,0,0:0:0:0:
109,192,21105,1,0,0:0:0:0:
182,192,21146,1,0,0:0:0:0:
256,192,21187,1,0,0:0:0:0:
329,192,21228,128,0,21556:0:0:0:0:
256,192,21761,1,0,0:0:0:0:
329,192,21802,1,0,0:0:0:0:
402,192,21843,1,0,0:0:0:0:
475,192,21884,128,0,22211:0:0:0:0:
182,192,22539,1,0,0:0:0:0:
475,192,22539,1,0,0:0:0:0:
36,192,22539,1,0,0:0:0:0:
329,192,22539,1,0,0:0:0:0:
36,192,22703,1,0,0:0:0:0:
182,192,22703,1,0,0:0:0:0:
475,192,22703,1,0,0:0:0:0:
329,192,22703,1,0,0:0:0:0:
109,192,22703,1,0,0:0:0:0:
402,192,22703,1,0,0:0:0:0:
256,192,23195,1,0,0:0:0:0:
402,192,23195,1,0,0:0:0:0:
182,192,24507,1,0,0:0:0:0:
109,192,24998,1,0,0:0:0:0:
402,192,25490,1,0,0:0:0:0:
475,192,25818,1,0,0:0:0:0:
256,192,25818,1,0,0:0:0:0:
109,192,25818,1,0,0:0:0:0:
402,192,27129,1,0,0:0:0:0:
182,192,27129,1,0,0:0:0:0:
329,192,27621,1,0,0:0:0:0:
475,192,27621,1,0,0:0:0:0:
109,192,27621,1,0,0:0:0:0:
36,192,27949,128,0,28441:0:0:0:0:
475,192,28113,1,0,0:0:0:0:
182,192,28441,1,0,0:0:0:0:
475,192,28441,1,0,0:0:0:0:
256,192,28605,1,0,0:0:0:0:
329,192,28769,1,0,0:0:0:0:
475,192,28769,1,0,0:0:0:0:
256,192,28933,1,0,0:0:0:0:
109,192,29097,1,0,0:0:0:0:
109,192,29261,1,0,0:0:0:0:
256,192,29425,1,0,0:0:0:0:
402,192,29425,1,0,0:0:0:0:
182,192,29588,1,0,0:0:0:0:
329,192,29752,1,0,0:0:0:0:
475,192,29752,1,0,0:0:0:0:
402,192,29916,1,0,0:0:0:0:
36,192,30080,1,0,0:0:0:0:
182,192,30080,1,0,0:0:0:0:
256,192,30244,1,0,0:0:0:0:
109,192,30408,1,0,0:0:0:0:
402,192,30408,1,0,0:0:0:0:
182,192,30572,1,0,0:0:0:0:
329,192,30736,1,0,0:0:0:0:
475,192,30736,1,0,0:0:0:0:
402,192,30900,1,0,0:0:0:0:
36,192,31064,1,0,0:0:0:0:
256,192,31064,1,0,0:0:0:0:
109,192,31228,1,0,0:0:0:0:
256,192,31392,1,0,0:0:0:0:
475,192,31392,1,0,0:0:0:0:
182,192,31556,1,0,0:0:0:0:
402,192,31720,1,0,0:0:0:0:
36,192,31720,1,0,0:0:0:0:
329,192,31884,1,0,0:0:0:0:
475,192,32048,1,0,0:0:0:0:
182,192,32048,1,0,0:0:0:0:
256,192,32211,1,0,0:0:0:0:
36,192,32211,1,0,0:0:0:0:
36,192,32539,1,0,0:0:0:0:
256,192,32539,1,0,0:0:0:0:
475,192,32703,1,0,0:0:0:0:
182,192,32703,1,0,0:0:0:0:
329,192,32867,1,0,0:0:0:0:
182,192,33031,1,0,0:0:0:0:
36,192,33195,1,0,0:0:0:0:
109,192,33277,1,0,0:0:0:0:
182,192,33359,1,0,0:0:0:0:
256,192,33441,1,0,0:0:0:0:
329,192,33523,1,0,0:0:0:0:
402,192,33605,1,0,0:0:0:0:
475,192,33687,1,0,0:0:0:0:
256,192,33687,1,0,0:0:0:0:
182,192,33687,1,0,0:0:0:0:
36,192,33687,1,0,0:0:0:0:
256,192,34998,1,0,0:0:0:0:
329,192,35490,1,0,0:0:0:0:
182,192,35982,1,0,0:0:0:0:
475,192,36310,1,0,0:0:0:0:
256,192,36310,1,0,0:0:0:0:
109,192,36310,1,0,0:0:0:0:
182,192,37621,1,0,0:0:0:0:
329,192,37621,1,0,0:0:0:0:
109,192,38113,1,0,0:0:0:0:
256,192,38113,1,0,0:0:0:0:
475,192,38113,1,0,0:0:0:0:
475,192,38277,1,0,0:0:0:0:
402,192,38277,1,0,0:0:0:0:
109,192,38277,1,0,0:0:0:0:
36,192,38277,1,0,0:0:0:0:
182,192,38605,1,0,0:0:0:0:
256,192,38605,1,0,0:0:0:0:
329,192,38605,1,0,0:0:0:0:
36,192,38605,1,0,0:0:0:0:
475,192,38605,1,0,0:0:0:0:
109,192,38933,1,0,0:0:0:0:
256,192,39097,1,0,0:0:0:0:
329,192,39261,1,0,0:0:0:0:
475,192,39261,1,0,0:0:0:0:
182,192,39425,1,0,0:0:0:0:
109,192,39588,1,0,0:0:0:0:
109,192,39752,1,0,0:0:0:0:
256,192,39916,1,0,0:0:0:0:
402,192,39916,1,0,0:0:0:0:
182,192,40080,1,0,0:0:0:0:
475,192,40244,1,0,0:0:0:0:
329,192,40244,1,0,0:0:0:0:
402,192,40408,1,0,0:0:0:0:
256,192,40572,1,0,0:0:0:0:
36,192,40572,1,0,0:0:0:0:
182,192,40736,1,0,0:0:0:0:
329,192,40900,1,0,0:0:0:0:
475,192,40900,1,0,0:0:0:0:
109,192,41064,1,0,0:0:0:0:
256,192,41228,1,0,0:0:0:0:
402,192,41228,1,0,0:0:0:0:
329,192,41392,1,0,0:0:0:0:
475,192,41556,1,0,0:0:0:0:
36,192,41556,1,0,0:0:0:0:
109,192,41720,1,0,0:0:0:0:
475,192,41884,1,0,0:0:0:0:
256,192,41884,1,0,0:0:0:0:
182,192,42048,1,0,0:0:0:0:
36,192,42212,1,0,0:0:0:0:
402,192,42212,1,0,0:0:0:0:
329,192,42376,1,0,0:0:0:0:
475,192,42540,1,0,0:0:0:0:
109,192,42540,1,0,0:0:0:0:
402,192,42703,1,0,0:0:0:0:
256,192,42703,1,0,0:0:0:0:
36,192,43031,1,0,0:0:0:0:
182,192,43031,1,0,0:0:0:0:
329,192,43195,1,0,0:0:0:0:
475,192,43195,1,0,0:0:0:0:
36,192,43359,1,0,0:0:0:0:
182,192,43359,1,0,0:0:0:0:
475,192,43523,1,0,0:0:0:0:
329,192,43523,1,0,0:0:0:0:
36,192,43687,1,0,0:0:0:0:
109,192,43769,1,0,0:0:0:0:
182,192,43851,1,0,0:0:0:0:
256,192,43933,1,0,0:0:0:0:
329,192,44015,1,0,0:0:0:0:
402,192,44097,1,0,0:0:0:0:
36,192,44179,1,0,0:0:0:0:
109,192,44179,1,0,0:0:0:0:
475,192,44179,1,0,0:0:0:0:
256,192,44343,1,0,0:0:0:0:
109,192,44507,1,0,0:0:0:0:
329,192,44507,1,0,0:0:0:0:
36,192,44670,1,0,0:0:0:0:
182,192,44834,1,0,0:0:0:0:
402,192,44834,1,0,0:0:0:0:
329,192,44998,1,0,0:0:0:0:
256,192,45162,1,0,0:0:0:0:
475,192,45162,1,0,0:0:0:0:
402,192,45326,1,0,0:0:0:0:
36,192,45490,1,0,0:0:0:0:
256,192,45490,1,0,0:0:0:0:
109,192,45654,1,0,0:0:0:0:
36,192,45818,1,0,0:0:0:0:
256,192,45818,1,0,0:0:0:0:
182,192,45982,1,0,0:0:0:0:
256,192,46146,1,0,0:0:0:0:
329,192,46146,1,0,0:0:0:0:
402,192,46146,1,0,0:0:0:0:
475,192,46146,1,0,0:0:0:0:
182,192,46474,1,0,0:0:0:0:
256,192,46474,1,0,0:0:0:0:
329,192,46474,1,0,0:0:0:0:
402,192,46474,1,0,0:0:0:0:
36,192,46802,1,0,0:0:0:0:
402,192,46802,1,0,0:0:0:0:
475,192,46802,1,0,0:0:0:0:
182,192,46802,1,0,0:0:0:0:
109,192,46966,1,0,0:0:0:0:
182,192,47129,1,0,0:0:0:0:
402,192,47129,1,0,0:0:0:0:
329,192,47293,1,0,0:0:0:0:
402,192,47457,1,0,0:0:0:0:
109,192,47457,1,0,0:0:0:0:
475,192,47621,1,0,0:0:0:0:
402,192,47785,1,0,0:0:0:0:
36,192,47949,1,0,0:0:0:0:
256,192,47949,1,0,0:0:0:0:
182,192,48113,1,0,0:0:0:0:
256,192,48277,1,0,0:0:0:0:
36,192,48277,1,0,0:0:0:0:
402,192,48441,1,0,0:0:0:0:
475,192,48441,1,0,0:0:0:0:
182,192,48605,1,0,0:0:0:0:
109,192,48769,1,0,0:0:0:0:
256,192,48769,1,0,0:0:0:0:
329,192,48769,1,0,0:0:0:0:
402,192,48769,1,0,0:0:0:0:
36,192,49097,1,0,0:0:0:0:
182,192,49097,1,0,0:0:0:0:
256,192,49097,1,0,0:0:0:0:
329,192,49097,1,0,0:0:0:0:
109,192,49425,1,0,0:0:0:0:
182,192,49425,1,0,0:0:0:0:
402,192,49588,1,0,0:0:0:0:
256,192,49588,1,0,0:0:0:0:
402,192,49752,1,0,0:0:0:0:
256,192,49752,1,0,0:0:0:0:
329,192,49916,1,0,0:0:0:0:
182,192,49916,1,0,0:0:0:0:
402,192,50080,128,0,50408:0:0:0:0:
182,192,50408,1,0,0:0:0:0:
36,192,50408,1,0,0:0:0:0:
475,192,50572,128,0,50900:0:0:0:0:
109,192,50900,1,0,0:0:0:0:
256,192,50900,1,0,0:0:0:0:
329,192,51064,1,0,0:0:0:0:
402,192,51064,1,0,0:0:0:0:
182,192,51228,1,0,0:0:0:0:
256,192,51228,1,0,0:0:0:0:
36,192,51392,1,0,0:0:0:0:
182,192,51392,1,0,0:0:0:0:
475,192,51556,1,0,0:0:0:0:
256,192,51556,1,0,0:0:0:0:
402,192,51720,1,0,0:0:0:0:
182,192,51720,1,0,0:0:0:0:
329,192,51884,1,0,0:0:0:0:
109,192,51884,1,0,0:0:0:0:
36,192,52048,128,0,53359:0:0:0:0:
475,192,52048,128,0,53359:0:0:0:0:
109,192,52703,1,0,0:0:0:0:
402,192,52785,1,0,0:0:0:0:
109,192,52867,1,0,0:0:0:0:
402,192,52949,1,0,0:0:0:0:
182,192,53031,1,0,0:0:0:0:
329,192,53113,1,0,0:0:0:0:
182,192,53195,1,0,0:0:0:0:
329,192,53277,1,0,0:0:0:0:
109,192,53359,1,0,0:0:0:0:
402,192,53359,1,0,0:0:0:0:
109,192,53523,1,0,0:0:0:0:
402,192,53523,1,0,0:0:0:0:
36,192,54015,1,0,0:0:0:0:
182,192,54015,1,0,0:0:0:0:
329,192,54015,1,0,0:0:0:0:
475,192,54015,1,0,0:0:0:0:
329,192,54179,1,0,0:0:0:0:
475,192,54179,1,0,0:0:0:0:
182,192,54179,1,0,0:0:0:0:
36,192,54179,1,0,0:0:0:0:
182,192,54507,1,0,0:0:0:0:
256,192,54670,1,0,0:0:0:0:
402,192,54670,1,0,0:0:0:0:
475,192,54670,1,0,0:0:0:0:
109,192,54670,1,0,0:0:0:0:
182,192,54834,1,0,0:0:0:0:
329,192,54998,1,0,0:0:0:0:
475,192,54998,1,0,0:0:0:0:
109,192,55162,1,0,0:0:0:0:
256,192,55162,1,0,0:0:0:0:
402,192,55326,1,0,0:0:0:0:
182,192,55490,1,0,0:0:0:0:
329,192,55490,1,0,0:0:0:0:
475,192,55490,1,0,0:0:0:0:
109,192,55490,1,0,0:0:0:0:
36,192,55654,1,0,0:0:0:0:
256,192,55654,1,0,0:0:0:0:
182,192,55818,1,0,0:0:0:0:
329,192,55818,1,0,0:0:0:0:
36,192,55982,1,0,0:0:0:0:
109,192,56146,1,0,0:0:0:0:
36,192,56310,1,0,0:0:0:0:
329,192,56310,1,0,0:0:0:0:
256,192,56474,1,0,0:0:0:0:
329,192,56638,1,0,0:0:0:0:
109,192,56638,1,0,0:0:0:0:
182,192,56802,1,0,0:0:0:0:
475,192,56802,1,0,0:0:0:0:
36,192,56802,1,0,0:0:0:0:
402,192,56966,1,0,0:0:0:0:
256,192,56966,1,0,0:0:0:0:
329,192,57129,1,0,0:0:0:0:
109,192,57293,1,0,0:0:0:0:
256,192,57293,1,0,0:0:0:0:
329,192,57457,1,0,0:0:0:0:
182,192,57621,1,0,0:0:0:0:
402,192,57621,1,0,0:0:0:0:
256,192,57785,1,0,0:0:0:0:
475,192,57785,1,0,0:0:0:0:
109,192,57785,1,0,0:0:0:0:
36,192,57949,1,0,0:0:0:0:
182,192,58113,1,0,0:0:0:0:
36,192,58277,1,0,0:0:0:0:
329,192,58277,1,0,0:0:0:0:
256,192,58441,1,0,0:0:0:0:
475,192,58441,1,0,0:0:0:0:
36,192,58605,1,0,0:0:0:0:
402,192,58769,1,0,0:0:0:0:
182,192,58769,1,0,0:0:0:0:
256,192,58933,1,0,0:0:0:0:
36,192,58933,1,0,0:0:0:0:
329,192,59097,1,0,0:0:0:0:
109,192,59097,1,0,0:0:0:0:
475,192,59261,1,0,0:0:0:0:
402,192,59261,1,0,0:0:0:0:
109,192,59425,1,0,0:0:0:0:
402,192,59588,1,0,0:0:0:0:
329,192,59588,1,0,0:0:0:0:
36,192,59752,1,0,0:0:0:0:
109,192,59916,1,0,0:0:0:0:
256,192,59916,1,0,0:0:0:0:
402,192,59916,1,0,0:0:0:0:
475,192,59916,1,0,0:0:0:0:
36,192,60080,1,0,0:0:0:0:
182,192,60244,1,0,0:0:0:0:
329,192,60244,1,0,0:0:0:0:
109,192,60408,1,0,0:0:0:0:
182,192,60572,1,0,0:0:0:0:
256,192,60736,1,0,0:0:0:0:
329,192,60900,1,0,0:0:0:0:
109,192,60900,1,0,0:0:0:0:
475,192,60900,1,0,0:0:0:0:
402,192,61064,1,0,0:0:0:0:
182,192,61064,1,0,0:0:0:0:
475,192,61228,1,0,0:0:0:0:
182,192,61228,1,0,0:0:0:0:
329,192,61228,1,0,0:0:0:0:
109,192,61228,1,0,0:0:0:0:
36,192,61392,1,0,0:0:0:0:
109,192,61556,1,0,0:0:0:0:
256,192,61556,1,0,0:0:0:0:
36,192,61720,1,0,0:0:0:0:
109,192,61884,1,0,0:0:0:0:
182,192,62048,1,0,0:0:0:0:
256,192,62211,1,0,0:0:0:0:
36,192,62211,1,0,0:0:0:0:
402,192,62211,1,0,0:0:0:0:
329,192,62375,1,0,0:0:0:0:
109,192,62375,1,0,0:0:0:0:
182,192,62539,1,0,0:0:0:0:
256,192,62539,1,0,0:0:0:0:
402,192,62539,1,0,0:0:0:0:
475,192,62539,1,0,0:0:0:0:
182,192,62867,1,0,0:0:0:0:
256,192,62867,1,0,0:0:0:0:
402,192,62867,1,0,0:0:0:0:
475,192,62867,1,0,0:0:0:0:
182,192,63195,1,0,0:0:0:0:
256,192,63195,1,0,0:0:0:0:
402,192,63195,1,0,0:0:0:0:
475,192,63195,1,0,0:0:0:0:
182,192,63523,1,0,0:0:0:0:
256,192,63523,1,0,0:0:0:0:
402,192,63523,1,0,0:0:0:0:
475,192,63523,1,0,0:0:0:0:
36,192,63851,1,0,0:0:0:0:
182,192,63851,1,0,0:0:0:0:
475,192,64015,128,0,64670:0:0:0:0:
402,192,64179,128,0,64670:0:0:0:0:
329,192,64343,128,0,64670:0:0:0:0:
256,192,64507,128,0,64670:0:0:0:0:
36,192,64670,1,0,0:0:0:0:
109,192,64752,1,0,0:0:0:0:
182,192,64834,1,0,0:0:0:0:
256,192,64916,1,0,0:0:0:0:
329,192,64998,1,0,0:0:0:0:
402,192,65080,1,0,0:0:0:0:
182,192,65162,1,0,0:0:0:0:
256,192,65162,1,0,0:0:0:0:
475,192,65162,1,0,0:0:0:0:
36,192,65162,1,0,0:0:0:0:
329,192,65326,1,0,0:0:0:0:
109,192,65490,1,0,0:0:0:0:
256,192,65490,1,0,0:0:0:0:
402,192,65654,1,0,0:0:0:0:
182,192,65818,1,0,0:0:0:0:
475,192,65818,1,0,0:0:0:0:
402,192,65982,1,0,0:0:0:0:
329,192,65982,1,0,0:0:0:0:
109,192,65982,1,0,0:0:0:0:
256,192,66146,1,0,0:0:0:0:
36,192,66146,1,0,0:0:0:0:
182,192,66310,1,0,0:0:0:0:
402,192,66310,1,0,0:0:0:0:
475,192,66474,1,0,0:0:0:0:
329,192,66638,1,0,0:0:0:0:
109,192,66638,1,0,0:0:0:0:
402,192,66802,1,0,0:0:0:0:
182,192,66802,1,0,0:0:0:0:
36,192,66966,1,0,0:0:0:0:
256,192,66966,1,0,0:0:0:0:
109,192,67129,1,0,0:0:0:0:
256,192,67293,1,0,0:0:0:0:
475,192,67293,1,0,0:0:0:0:
329,192,67457,1,0,0:0:0:0:
36,192,67457,1,0,0:0:0:0:
109,192,67621,1,0,0:0:0:0:
36,192,67785,1,0,0:0:0:0:
256,192,67785,1,0,0:0:0:0:
402,192,67785,1,0,0:0:0:0:
475,192,67785,1,0,0:0:0:0:
182,192,67949,1,0,0:0:0:0:
109,192,68113,1,0,0:0:0:0:
329,192,68113,1,0,0:0:0:0:
182,192,68277,1,0,0:0:0:0:
256,192,68277,1,0,0:0:0:0:
402,192,68277,1,0,0:0:0:0:
36,192,68441,1,0,0:0:0:0:
109,192,68605,1,0,0:0:0:0:
475,192,68605,1,0,0:0:0:0:
256,192,68605,1,0,0:0:0:0:
36,192,68769,1,0,0:0:0:0:
329,192,68769,1,0,0:0:0:0:
182,192,68933,1,0,0:0:0:0:
402,192,68933,1,0,0:0:0:0:
475,192,68933,1,0,0:0:0:0:
329,192,69097,1,0,0:0:0:0:
36,192,69261,1,0,0:0:0:0:
256,192,69261,1,0,0:0:0:0:
475,192,69425,1,0,0:0:0:0:
182,192,69588,1,0,0:0:0:0:
402,192,69588,1,0,0:0:0:0:
36,192,69752,1,0,0:0:0:0:
109,192,69916,1,0,0:0:0:0:
36,192,70080,1,0,0:0:0:0:
256,192,70080,1,0,0:0:0:0:
402,192,70080,1,0,0:0:0:0:
329,192,70244,1,0,0:0:0:0:
182,192,70408,1,0,0:0:0:0:
402,192,70408,1,0,0:0:0:0:
475,192,70408,1,0,0:0:0:0:
36,192,70408,1,0,0:0:0:0:
329,192,70572,1,0,0:0:0:0:
256,192,70736,1,0,0:0:0:0:
109,192,70736,1,0,0:0:0:0:
329,192,70900,1,0,0:0:0:0:
109,192,71064,1,0,0:0:0:0:
256,192,71064,1,0,0:0:0:0:
36,192,71228,1,0,0:0:0:0:
182,192,71392,1,0,0:0:0:0:
329,192,71392,1,0,0:0:0:0:
402,192,71556,1,0,0:0:0:0:
36,192,71556,1,0,0:0:0:0:
329,192,71720,1,0,0:0:0:0:
256,192,71884,1,0,0:0:0:0:
109,192,71884,1,0,0:0:0:0:
475,192,71884,1,0,0:0:0:0:
36,192,72048,1,0,0:0:0:0:
329,192,72048,1,0,0:0:0:0:
182,192,72211,1,0,0:0:0:0:
402,192,72211,1,0,0:0:0:0:
182,192,72375,1,0,0:0:0:0:
109,192,72539,1,0,0:0:0:0:
402,192,72539,1,0,0:0:0:0:
256,192,72703,1,0,0:0:0:0:
475,192,72703,1,0,0:0:0:0:
475,192,72867,1,0,0:0:0:0:
256,192,73031,1,0,0:0:0:0:
36,192,73031,1,0,0:0:0:0:
109,192,73031,1,0,0:0:0:0:
402,192,73031,1,0,0:0:0:0:
36,192,73359,1,0,0:0:0:0:
109,192,73359,1,0,0:0:0:0:
256,192,73359,1,0,0:0:0:0:
402,192,73359,1,0,0:0:0:0:
36,192,73687,1,0,0:0:0:0:
109,192,73687,1,0,0:0:0:0:
256,192,73687,1,0,0:0:0:0:
402,192,73687,1,0,0:0:0:0:
36,192,74015,1,0,0:0:0:0:
109,192,74015,1,0,0:0:0:0:
256,192,74015,1,0,0:0:0:0:
402,192,74015,1,0,0:0:0:0:
109,192,74343,5,0,0:0:0:0:
182,192,74343,1,0,0:0:0:0:
475,192,74343,1,0,0:0:0:0:
402,192,74343,1,0,0:0:0:0:
109,192,74670,1,0,0:0:0:0:
182,192,74670,1,0,0:0:0:0:
475,192,74670,1,0,0:0:0:0:
402,192,74670,1,0,0:0:0:0:
402,192,74998,1,0,0:0:0:0:
475,192,74998,1,0,0:0:0:0:
109,192,74998,1,0,0:0:0:0:
182,192,74998,1,0,0:0:0:0:
475,192,75162,1,0,0:0:0:0:
402,192,75244,1,0,0:0:0:0:
329,192,75326,1,0,0:0:0:0:
256,192,75408,1,0,0:0:0:0:
182,192,75490,1,0,0:0:0:0:
109,192,75572,1,0,0:0:0:0:
36,192,75654,1,0,0:0:0:0:
329,192,75654,1,0,0:0:0:0:
256,192,75818,1,0,0:0:0:0:
329,192,75982,1,0,0:0:0:0:
109,192,75982,1,0,0:0:0:0:
402,192,76146,1,0,0:0:0:0:
182,192,76310,1,0,0:0:0:0:
256,192,76310,1,0,0:0:0:0:
402,192,76474,1,0,0:0:0:0:
329,192,76638,1,0,0:0:0:0:
475,192,76638,1,0,0:0:0:0:
402,192,76802,1,0,0:0:0:0:
256,192,76966,1,0,0:0:0:0:
36,192,76966,1,0,0:0:0:0:
329,192,77129,1,0,0:0:0:0:
109,192,77129,1,0,0:0:0:0:
256,192,77293,1,0,0:0:0:0:
36,192,77293,1,0,0:0:0:0:
329,192,77457,1,0,0:0:0:0:
109,192,77457,1,0,0:0:0:0:
475,192,77621,128,0,77949:0:0:0:0:
256,192,77621,128,0,77949:0:0:0:0:
182,192,77949,128,0,78277:0:0:0:0:
402,192,77949,128,0,78277:0:0:0:0:
36,192,78277,128,0,79588:0:0:0:0:
109,192,78277,1,0,0:0:0:0:
329,192,78277,1,0,0:0:0:0:
402,192,78441,1,0,0:0:0:0:
182,192,78605,1,0,0:0:0:0:
475,192,78769,1,0,0:0:0:0:
256,192,78933,1,0,0:0:0:0:
182,192,78933,128,0,79261:0:0:0:0:
475,192,79261,1,0,0:0:0:0:
329,192,79261,1,0,0:0:0:0:
109,192,79425,1,0,0:0:0:0:
475,192,79588,128,0,80900:0:0:0:0:
402,192,79588,1,0,0:0:0:0:
182,192,79588,1,0,0:0:0:0:
329,192,79588,1,0,0:0:0:0:
109,192,79916,1,0,0:0:0:0:
256,192,79916,1,0,0:0:0:0:
36,192,80244,1,0,0:0:0:0:
182,192,80244,1,0,0:0:0:0:
109,192,80572,1,0,0:0:0:0:
256,192,80572,1,0,0:0:0:0:
402,192,80736,1,0,0:0:0:0:
109,192,80900,128,0,82211:0:0:0:0:
36,192,80900,1,0,0:0:0:0:
329,192,80900,1,0,0:0:0:0:
182,192,81064,1,0,0:0:0:0:
36,192,81228,1,0,0:0:0:0:
329,192,81228,1,0,0:0:0:0:
182,192,81392,1,0,0:0:0:0:
36,192,81556,1,0,0:0:0:0:
402,192,81556,1,0,0:0:0:0:
256,192,81720,1,0,0:0:0:0:
36,192,81884,1,0,0:0:0:0:
402,192,81884,1,0,0:0:0:0:
256,192,82048,1,0,0:0:0:0:
475,192,82211,1,0,0:0:0:0:
36,192,82211,1,0,0:0:0:0:
402,192,82211,1,0,0:0:0:0:
36,192,83195,1,0,0:0:0:0:
109,192,83277,1,0,0:0:0:0:
182,192,83359,1,0,0:0:0:0:
256,192,83441,1,0,0:0:0:0:
329,192,83523,128,0,84015:0:0:0:0:
36,192,83523,1,0,0:0:0:0:
109,192,83523,1,0,0:0:0:0:
475,192,83523,1,0,0:0:0:0:
182,192,83851,1,0,0:0:0:0:
256,192,83851,1,0,0:0:0:0:
109,192,84015,128,0,84507:0:0:0:0:
475,192,84015,1,0,0:0:0:0:
36,192,84015,1,0,0:0:0:0:
256,192,84179,1,0,0:0:0:0:
402,192,84179,1,0,0:0:0:0:
256,192,84507,1,0,0:0:0:0:
402,192,84507,1,0,0:0:0:0:
36,192,84670,128,0,84998:0:0:0:0:
475,192,84670,128,0,84998:0:0:0:0:
109,192,84998,128,0,85162:0:0:0:0:
402,192,84998,128,0,85162:0:0:0:0:
182,192,84998,1,0,0:0:0:0:
329,192,84998,1,0,0:0:0:0:
256,192,85162,128,0,85326:0:0:0:0:
182,192,85326,128,0,85654:0:0:0:0:
475,192,85326,1,0,0:0:0:0:
329,192,85326,128,0,85654:0:0:0:0:
36,192,85326,1,0,0:0:0:0:
475,192,85654,128,0,85818:0:0:0:0:
36,192,85654,128,0,85818:0:0:0:0:
402,192,85818,128,0,85982:0:0:0:0:
109,192,85818,128,0,85982:0:0:0:0:
475,192,85982,128,0,88113:0:0:0:0:
182,192,85982,128,0,88769:0:0:0:0:
329,192,85982,128,0,88441:0:0:0:0:
36,192,85982,128,0,89097:0:0:0:0:
