osu file format v13

[General]
AudioFilename: SAO Innocence.mp3
AudioLeadIn: 0
PreviewTime: 54343
Countdown: 0
SampleSet: Soft
StackLeniency: 0.7
Mode: 3
LetterboxInBreaks: 0
SpecialStyle: 0
WidescreenStoryboard: 1

[Editor]
DistanceSpacing: 1
BeatDivisor: 4
GridSize: 8
TimelineZoom: 1.3

[Metadata]
Title:INNOCENCE (TV Size Ver.)
TitleUnicode:INNOCENCE (TV Size Ver.)
Artist:Aoi Eir
ArtistUnicode:藍井エイル
Creator:[AyanoTatemaya]
Version:7K HD
Source:ソードアート・オンライン
Tags:Sword Art Online SAO ALO OP Opening 2 2nd arcwinolivirus Kuo Kyoka lordraika Alfheim Online HinagikuKatsura
BeatmapID:584515
BeatmapSetID:143712

[Difficulty]
HPDrainRate:7
CircleSize:7
OverallDifficulty:8
ApproachRate:5
SliderMultiplier:1.4
SliderTickRate:1

[Events]
//Background and Video events
Video,0,"SAOP2.avi"
0,0,"BG-Hinagiku.png",0,0
//Break Periods
//Storyboard Layer 0 (Background)
//Storyboard Layer 1 (Fail)
//Storyboard Layer 2 (Pass)
//Storyboard Layer 3 (Foreground)
//Storyboard Sound Samples
Sample,818,0,"backtrack.wav",70
Sample,7457,0,"3-7.wav",20
Sample,7457,0,"1-5.wav",20
Sample,7457,0,"2-7.wav",20
Sample,8769,0,"1-7.wav",20
Sample,8769,0,"2-9.wav",20
Sample,8769,0,"3-9.wav",20
Sample,10080,0,"2-4.wav",20
Sample,10080,0,"3-6.wav",20
Sample,10080,0,"4-6.wav",20
Sample,11392,0,"4-6.wav",20
Sample,11392,0,"2-4.wav",20
Sample,11392,0,"3-6.wav",20
Sample,11720,0,"4-6.wav",20
Sample,11720,0,"3-6.wav",20
Sample,12048,0,"4-6.wav",20
Sample,12048,0,"3-6.wav",20
Sample,12048,0,"2-4.wav",20
Sample,12703,0,"1-5.wav",20
Sample,13031,0,"2-7.wav",20
Sample,13031,0,"3-7.wav",20
Sample,13195,0,"3-7.wav",20
Sample,13195,0,"2-7.wav",20
Sample,14015,0,"2-9.wav",20
Sample,14015,0,"3-9.wav",20
Sample,14015,0,"1-7.wav",20
Sample,14343,0,"3-9.wav",20
Sample,14507,0,"2-9.wav",20
Sample,14507,0,"3-9.wav",20
Sample,15326,0,"1-4.wav",20
Sample,15326,0,"2-6.wav",20
Sample,15326,0,"3-6.wav",20
Sample,15654,0,"3-6.wav",20
Sample,15818,0,"2-6.wav",20
Sample,15818,0,"3-6.wav",20
Sample,16638,0,"4-6.wav",20
Sample,16638,0,"3-6.wav",20
Sample,16638,0,"2-4.wav",20
Sample,16966,0,"4-6.wav",20
Sample,17129,0,"3-6.wav",20
Sample,17129,0,"4-6.wav",20
Sample,17949,0,"3-7.wav",20
Sample,17949,0,"1-5.wav",20
Sample,18277,0,"1-5.wav",20
Sample,18441,0,"1-5.wav",20
Sample,18441,0,"3-7.wav",20
Sample,18523,0,"2-7.wav",20
Sample,19261,0,"1-7.wav",20
Sample,19261,0,"2-9.wav",20
Sample,19588,0,"3-9.wav",20
Sample,19752,0,"2-9.wav",20
Sample,19752,0,"3-9.wav",20
Sample,19752,0,"1-7.wav",20
Sample,20572,0,"4-6.wav",20
Sample,20572,0,"2-4.wav",20
Sample,20572,0,"3-6.wav",20
Sample,22539,0,"3-6.wav",20
Sample,22539,0,"4-6.wav",20
Sample,22539,0,"2-4.wav",20
Sample,22703,0,"2-4.wav",20
Sample,22703,0,"4-6.wav",20
Sample,22703,0,"3-6.wav",20
Sample,28441,0,"2-7.wav",20
Sample,28441,0,"1-5.wav",20
Sample,28441,0,"3-7.wav",20
Sample,28769,0,"1-5.wav",20
Sample,28933,0,"3-7.wav",20
Sample,28933,0,"1-5.wav",20
Sample,29261,0,"1-5.wav",20
Sample,29261,0,"3-7.wav",20
Sample,29425,0,"1-5.wav",20
Sample,29752,0,"3-7.wav",20
Sample,29752,0,"2-7.wav",20
Sample,29752,0,"1-5.wav",20
Sample,30244,0,"1-5.wav",20
Sample,30244,0,"3-7.wav",20
Sample,30244,0,"2-7.wav",20
Sample,31064,0,"1-7.wav",20
Sample,31064,0,"3-9.wav",20
Sample,32211,0,"1-8.wav",20
Sample,32211,0,"3-10.wav",20
Sample,32211,0,"2-10.wav",20
Sample,38933,0,"2-7.wav",20
Sample,38933,0,"3-7.wav",20
Sample,39261,0,"3-7.wav",20
Sample,39425,0,"2-7.wav",20
Sample,39425,0,"3-7.wav",20
Sample,39425,0,"1-5.wav",20
Sample,39752,0,"1-5.wav",20
Sample,39752,0,"3-7.wav",20
Sample,39752,0,"2-7.wav",20
Sample,39916,0,"2-7.wav",20
Sample,40244,0,"1-5.wav",20
Sample,40244,0,"2-7.wav",20
Sample,40244,0,"3-7.wav",20
Sample,40736,0,"1-5.wav",20
Sample,40736,0,"2-7.wav",20
Sample,40736,0,"3-7.wav",20
Sample,41556,0,"2-9.wav",20
Sample,41556,0,"4-13.wav",30
Sample,41556,0,"3-9.wav",20
Sample,42703,0,"1-8.wav",20
Sample,42703,0,"3-10.wav",20
Sample,42703,0,"2-10.wav",20
Sample,44179,0,"2-7.wav",20
Sample,44343,0,"4-9.wav",20
Sample,44343,0,"2-7.wav",20
Sample,44670,0,"2-7.wav",20
Sample,44670,0,"4-9.wav",20
Sample,44834,0,"4-9.wav",20
Sample,44834,0,"2-7.wav",20
Sample,45326,0,"2-7.wav",20
Sample,45326,0,"4-9.wav",20
Sample,46146,0,"3-14.wav",30
Sample,46146,0,"2-7.wav",20
Sample,46802,0,"2-9.wav",20
Sample,46802,0,"4-11.wav",20
Sample,46966,0,"4-11.wav",20
Sample,46966,0,"2-9.wav",20
Sample,47293,0,"2-9.wav",20
Sample,47293,0,"4-11.wav",20
Sample,47457,0,"4-11.wav",20
Sample,47457,0,"2-9.wav",20
Sample,47949,0,"2-9.wav",20
Sample,47949,0,"4-11.wav",20
Sample,48769,0,"4-11.wav",20
Sample,48769,0,"2-9.wav",20
Sample,49425,0,"4-13.wav",20
Sample,49588,0,"2-11.wav",20
Sample,49588,0,"4-13.wav",20
Sample,49916,0,"4-13.wav",20
Sample,49916,0,"2-11.wav",20
Sample,50080,0,"4-13.wav",20
Sample,50080,0,"2-11.wav",20
Sample,50572,0,"2-11.wav",20
Sample,50572,0,"4-13.wav",20
Sample,51392,0,"2-11.wav",20
Sample,51392,0,"4-13.wav",20
Sample,52048,0,"2-12.wav",20
Sample,52048,0,"4-14.wav",20
Sample,53359,0,"2-14.wav",30
Sample,53523,0,"4-16.wav",30
Sample,54015,0,"4-18.wav",30
Sample,54179,0,"4-18.wav",30
Sample,54507,0,"4-11.wav",30
Sample,54670,0,"2-7.wav",20
Sample,54670,0,"3-7.wav",20
Sample,54670,0,"1-5.wav",20
Sample,55162,0,"2-7.wav",20
Sample,55162,0,"1-5.wav",20
Sample,55162,0,"3-7.wav",20
Sample,55982,0,"1-7.wav",20
Sample,55982,0,"3-9.wav",20
Sample,55982,0,"2-9.wav",20
Sample,56474,0,"1-7.wav",20
Sample,56474,0,"3-9.wav",20
Sample,56474,0,"2-9.wav",20
Sample,57293,0,"3-6.wav",20
Sample,57293,0,"2-6.wav",20
Sample,57293,0,"1-4.wav",20
Sample,57785,0,"1-4.wav",20
Sample,57785,0,"3-6.wav",20
Sample,58605,0,"3-13.wav",30
Sample,58605,0,"2-4.wav",20
Sample,58605,0,"4-6.wav",20
Sample,59261,0,"3-14.wav",30
Sample,59261,0,"3-6.wav",20
Sample,59261,0,"4-6.wav",20
Sample,59916,0,"1-5.wav",20
Sample,59916,0,"2-7.wav",20
Sample,59916,0,"3-7.wav",20
Sample,60408,0,"2-7.wav",20
Sample,60408,0,"3-7.wav",20
Sample,60408,0,"1-5.wav",20
Sample,61228,0,"3-9.wav",20
Sample,61228,0,"1-7.wav",20
Sample,61228,0,"2-9.wav",20
Sample,61228,0,"4-11.wav",30
Sample,61392,0,"bassdrum.wav",50
Sample,61720,0,"1-7.wav",20
Sample,61720,0,"2-9.wav",20
Sample,62539,0,"3-6.wav",20
Sample,62539,0,"2-4.wav",20
Sample,62621,0,"4-6.wav",20
Sample,63031,0,"4-6.wav",20
Sample,63031,0,"2-4.wav",20
Sample,63031,0,"3-6.wav",20
Sample,63851,0,"3-6.wav",20
Sample,63851,0,"4-6.wav",20
Sample,63851,0,"2-4.wav",20
Sample,64343,0,"4-6.wav",20
Sample,64343,0,"3-6.wav",20
Sample,64343,0,"2-4.wav",20
Sample,65162,0,"2-7.wav",20
Sample,65162,0,"1-5.wav",20
Sample,65654,0,"1-5.wav",20
Sample,65654,0,"3-7.wav",20
Sample,66474,0,"1-7.wav",20
Sample,66474,0,"3-9.wav",20
Sample,66474,0,"2-9.wav",20
Sample,66966,0,"1-7.wav",20
Sample,66966,0,"2-9.wav",20
Sample,66966,0,"3-9.wav",20
Sample,67785,0,"2-6.wav",20
Sample,67785,0,"1-4.wav",20
Sample,67785,0,"3-6.wav",20
Sample,68277,0,"3-6.wav",20
Sample,68277,0,"1-4.wav",20
Sample,69097,0,"4-6.wav",20
Sample,69097,0,"2-4.wav",20
Sample,69097,0,"3-6.wav",20
Sample,69588,0,"3-6.wav",20
Sample,69588,0,"4-6.wav",20
Sample,69588,0,"2-4.wav",20
Sample,70408,0,"3-7.wav",20
Sample,70408,0,"2-7.wav",20
Sample,70900,0,"3-7.wav",20
Sample,70900,0,"1-5.wav",20
Sample,70900,0,"2-7.wav",20
Sample,71720,0,"3-7.wav",20
Sample,71720,0,"2-7.wav",20
Sample,71720,0,"1-5.wav",20
Sample,72211,0,"1-5.wav",20
Sample,72211,0,"2-7.wav",20
Sample,72211,0,"3-7.wav",20
Sample,73031,0,"3-9.wav",20
Sample,73031,0,"2-9.wav",20
Sample,73031,0,"1-7.wav",20
Sample,73523,0,"1-7.wav",20
Sample,73523,0,"3-9.wav",20
Sample,73523,0,"2-9.wav",20
Sample,74343,0,"2-9.wav",20
Sample,74343,0,"3-9.wav",20
Sample,74343,0,"1-7.wav",20
Sample,74834,0,"1-7.wav",20
Sample,74834,0,"3-9.wav",20
Sample,74834,0,"2-9.wav",20
Sample,75244,0,"bassdrum.wav",50
Sample,75408,0,"tom01.wav",50
Sample,75572,0,"tom01.wav",50
Sample,75654,0,"2-4.wav",20
Sample,75654,0,"4-6.wav",20
Sample,75982,0,"4-6.wav",20
Sample,76146,0,"2-4.wav",20
Sample,76146,0,"4-6.wav",20
Sample,76638,0,"4-6.wav",20
Sample,76638,0,"2-4.wav",20
Sample,76966,0,"2-4.wav",20
Sample,76966,0,"3-6.wav",20
Sample,77457,0,"2-4.wav",20
Sample,77457,0,"4-6.wav",20
Sample,77457,0,"3-6.wav",20
Sample,77949,0,"2-4.wav",20
Sample,77949,0,"3-6.wav",20
Sample,78277,0,"2-7.wav",20
Sample,78277,0,"1-5.wav",20
Sample,78605,0,"2-7.wav",20
Sample,78769,0,"3-7.wav",20
Sample,78769,0,"1-5.wav",20
Sample,78769,0,"2-7.wav",20
Sample,79261,0,"1-5.wav",20
Sample,79588,0,"1-5.wav",20
Sample,80080,0,"1-5.wav",20
Sample,80080,0,"3-7.wav",20
Sample,80654,0,"3-7.wav",20
Sample,80900,0,"2-9.wav",20
Sample,80900,0,"3-9.wav",20
Sample,80900,0,"1-7.wav",20
Sample,81228,0,"1-7.wav",20
Sample,81228,0,"3-9.wav",20
Sample,81392,0,"2-9.wav",20
Sample,81392,0,"1-7.wav",20
Sample,81392,0,"3-9.wav",20
Sample,81884,0,"2-9.wav",20
Sample,81884,0,"1-7.wav",20
Sample,81884,0,"3-9.wav",20
Sample,82211,0,"1-7.wav",20
Sample,82211,0,"2-9.wav",20
Sample,82211,0,"3-9.wav",20
Sample,83523,0,"2-7.wav",20
Sample,83523,0,"1-5.wav",20
Sample,83523,0,"3-7.wav",20
Sample,84670,0,"1-7.wav",20
Sample,84670,0,"3-9.wav",20
Sample,84670,0,"2-9.wav",20
Sample,85326,0,"2-6.wav",20
Sample,85326,0,"1-4.wav",20
Sample,85326,0,"3-6.wav",20
Sample,85982,0,"3-6.wav",20
Sample,85982,0,"2-4.wav",20
Sample,85982,0,"4-6.wav",20

[TimingPoints]
-411,327.868852459016,4,2,2,50,1,0
54670,-100,4,2,2,50,0,1
83523,-100,4,2,2,50,0,0

[HitObjects]
109,192,2048,5,0,0:0:0:40:4-11.wav
402,192,2211,1,0,0:0:0:40:5-12.wav
36,192,2539,1,0,0:0:0:40:5-12.wav
329,192,2703,1,0,0:0:0:40:5-12.wav
475,192,3031,1,0,0:0:0:40:5-14.wav
329,192,3359,1,0,0:0:0:40:5-12.wav
182,192,3687,1,0,0:0:0:40:4-14.wav
109,192,4015,1,0,0:0:0:40:4-13.wav
256,192,4343,1,0,0:0:0:40:4-13.wav
402,192,4507,1,0,0:0:0:40:4-14.wav
329,192,4834,1,0,0:0:0:40:4-13.wav
182,192,5162,1,0,0:0:0:40:4-13.wav
475,192,5326,1,0,0:0:0:40:5-12.wav
109,192,5654,1,0,0:0:0:40:3-13.wav
402,192,5982,1,0,0:0:0:40:4-11.wav
329,192,6310,5,0,0:0:0:40:3-14.wav
36,192,6474,1,0,0:0:0:40:3-13.wav
182,192,6638,1,0,0:0:0:40:3-14.wav
109,192,7457,5,0,0:0:0:50:bassdrum.wav
329,192,7457,1,0,0:0:0:50:cymbol.wav
402,192,7457,1,0,0:0:0:40:4-13.wav
256,192,7949,1,0,0:0:0:40:3-11.wav
402,192,8441,1,0,0:0:0:40:4-13.wav
36,192,8769,1,0,0:0:0:50:bassdrum.wav
256,192,8769,1,0,0:0:0:50:cymbol.wav
329,192,8769,1,0,0:0:0:40:4-11.wav
109,192,9261,1,0,0:0:0:50:tom.wav
256,192,9261,1,0,0:0:0:40:3-9.wav
182,192,9588,1,0,0:0:0:50:bassdrum.wav
256,192,9752,1,0,0:0:0:50:tom.wav
402,192,9752,1,0,0:0:0:40:4-11.wav
182,192,10080,1,0,0:0:0:50:bassdrum.wav
329,192,10080,1,0,0:0:0:50:cymbol.wav
475,192,10080,1,0,0:0:0:40:4-11.wav
256,192,10408,1,0,0:0:0:50:bassdrum.wav
256,192,10736,1,0,0:0:0:50:bassdrum.wav
36,192,10900,1,0,0:0:0:50:snare.wav
475,192,10900,1,0,0:0:0:40:4-9.wav
36,192,11064,1,0,0:0:0:50:snare.wav
475,192,11064,1,0,0:0:0:40:4-11.wav
182,192,11228,1,0,0:0:0:50:snare.wav
329,192,11228,1,0,0:0:0:40:4-13.wav
182,192,11392,1,0,0:0:0:50:snare.wav
329,192,11392,1,0,0:0:0:50:cymbol.wav
256,192,11556,1,0,0:0:0:50:snare.wav
36,192,11720,1,0,0:0:0:50:snare.wav
475,192,11720,1,0,0:0:0:50:cymbol.wav
256,192,12048,1,0,0:0:0:50:bassdrum.wav
329,192,12211,1,0,0:0:0:50:snare.wav
182,192,12293,1,0,0:0:0:50:snare.wav
329,192,12375,1,0,0:0:0:50:snare.wav
182,192,12457,1,0,0:0:0:50:snare.wav
329,192,12539,1,0,0:0:0:50:snare.wav
256,192,12621,1,0,0:0:0:50:snare.wav
109,192,12703,1,0,0:0:0:50:cymbol.wav
475,192,12703,128,0,13687:0:0:0:40:5-12.wav
402,192,12703,1,0,0:0:0:20:3-7.wav
36,192,12867,1,0,0:0:0:50:bassdrum.wav
256,192,13031,1,0,0:0:0:50:snare.wav
109,192,13359,1,0,0:0:0:50:bassdrum.wav
182,192,13523,1,0,0:0:0:50:bassdrum.wav
256,192,13687,1,0,0:0:0:50:snare.wav
402,192,13687,1,0,0:0:0:40:6-12.wav
182,192,14015,1,0,0:0:0:50:bassdrum.wav
402,192,14015,128,0,14507:0:0:0:40:6-11.wav
256,192,14179,1,0,0:0:0:50:bassdrum.wav
329,192,14343,1,0,0:0:0:50:snare.wav
36,192,14343,1,0,0:0:0:20:2-9.wav
109,192,14507,128,0,14998:0:0:0:40:5-12.wav
36,192,14670,1,0,0:0:0:50:bassdrum.wav
256,192,14834,1,0,0:0:0:50:bassdrum.wav
329,192,14998,1,0,0:0:0:50:snare.wav
475,192,14998,1,0,0:0:0:40:5-10.wav
182,192,15326,1,0,0:0:0:50:bassdrum.wav
329,192,15326,128,0,15982:0:0:0:40:4-13.wav
36,192,15490,1,0,0:0:0:50:bassdrum.wav
402,192,15654,1,0,0:0:0:50:snare.wav
182,192,15982,1,0,0:0:0:50:bassdrum.wav
475,192,15982,128,0,16638:0:0:0:40:5-12.wav
36,192,16146,1,0,0:0:0:50:bassdrum.wav
256,192,16310,1,0,0:0:0:50:snare.wav
109,192,16638,1,0,0:0:0:50:bassdrum.wav
402,192,16638,128,0,17293:0:0:0:40:4-11.wav
182,192,16802,1,0,0:0:0:50:bassdrum.wav
329,192,16966,1,0,0:0:0:50:snare.wav
36,192,17293,1,0,0:0:0:50:bassdrum.wav
256,192,17293,1,0,0:0:0:40:4-9.wav
109,192,17457,1,0,0:0:0:50:bassdrum.wav
329,192,17457,1,0,0:0:0:40:4-11.wav
182,192,17621,1,0,0:0:0:50:snare.wav
402,192,17621,1,0,0:0:0:40:4-13.wav
36,192,17949,1,0,0:0:0:50:bassdrum.wav
109,192,17949,1,0,0:0:0:50:cymbol.wav
329,192,17949,1,0,0:0:0:40:4-11.wav
182,192,18113,1,0,0:0:0:50:bassdrum.wav
475,192,18113,1,0,0:0:0:10:kuhaku.wav
329,192,18277,1,0,0:0:0:50:snare.wav
36,192,18277,1,0,0:0:0:20:3-7.wav
182,192,18441,1,0,0:0:0:50:bassdrum.wav
475,192,18441,1,0,0:0:0:40:4-9.wav
329,192,18605,1,0,0:0:0:50:snare.wav
36,192,18605,1,0,0:0:0:10:kuhaku.wav
182,192,18769,1,0,0:0:0:50:bassdrum.wav
329,192,18933,1,0,0:0:0:50:snare.wav
36,192,18933,1,0,0:0:0:40:3-13.wav
109,192,19097,1,0,0:0:0:50:bassdrum.wav
402,192,19261,1,0,0:0:0:50:snare.wav
182,192,19261,1,0,0:0:0:40:3-11.wav
109,192,19425,1,0,0:0:0:50:bassdrum.wav
329,192,19588,1,0,0:0:0:50:snare.wav
36,192,19588,1,0,0:0:0:70:bassdrum.wav
182,192,19752,1,0,0:0:0:40:5-7.wav
256,192,19834,1,0,0:0:0:50:bassdrum.wav
329,192,19916,1,0,0:0:0:50:bassdrum.wav
36,192,19916,1,0,0:0:0:10:kuhaku.wav
109,192,20080,1,0,0:0:0:50:bassdrum.wav
182,192,20244,1,0,0:0:0:50:tom.wav
402,192,20244,1,0,0:0:0:40:5-8.wav
109,192,20408,1,0,0:0:0:50:tom.wav
475,192,20572,1,0,0:0:0:50:bassdrum.wav
36,192,20572,1,0,0:0:0:50:cymbol.wav
329,192,20572,128,0,21064:0:0:0:40:5-9.wav
109,192,21064,1,0,0:0:0:10:kuhaku.wav
256,192,21228,1,0,0:0:0:40:5-12.wav
182,192,21720,1,0,0:0:0:10:kuhaku.wav
329,192,21884,1,0,0:0:0:40:5-14.wav
256,192,22375,1,0,0:0:0:40:5-14.wav
36,192,22539,1,0,0:0:0:50:bassdrum.wav
475,192,22539,1,0,0:0:0:40:5-14.wav
36,192,22703,1,0,0:0:0:50:bassdrum.wav
475,192,22703,1,0,0:0:0:40:5-14.wav
109,192,23195,1,0,0:0:0:50:bassdrum.wav
256,192,23195,1,0,0:0:0:50:cymbol.wav
402,192,23195,1,0,0:0:0:40:3-14.wav
256,192,24507,1,0,0:0:0:40:3-14.wav
36,192,24834,1,0,0:0:0:40:3-13.wav
182,192,24998,1,0,0:0:0:40:3-14.wav
329,192,25326,1,0,0:0:0:40:4-11.wav
475,192,25654,128,0,26474:0:0:0:40:4-13.wav
109,192,26802,1,0,0:0:0:40:2-14.wav
402,192,27129,1,0,0:0:0:40:3-13.wav
256,192,27621,1,0,0:0:0:40:3-14.wav
36,192,27949,128,0,28113:0:0:0:70:bassdrum.wav
475,192,27949,128,0,28113:0:0:0:70:bassdrum.wav
182,192,28113,128,0,28277:0:0:0:70:bassdrum.wav
329,192,28113,128,0,28277:0:0:0:70:bassdrum.wav
36,192,28277,1,0,0:0:0:70:bassdrum.wav
475,192,28277,1,0,0:0:0:70:bassdrum.wav
109,192,28441,1,0,0:0:0:50:bassdrum.wav
256,192,28441,1,0,0:0:0:50:cymbol.wav
402,192,28441,128,0,31064:0:0:0:40:3-14.wav
182,192,28605,1,0,0:0:0:40:3-13.wav
36,192,28769,1,0,0:0:0:50:snare.wav
109,192,28769,1,0,0:0:0:50:cymbol.wav
329,192,28933,1,0,0:0:0:40:3-14.wav
475,192,29097,1,0,0:0:0:50:bassdrum.wav
36,192,29261,1,0,0:0:0:50:bassdrum.wav
182,192,29425,1,0,0:0:0:50:snare.wav
329,192,29425,1,0,0:0:0:20:3-7.wav
36,192,29588,1,0,0:0:0:50:bassdrum.wav
256,192,29752,1,0,0:0:0:40:3-14.wav
475,192,29916,1,0,0:0:0:50:bassdrum.wav
329,192,30080,1,0,0:0:0:50:snare.wav
109,192,30080,1,0,0:0:0:8:snare.wav
182,192,30244,1,0,0:0:0:40:3-13.wav
36,192,30408,1,0,0:0:0:50:bassdrum.wav
109,192,30572,1,0,0:0:0:50:bassdrum.wav
475,192,30736,1,0,0:0:0:50:snare.wav
182,192,30736,1,0,0:0:0:40:3-14.wav
36,192,31064,1,0,0:0:0:50:bassdrum.wav
109,192,31064,1,0,0:0:0:50:cymbol.wav
329,192,31064,128,0,32048:0:0:0:40:4-13.wav
256,192,31392,1,0,0:0:0:50:snare.wav
182,192,31392,1,0,0:0:0:8:snare.wav
475,192,31556,1,0,0:0:0:40:4-14.wav
182,192,31720,1,0,0:0:0:50:bassdrum.wav
109,192,31884,1,0,0:0:0:50:bassdrum.wav
36,192,32048,1,0,0:0:0:50:snare.wav
402,192,32048,1,0,0:0:0:40:4-13.wav
109,192,32211,1,0,0:0:0:50:bassdrum.wav
475,192,32211,1,0,0:0:0:40:4-11.wav
182,192,32539,1,0,0:0:0:50:bassdrum.wav
402,192,32703,1,0,0:0:0:10:snare.wav
256,192,32703,1,0,0:0:0:50:snare.wav
182,192,33031,1,0,0:0:0:50:bassdrum.wav
329,192,33195,1,0,0:0:0:50:snare.wav
109,192,33277,1,0,0:0:0:10:kuhaku.wav
256,192,33359,1,0,3:0:0:70:bassdrum.wav
402,192,33482,1,0,0:0:0:50:tom.wav
182,192,33564,1,0,0:0:0:40:tom01.wav
36,192,33687,1,0,0:0:0:50:bassdrum.wav
256,192,33687,1,0,0:0:0:50:cymbol.wav
475,192,33687,1,0,0:0:0:40:3-14.wav
402,192,34015,1,0,0:0:0:50:bassdrum.wav
402,192,34343,1,0,0:0:0:50:bassdrum.wav
402,192,34670,1,0,0:0:0:50:bassdrum.wav
402,192,34998,1,0,0:0:0:50:bassdrum.wav
109,192,34998,1,0,0:0:0:40:3-14.wav
109,192,35326,1,0,0:0:0:50:bassdrum.wav
402,192,35326,1,0,0:0:0:40:3-13.wav
182,192,35490,1,0,0:0:0:40:3-14.wav
109,192,35654,1,0,0:0:0:50:bassdrum.wav
329,192,35818,1,0,0:0:0:40:4-11.wav
109,192,35982,1,0,0:0:0:50:bassdrum.wav
475,192,36146,1,0,0:0:0:40:4-13.wav
36,192,36310,1,0,0:0:0:50:bassdrum.wav
36,192,36638,1,0,0:0:0:50:bassdrum.wav
36,192,36966,1,0,0:0:0:50:bassdrum.wav
36,192,37293,1,0,0:0:0:50:bassdrum.wav
182,192,37293,1,0,0:0:0:40:2-14.wav
109,192,37621,1,0,0:0:0:50:bassdrum.wav
256,192,37621,1,0,0:0:0:40:3-13.wav
109,192,37949,1,0,0:0:0:50:bassdrum.wav
402,192,38113,1,0,0:0:0:40:3-14.wav
182,192,38277,128,0,38441:0:0:0:50:snare.wav
329,192,38277,128,0,38441:0:0:0:10:kuhaku.wav
256,192,38441,1,0,0:0:0:50:bassdrum.wav
182,192,38605,128,0,38933:0:0:0:50:snare.wav
329,192,38605,128,0,38933:0:0:0:10:kuhaku.wav
109,192,38933,1,0,0:0:0:50:bassdrum.wav
402,192,38933,1,0,0:0:0:50:cymbol.wav
475,192,38933,128,0,41556:0:0:0:40:3-14.wav
256,192,39097,1,0,0:0:0:40:3-13.wav
36,192,39261,1,0,0:0:0:50:snare.wav
109,192,39261,1,0,0:0:0:50:cymbol.wav
329,192,39425,1,0,0:0:0:40:3-14.wav
109,192,39588,1,0,0:0:0:50:bassdrum.wav
109,192,39752,1,0,0:0:0:50:bassdrum.wav
402,192,39916,1,0,0:0:0:50:snare.wav
256,192,39916,1,0,0:0:0:20:3-7.wav
109,192,40080,1,0,0:0:0:50:bassdrum.wav
256,192,40244,1,0,0:0:0:40:3-14.wav
109,192,40408,1,0,0:0:0:50:bassdrum.wav
402,192,40572,1,0,0:0:0:50:snare.wav
182,192,40572,1,0,0:0:0:8:snare.wav
256,192,40736,1,0,0:0:0:40:3-13.wav
109,192,40900,1,0,0:0:0:50:bassdrum.wav
109,192,41064,1,0,0:0:0:50:bassdrum.wav
402,192,41228,1,0,0:0:0:50:snare.wav
36,192,41228,1,0,0:0:0:40:3-14.wav
109,192,41556,1,0,0:0:0:50:cymbol.wav
329,192,41556,128,0,42539:0:0:0:40:4-13.wav
256,192,41884,1,0,0:0:0:50:snare.wav
36,192,41884,1,0,0:0:0:8:snare.wav
475,192,42048,1,0,0:0:0:40:4-11.wav
182,192,42211,1,0,0:0:0:50:bassdrum.wav
36,192,42375,1,0,0:0:0:50:bassdrum.wav
109,192,42539,1,0,0:0:0:50:snare.wav
402,192,42539,1,0,0:0:0:40:5-12.wav
182,192,42703,1,0,0:0:0:50:bassdrum.wav
475,192,42703,1,0,0:0:0:40:4-13.wav
109,192,43031,1,0,0:0:0:50:bassdrum.wav
36,192,43195,1,0,0:0:0:50:snare.wav
402,192,43195,1,0,0:0:0:8:snare.wav
256,192,43523,1,0,0:0:0:50:bassdrum.wav
109,192,43687,1,0,0:0:0:50:snare.wav
402,192,43769,1,0,0:0:0:50:snare.wav
109,192,43851,1,0,0:0:0:50:snare.wav
402,192,43933,1,0,0:0:0:50:snare.wav
182,192,44015,1,0,0:0:0:50:tom.wav
329,192,44097,1,0,0:0:0:40:tom01.wav
475,192,44179,1,0,0:0:0:50:bassdrum.wav
256,192,44179,1,0,0:0:0:50:cymbol.wav
36,192,44179,1,0,0:0:0:20:4-9.wav
182,192,44343,1,0,0:0:0:40:3-9.wav
36,192,44507,1,0,0:0:0:50:bassdrum.wav
256,192,44507,1,0,0:0:0:40:3-11.wav
182,192,44670,1,0,0:0:0:40:3-11.wav
109,192,44834,1,0,0:0:0:50:bassdrum.wav
329,192,44834,1,0,0:0:0:40:3-11.wav
182,192,44998,1,0,0:0:0:10:kuhaku.wav
36,192,45162,1,0,0:0:0:50:bassdrum.wav
256,192,45162,1,0,0:0:0:40:3-9.wav
182,192,45326,1,0,0:0:0:50:bassdrum.wav
402,192,45326,1,0,0:0:0:40:3-11.wav
109,192,45490,1,0,0:0:0:50:bassdrum.wav
329,192,45490,1,0,0:0:0:10:kuhaku.wav
36,192,45654,1,0,0:0:0:50:bassdrum.wav
256,192,45654,1,0,0:0:0:40:3-11.wav
109,192,45818,1,0,0:0:0:50:bassdrum.wav
329,192,45818,1,0,0:0:0:40:3-11.wav
182,192,45982,1,0,0:0:0:50:bassdrum.wav
402,192,45982,1,0,0:0:0:40:3-9.wav
36,192,46146,1,0,0:0:0:50:snare.wav
256,192,46146,1,0,0:0:0:50:cymbol.wav
475,192,46146,1,0,0:0:0:40:3-14.wav
109,192,46474,1,0,0:0:0:50:snare.wav
256,192,46474,1,0,0:0:0:50:cymbol.wav
402,192,46474,1,0,0:0:0:40:3-14.wav
36,192,46802,1,0,0:0:0:50:bassdrum.wav
109,192,46966,1,0,0:0:0:40:3-9.wav
182,192,47129,1,0,0:0:0:50:bassdrum.wav
329,192,47129,1,0,0:0:0:40:3-11.wav
256,192,47293,1,0,0:0:0:40:3-11.wav
36,192,47457,1,0,0:0:0:50:bassdrum.wav
182,192,47457,1,0,0:0:0:40:3-11.wav
256,192,47621,1,0,0:0:0:50:bassdrum.wav
109,192,47621,1,0,0:0:0:10:kuhaku.wav
475,192,47785,1,0,0:0:0:50:bassdrum.wav
329,192,47785,1,0,0:0:0:40:3-9.wav
109,192,47949,1,0,0:0:0:50:bassdrum.wav
256,192,47949,1,0,0:0:0:40:3-11.wav
36,192,48113,1,0,0:0:0:50:bassdrum.wav
182,192,48113,1,0,0:0:0:10:kuhaku.wav
109,192,48277,1,0,0:0:0:50:bassdrum.wav
256,192,48277,1,0,0:0:0:40:3-11.wav
475,192,48441,1,0,0:0:0:50:bassdrum.wav
182,192,48441,1,0,0:0:0:50:cymbol.wav
329,192,48441,1,0,0:0:0:40:3-11.wav
256,192,48605,1,0,0:0:0:40:3-9.wav
402,192,48769,1,0,0:0:0:50:bassdrum.wav
36,192,48769,1,0,0:0:0:50:cymbol.wav
182,192,48769,1,0,0:0:0:40:3-14.wav
329,192,48933,1,0,0:0:0:50:snare.wav
475,192,49015,1,0,0:0:0:50:snare.wav
256,192,49097,1,0,0:0:0:50:bassdrum.wav
109,192,49097,1,0,0:0:0:40:3-14.wav
402,192,49179,1,0,0:0:0:50:snare.wav
182,192,49261,1,0,0:0:0:50:tom.wav
329,192,49343,1,0,0:0:0:40:tom01.wav
256,192,49425,1,0,0:0:0:50:bassdrum.wav
475,192,49425,1,0,0:0:0:50:cymbol.wav
36,192,49425,1,0,0:0:0:20:2-11.wav
182,192,49588,1,0,0:0:0:40:4-9.wav
475,192,49752,1,0,0:0:0:50:snare.wav
329,192,49752,1,0,0:0:0:40:4-11.wav
256,192,49916,1,0,0:0:0:40:4-11.wav
36,192,50080,1,0,0:0:0:50:bassdrum.wav
182,192,50080,1,0,0:0:0:40:4-11.wav
256,192,50244,1,0,0:0:0:50:bassdrum.wav
475,192,50408,1,0,0:0:0:50:snare.wav
329,192,50408,1,0,0:0:0:40:4-9.wav
182,192,50572,1,0,0:0:0:40:4-11.wav
36,192,50736,1,0,0:0:0:50:bassdrum.wav
109,192,50900,1,0,0:0:0:50:bassdrum.wav
256,192,50900,1,0,0:0:0:40:4-9.wav
182,192,51064,1,0,0:0:0:50:snare.wav
329,192,51064,1,0,0:0:0:40:4-11.wav
402,192,51228,1,0,0:0:0:40:4-9.wav
256,192,51392,1,0,0:0:0:50:bassdrum.wav
475,192,51392,1,0,0:0:0:40:4-13.wav
109,192,51556,1,0,0:0:0:50:bassdrum.wav
329,192,51556,1,0,0:0:0:40:4-14.wav
182,192,51720,1,0,0:0:0:50:snare.wav
402,192,51720,1,0,0:0:0:40:4-13.wav
256,192,51884,1,0,0:0:0:40:4-11.wav
36,192,52048,1,0,0:0:0:50:bassdrum.wav
182,192,52048,1,0,0:0:0:50:cymbol.wav
475,192,52048,128,0,52703:0:0:0:30:4-11.wav
109,192,52703,1,0,0:0:0:50:snare.wav
402,192,52867,1,0,0:0:0:50:snare.wav
182,192,52949,1,0,0:0:0:50:snare.wav
475,192,53031,1,0,0:0:0:50:snare.wav
256,192,53113,1,0,0:0:0:50:snare.wav
182,192,53359,1,0,0:0:0:50:bassdrum.wav
36,192,53359,1,0,0:0:0:30:4-16.wav
182,192,53523,1,0,0:0:0:50:bassdrum.wav
36,192,53523,1,0,0:0:0:30:2-14.wav
329,192,54015,1,0,0:0:0:50:bassdrum.wav
475,192,54015,1,0,0:0:0:30:2-16.wav
329,192,54179,1,0,0:0:0:50:bassdrum.wav
475,192,54179,1,0,0:0:0:30:2-16.wav
329,192,54507,1,0,0:0:0:40:4-11.wav
36,192,54670,1,0,0:0:0:50:bassdrum.wav
109,192,54670,1,0,0:0:0:50:cymbol.wav
402,192,54670,1,0,0:0:0:40:5-12.wav
182,192,54998,1,0,0:0:0:50:snare.wav
402,192,54998,1,0,0:0:0:40:5-12.wav
109,192,55162,1,0,0:0:0:40:5-12.wav
36,192,55326,1,0,0:0:0:50:bassdrum.wav
109,192,55490,1,0,0:0:0:50:bassdrum.wav
329,192,55490,1,0,0:0:0:40:5-14.wav
182,192,55654,1,0,0:0:0:50:snare.wav
256,192,55818,1,0,0:0:0:50:bassdrum.wav
475,192,55818,1,0,0:0:0:40:5-12.wav
109,192,56146,1,0,0:0:0:50:bassdrum.wav
329,192,56146,1,0,0:0:0:40:4-14.wav
256,192,56310,1,0,0:0:0:50:snare.wav
182,192,56474,1,0,0:0:0:50:bassdrum.wav
402,192,56474,1,0,0:0:0:40:4-13.wav
36,192,56802,1,0,0:0:0:50:bassdrum.wav
256,192,56802,1,0,0:0:0:40:4-13.wav
109,192,56966,1,0,0:0:0:50:snare.wav
329,192,56966,1,0,0:0:0:40:4-14.wav
36,192,57293,1,0,0:0:0:50:bassdrum.wav
475,192,57293,1,0,0:0:0:40:4-13.wav
182,192,57621,1,0,0:0:0:50:snare.wav
329,192,57621,1,0,0:0:0:40:4-13.wav
402,192,57785,1,0,0:0:0:40:5-12.wav
256,192,57785,1,0,0:0:0:20:2-6.wav
36,192,57949,1,0,0:0:0:50:bassdrum.wav
109,192,58113,1,0,0:0:0:50:bassdrum.wav
329,192,58113,1,0,0:0:0:40:3-13.wav
182,192,58277,1,0,0:0:0:50:snare.wav
36,192,58441,1,0,0:0:0:50:bassdrum.wav
256,192,58441,1,0,0:0:0:40:4-11.wav
329,192,58769,1,0,0:0:0:50:bassdrum.wav
475,192,58769,1,0,0:0:0:40:3-14.wav
36,192,58933,1,0,0:0:0:50:snare.wav
182,192,58933,1,0,0:0:0:40:3-13.wav
475,192,59097,1,0,0:0:0:50:bassdrum.wav
329,192,59097,1,0,0:0:0:40:3-14.wav
109,192,59425,1,0,0:0:0:50:bassdrum.wav
402,192,59588,1,0,0:0:0:50:snare.wav
256,192,59588,1,0,0:0:0:8:snare.wav
36,192,59916,1,0,0:0:0:50:bassdrum.wav
109,192,59916,1,0,0:0:0:50:cymbol.wav
329,192,59916,128,0,61228:0:0:0:40:4-13.wav
182,192,60244,1,0,0:0:0:50:snare.wav
475,192,60244,1,0,0:0:0:8:snare.wav
402,192,60408,1,0,0:0:0:40:3-11.wav
36,192,60572,1,0,0:0:0:50:bassdrum.wav
256,192,60736,1,0,0:0:0:50:bassdrum.wav
475,192,60900,1,0,0:0:0:50:snare.wav
182,192,60900,1,0,0:0:0:40:4-13.wav
36,192,61228,1,0,0:0:0:50:bassdrum.wav
402,192,61228,128,0,62539:0:0:0:40:4-11.wav
182,192,61392,1,0,0:0:0:50:bassdrum.wav
109,192,61556,1,0,0:0:0:50:snare.wav
256,192,61556,1,0,0:0:0:50:snare.wav
36,192,61720,1,0,0:0:0:50:bassdrum.wav
182,192,61720,1,0,0:0:0:40:3-9.wav
475,192,62048,1,0,0:0:0:50:bassdrum.wav
109,192,62211,1,0,0:0:0:50:snare.wav
256,192,62211,1,0,0:0:0:40:4-11.wav
109,192,62539,1,0,0:0:0:50:bassdrum.wav
475,192,62539,128,0,63359:0:0:0:40:4-11.wav
256,192,62703,1,0,0:0:0:50:bassdrum.wav
36,192,62867,1,0,0:0:0:50:snare.wav
182,192,63031,1,0,0:0:0:50:bassdrum.wav
329,192,63195,1,0,0:0:0:50:snare.wav
109,192,63359,1,0,0:0:0:50:bassdrum.wav
256,192,63359,1,0,0:0:0:40:4-9.wav
182,192,63523,1,0,0:0:0:50:snare.wav
329,192,63523,1,0,0:0:0:40:4-11.wav
402,192,63687,1,0,0:0:0:40:4-13.wav
109,192,63851,1,0,0:0:0:50:bassdrum.wav
109,192,64015,1,0,0:0:0:50:bassdrum.wav
402,192,64179,1,0,0:0:0:50:snare.wav
256,192,64507,1,0,0:0:0:50:bassdrum.wav
109,192,64670,1,0,0:0:0:50:tom.wav
402,192,64834,1,0,0:0:0:40:tom01.wav
36,192,64998,1,0,0:0:0:50:tom.wav
475,192,64998,1,0,0:0:0:40:4-11.wav
109,192,65080,1,0,0:0:0:40:tom01.wav
329,192,65162,1,0,0:0:0:40:5-12.wav
182,192,65162,1,0,0:0:0:50:bassdrum.wav
256,192,65162,1,0,0:0:0:50:cymbol.wav
475,192,65490,1,0,0:0:0:40:5-12.wav
182,192,65490,1,0,0:0:0:50:snare.wav
402,192,65490,1,0,0:0:0:50:cymbol.wav
329,192,65654,1,0,0:0:0:40:5-12.wav
36,192,65818,1,0,0:0:0:50:bassdrum.wav
256,192,65982,1,0,0:0:0:40:5-14.wav
109,192,65982,1,0,0:0:0:50:bassdrum.wav
329,192,66146,1,0,0:0:0:50:snare.wav
182,192,66146,1,0,0:0:0:8:snare.wav
402,192,66310,1,0,0:0:0:40:5-12.wav
256,192,66310,1,0,0:0:0:50:bassdrum.wav
475,192,66638,1,0,0:0:0:40:4-14.wav
36,192,66638,1,0,0:0:0:50:bassdrum.wav
256,192,66802,1,0,0:0:0:50:snare.wav
329,192,66966,1,0,0:0:0:40:4-13.wav
182,192,66966,1,0,0:0:0:50:bassdrum.wav
182,192,67293,1,0,0:0:0:50:bassdrum.wav
329,192,67293,1,0,0:0:0:40:4-13.wav
109,192,67457,1,0,0:0:0:50:snare.wav
402,192,67457,1,0,0:0:0:40:4-14.wav
36,192,67785,1,0,0:0:0:50:bassdrum.wav
475,192,67785,1,0,0:0:0:40:5-12.wav
109,192,68113,1,0,0:0:0:50:snare.wav
256,192,68113,1,0,0:0:0:40:5-12.wav
329,192,68277,1,0,0:0:0:40:5-12.wav
182,192,68441,1,0,0:0:0:50:bassdrum.wav
256,192,68605,1,0,0:0:0:50:bassdrum.wav
402,192,68605,1,0,0:0:0:40:4-13.wav
36,192,68769,1,0,0:0:0:50:snare.wav
329,192,68933,1,0,0:0:0:50:bassdrum.wav
475,192,68933,1,0,0:0:0:40:6-14.wav
109,192,69261,1,0,0:0:0:50:bassdrum.wav
256,192,69261,1,0,0:0:0:40:6-12.wav
182,192,69425,1,0,0:0:0:50:snare.wav
329,192,69425,1,0,0:0:0:40:6-11.wav
36,192,69588,1,0,0:0:0:50:bassdrum.wav
475,192,69588,1,0,0:0:0:40:6-12.wav
109,192,69916,1,0,0:0:0:50:bassdrum.wav
402,192,70080,1,0,0:0:0:50:snare.wav
256,192,70080,1,0,0:0:0:8:snare.wav
182,192,70408,1,0,0:0:0:50:bassdrum.wav
402,192,70408,1,0,0:0:0:50:cymbol.wav
36,192,70408,1,0,0:0:0:20:1-5.wav
256,192,70572,1,0,0:0:0:40:3-11.wav
475,192,70736,1,0,0:0:0:50:snare.wav
329,192,70736,1,0,0:0:0:40:4-11.wav
256,192,70900,1,0,0:0:0:40:4-11.wav
36,192,71064,1,0,0:0:0:50:bassdrum.wav
182,192,71064,1,0,0:0:0:40:4-11.wav
256,192,71228,1,0,0:0:0:50:bassdrum.wav
475,192,71392,1,0,0:0:0:50:snare.wav
329,192,71392,1,0,0:0:0:40:4-11.wav
256,192,71556,1,0,0:0:0:40:4-13.wav
109,192,71720,1,0,0:0:0:50:bassdrum.wav
182,192,71884,1,0,0:0:0:50:bassdrum.wav
329,192,71884,1,0,0:0:0:40:4-14.wav
402,192,72048,1,0,0:0:0:50:snare.wav
109,192,72048,1,0,0:0:0:8:snare.wav
329,192,72211,1,0,0:0:0:40:4-13.wav
182,192,72375,1,0,0:0:0:50:bassdrum.wav
36,192,72539,1,0,0:0:0:50:bassdrum.wav
256,192,72539,1,0,0:0:0:40:4-13.wav
475,192,72703,1,0,0:0:0:50:snare.wav
329,192,72703,1,0,0:0:0:40:4-13.wav
182,192,72867,1,0,0:0:0:40:4-13.wav
36,192,73031,1,0,0:0:0:50:bassdrum.wav
329,192,73031,128,0,74343:0:0:0:40:4-11.wav
256,192,73195,1,0,0:0:0:50:bassdrum.wav
109,192,73359,1,0,0:0:0:50:snare.wav
182,192,73359,1,0,0:0:0:8:snare.wav
475,192,73687,1,0,0:0:0:50:snare.wav
256,192,73687,1,0,0:0:0:8:snare.wav
182,192,73851,1,0,0:0:0:50:bassdrum.wav
36,192,74015,1,0,0:0:0:50:snare.wav
256,192,74015,1,0,0:0:0:8:snare.wav
109,192,74179,1,0,0:0:0:50:bassdrum.wav
402,192,74179,1,0,0:0:0:40:3-9.wav
36,192,74343,1,0,0:0:0:50:snare.wav
475,192,74343,1,0,0:0:0:40:4-11.wav
256,192,74507,1,0,0:0:0:50:bassdrum.wav
36,192,74670,1,0,0:0:0:50:snare.wav
402,192,74670,1,0,0:0:0:40:4-11.wav
182,192,74834,1,0,0:0:0:40:4-11.wav
329,192,74998,1,0,0:0:0:50:bassdrum.wav
475,192,75162,1,0,0:0:0:40:4-9.wav
182,192,75244,1,0,0:0:0:50:snare.wav
402,192,75326,1,0,0:0:0:40:4-8.wav
109,192,75408,1,0,0:0:0:50:tom.wav
329,192,75490,1,0,0:0:0:40:4-9.wav
36,192,75572,1,0,0:0:0:50:tom.wav
402,192,75654,1,0,0:0:0:50:bassdrum.wav
256,192,75654,1,0,0:0:0:50:cymbol.wav
475,192,75654,1,0,0:0:0:40:3-6.wav
182,192,75818,1,0,0:0:0:40:3-4.wav
475,192,75982,1,0,0:0:0:50:snare.wav
256,192,75982,1,0,0:0:0:40:3-6.wav
182,192,76146,1,0,0:0:0:40:4-4.wav
109,192,76310,1,0,0:0:0:50:bassdrum.wav
329,192,76310,1,0,0:0:0:40:4-6.wav
36,192,76474,1,0,0:0:0:50:bassdrum.wav
256,192,76474,1,0,0:0:0:40:4-4.wav
475,192,76638,1,0,0:0:0:50:snare.wav
329,192,76638,1,0,0:0:0:40:3-6.wav
256,192,76802,1,0,0:0:0:40:4-4.wav
36,192,76966,1,0,0:0:0:50:bassdrum.wav
182,192,76966,1,0,0:0:0:40:4-6.wav
109,192,77129,1,0,0:0:0:50:bassdrum.wav
256,192,77129,1,0,0:0:0:40:4-4.wav
182,192,77293,1,0,0:0:0:50:snare.wav
329,192,77293,1,0,0:0:0:40:4-6.wav
402,192,77457,1,0,0:0:0:40:5-4.wav
256,192,77621,1,0,0:0:0:50:bassdrum.wav
475,192,77621,1,0,0:0:0:40:5-5.wav
182,192,77785,1,0,0:0:0:50:bassdrum.wav
402,192,77785,1,0,0:0:0:40:5-4.wav
109,192,77949,1,0,0:0:0:50:snare.wav
329,192,77949,1,0,0:0:0:40:5-4.wav
402,192,78277,1,0,0:0:0:40:4-6.wav
36,192,78277,1,0,0:0:0:50:bassdrum.wav
256,192,78277,1,0,0:0:0:50:cymbol.wav
109,192,78441,1,0,0:0:0:40:3-11.wav
182,192,78605,1,0,0:0:0:50:snare.wav
329,192,78605,1,0,0:0:0:40:4-11.wav
402,192,78769,1,0,0:0:0:40:4-11.wav
36,192,78933,1,0,0:0:0:50:snare.wav
475,192,78933,1,0,0:0:0:40:4-11.wav
109,192,79097,1,0,0:0:0:50:bassdrum.wav
182,192,79261,1,0,0:0:0:50:snare.wav
329,192,79261,1,0,0:0:0:40:4-11.wav
109,192,79425,1,0,0:0:0:50:bassdrum.wav
402,192,79425,1,0,0:0:0:40:4-13.wav
475,192,79588,1,0,0:0:0:50:snare.wav
36,192,79588,1,0,0:0:0:20:3-7.wav
182,192,79752,1,0,0:0:0:50:bassdrum.wav
329,192,79752,1,0,0:0:0:40:4-14.wav
109,192,79916,1,0,0:0:0:50:snare.wav
475,192,79916,1,0,0:0:0:8:snare.wav
36,192,80080,1,0,0:0:0:50:bassdrum.wav
182,192,80080,1,0,0:0:0:40:4-13.wav
256,192,80244,1,0,0:0:0:50:snare.wav
402,192,80244,1,0,0:0:0:8:snare.wav
182,192,80408,1,0,0:0:0:50:bassdrum.wav
329,192,80408,1,0,0:0:0:40:4-13.wav
109,192,80572,1,0,0:0:0:50:snare.wav
402,192,80572,1,0,0:0:0:40:4-13.wav
256,192,80736,1,0,0:0:0:40:4-11.wav
36,192,80900,1,0,0:0:0:50:bassdrum.wav
329,192,80900,1,0,0:0:0:50:cymbol.wav
402,192,80900,128,0,82211:0:0:0:40:4-11.wav
109,192,81064,1,0,0:0:0:10:kuhaku.wav
182,192,81228,1,0,0:0:0:50:bassdrum.wav
109,192,81392,1,0,0:0:0:50:bassdrum.wav
36,192,81556,1,0,0:0:0:50:snare.wav
475,192,81720,1,0,0:0:0:50:snare.wav
329,192,81884,1,0,0:0:0:50:bassdrum.wav
36,192,82048,1,0,0:0:0:50:snare.wav
182,192,82048,1,0,0:0:0:40:3-9.wav
109,192,82211,1,0,0:0:0:50:bassdrum.wav
256,192,82211,1,0,0:0:0:40:4-11.wav
329,192,82539,1,0,0:0:0:40:4-11.wav
402,192,82703,1,0,0:0:0:40:4-11.wav
475,192,83031,1,0,0:0:0:40:4-9.wav
36,192,83195,1,0,0:0:0:50:snare.wav
256,192,83195,1,0,0:0:0:40:4-8.wav
329,192,83359,1,0,0:0:0:40:4-9.wav
109,192,83523,1,0,0:0:0:50:bassdrum.wav
256,192,83523,1,0,0:0:0:50:cymbol.wav
402,192,83523,1,0,0:0:0:40:5-9.wav
109,192,83851,1,0,0:0:0:50:snare.wav
329,192,83851,1,0,0:0:0:50:cymbol.wav
182,192,84015,1,0,0:0:0:40:3-11.wav
256,192,84179,1,0,0:0:0:50:bassdrum.wav
182,192,84343,1,0,0:0:0:50:bassdrum.wav
36,192,84507,1,0,0:0:0:50:snare.wav
329,192,84507,1,0,0:0:0:40:5-9.wav
109,192,84670,1,0,0:0:0:50:bassdrum.wav
402,192,84670,1,0,0:0:0:40:5-12.wav
182,192,84998,1,0,0:0:0:50:bassdrum.wav
475,192,84998,1,0,0:0:0:40:5-10.wav
109,192,85162,1,0,0:0:0:50:snare.wav
402,192,85162,1,0,0:0:0:40:5-9.wav
36,192,85326,1,0,0:0:0:50:bassdrum.wav
329,192,85326,1,0,0:0:0:40:4-11.wav
182,192,85654,1,0,0:0:0:50:bassdrum.wav
329,192,85654,1,0,0:0:0:40:4-9.wav
109,192,85818,1,0,0:0:0:50:snare.wav
402,192,85818,1,0,0:0:0:40:5-12.wav
475,192,85982,128,0,89097:0:0:0:40:6-9.wav
256,192,85982,128,0,89097:0:0:0:50:cymbol.wav
36,192,85982,128,0,89097:0:0:0:50:bassdrum.wav
