osu file format v13

[General]
AudioFilename: SAO Innocence.mp3
AudioLeadIn: 0
PreviewTime: 54343
Countdown: 0
SampleSet: Soft
StackLeniency: 0.7
Mode: 3
LetterboxInBreaks: 0
SpecialStyle: 0
WidescreenStoryboard: 1

[Editor]
DistanceSpacing: 1
BeatDivisor: 2
GridSize: 8
TimelineZoom: 0.8999996

[Metadata]
Title:INNOCENCE (TV Size Ver.)
TitleUnicode:INNOCENCE (TV Size Ver.)
Artist:Aoi Eir
ArtistUnicode:藍井エイル
Creator:[AyanoTatemaya]
Version:7K EZ
Source:ソードアート・オンライン
Tags:Sword Art Online SAO ALO OP Opening 2 2nd arcwinolivirus Kuo Kyoka lordraika Alfheim Online HinagikuKatsura
BeatmapID:584513
BeatmapSetID:143712

[Difficulty]
HPDrainRate:7
CircleSize:7
OverallDifficulty:6
ApproachRate:5
SliderMultiplier:1.4
SliderTickRate:1

[Events]
//Background and Video events
Video,0,"SAOP2.avi"
0,0,"BG-Hinagiku.png",0,0
//Break Periods
//Storyboard Layer 0 (Background)
//Storyboard Layer 1 (Fail)
//Storyboard Layer 2 (Pass)
//Storyboard Layer 3 (Foreground)
//Storyboard Sound Samples
Sample,818,0,"backtrack.wav",70
Sample,7457,0,"3-7.wav",20
Sample,7457,0,"1-5.wav",20
Sample,7457,0,"2-7.wav",20
Sample,8441,0,"4-13.wav",40
Sample,8769,0,"2-9.wav",20
Sample,8769,0,"3-9.wav",20
Sample,8769,0,"1-7.wav",20
Sample,9261,0,"tom.wav",50
Sample,9588,0,"bassdrum.wav",50
Sample,9752,0,"tom.wav",50
Sample,10080,0,"3-6.wav",20
Sample,10080,0,"2-4.wav",20
Sample,10080,0,"4-6.wav",20
Sample,10900,0,"4-9.wav",40
Sample,10900,0,"snare.wav",50
Sample,11064,0,"snare.wav",50
Sample,11228,0,"snare.wav",50
Sample,11228,0,"4-13.wav",40
Sample,11392,0,"4-6.wav",20
Sample,11392,0,"2-4.wav",20
Sample,11392,0,"3-6.wav",20
Sample,11556,0,"snare.wav",50
Sample,11720,0,"4-6.wav",20
Sample,11720,0,"3-6.wav",20
Sample,12048,0,"2-4.wav",20
Sample,12048,0,"3-6.wav",20
Sample,12048,0,"4-6.wav",20
Sample,12211,0,"snare.wav",40
Sample,12293,0,"snare.wav",50
Sample,12457,0,"snare.wav",50
Sample,12539,0,"snare.wav",40
Sample,12621,0,"snare.wav",50
Sample,12703,0,"1-5.wav",20
Sample,12703,0,"3-7.wav",20
Sample,12867,0,"bassdrum.wav",50
Sample,13031,0,"3-7.wav",20
Sample,13031,0,"2-7.wav",20
Sample,13195,0,"3-7.wav",20
Sample,13195,0,"2-7.wav",20
Sample,13523,0,"bassdrum.wav",50
Sample,13687,0,"snare.wav",40
Sample,14015,0,"1-7.wav",20
Sample,14015,0,"bassdrum.wav",40
Sample,14015,0,"2-9.wav",20
Sample,14015,0,"3-9.wav",20
Sample,14179,0,"bassdrum.wav",50
Sample,14343,0,"2-9.wav",20
Sample,14343,0,"3-9.wav",20
Sample,14507,0,"5-12.wav",40
Sample,14507,0,"3-9.wav",20
Sample,14507,0,"2-9.wav",20
Sample,14834,0,"bassdrum.wav",50
Sample,14998,0,"snare.wav",40
Sample,15326,0,"3-6.wav",20
Sample,15326,0,"bassdrum.wav",40
Sample,15326,0,"2-6.wav",20
Sample,15326,0,"1-4.wav",20
Sample,15490,0,"bassdrum.wav",50
Sample,15654,0,"3-6.wav",20
Sample,15818,0,"3-6.wav",20
Sample,15818,0,"2-6.wav",20
Sample,15982,0,"bassdrum.wav",40
Sample,16146,0,"bassdrum.wav",50
Sample,16638,0,"4-6.wav",20
Sample,16638,0,"3-6.wav",20
Sample,16638,0,"2-4.wav",20
Sample,16638,0,"bassdrum.wav",40
Sample,16802,0,"bassdrum.wav",50
Sample,16966,0,"4-6.wav",20
Sample,17129,0,"3-6.wav",20
Sample,17129,0,"4-6.wav",20
Sample,17293,0,"bassdrum.wav",40
Sample,17457,0,"bassdrum.wav",50
Sample,17621,0,"snare.wav",40
Sample,17949,0,"1-5.wav",20
Sample,17949,0,"3-7.wav",20
Sample,18113,0,"bassdrum.wav",50
Sample,18277,0,"1-5.wav",20
Sample,18277,0,"3-7.wav",20
Sample,18441,0,"bassdrum.wav",50
Sample,18441,0,"3-7.wav",20
Sample,18441,0,"4-9.wav",40
Sample,18441,0,"1-5.wav",20
Sample,18523,0,"2-7.wav",20
Sample,18769,0,"bassdrum.wav",50
Sample,18933,0,"snare.wav",40
Sample,19097,0,"bassdrum.wav",50
Sample,19261,0,"snare.wav",40
Sample,19261,0,"2-9.wav",20
Sample,19261,0,"1-7.wav",20
Sample,19425,0,"bassdrum.wav",50
Sample,19588,0,"3-9.wav",20
Sample,19588,0,"snare.wav",40
Sample,19752,0,"2-9.wav",20
Sample,19752,0,"3-9.wav",20
Sample,19752,0,"5-7.wav",30
Sample,19752,0,"1-7.wav",20
Sample,19834,0,"bassdrum.wav",50
Sample,20080,0,"bassdrum.wav",40
Sample,20244,0,"tom.wav",40
Sample,20244,0,"5-8.wav",30
Sample,20408,0,"tom.wav",40
Sample,20572,0,"3-6.wav",20
Sample,20572,0,"cymbol.wav",40
Sample,20572,0,"4-6.wav",20
Sample,20572,0,"2-4.wav",20
Sample,22375,0,"5-14.wav",40
Sample,22539,0,"3-6.wav",20
Sample,22539,0,"2-4.wav",20
Sample,22539,0,"4-6.wav",20
Sample,22703,0,"2-4.wav",20
Sample,22703,0,"3-6.wav",20
Sample,22703,0,"4-6.wav",20
Sample,23195,0,"bassdrum.wav",50
Sample,28441,0,"2-7.wav",20
Sample,28441,0,"3-7.wav",20
Sample,28441,0,"1-5.wav",20
Sample,28605,0,"3-13.wav",40
Sample,28769,0,"1-5.wav",20
Sample,28769,0,"cymbol.wav",40
Sample,28933,0,"3-7.wav",20
Sample,28933,0,"1-5.wav",20
Sample,29261,0,"1-5.wav",20
Sample,29261,0,"3-7.wav",20
Sample,29425,0,"1-5.wav",20
Sample,29425,0,"3-7.wav",20
Sample,29588,0,"bassdrum.wav",50
Sample,29752,0,"2-7.wav",20
Sample,29752,0,"3-7.wav",20
Sample,29752,0,"1-5.wav",20
Sample,29916,0,"bassdrum.wav",50
Sample,30244,0,"2-7.wav",20
Sample,30244,0,"3-7.wav",20
Sample,30244,0,"1-5.wav",20
Sample,30572,0,"bassdrum.wav",50
Sample,30736,0,"snare.wav",40
Sample,31064,0,"3-9.wav",20
Sample,31064,0,"1-7.wav",20
Sample,31884,0,"bassdrum.wav",50
Sample,32048,0,"snare.wav",40
Sample,32211,0,"2-10.wav",20
Sample,32211,0,"1-8.wav",20
Sample,32211,0,"3-10.wav",20
Sample,33482,0,"tom.wav",50
Sample,33564,0,"tom01.wav",50
Sample,33687,0,"bassdrum.wav",50
Sample,34998,0,"bassdrum.wav",50
Sample,35326,0,"bassdrum.wav",50
Sample,35490,0,"3-14.wav",40
Sample,35818,0,"4-11.wav",40
Sample,36146,0,"4-13.wav",40
Sample,37293,0,"bassdrum.wav",50
Sample,37621,0,"bassdrum.wav",50
Sample,38113,0,"3-14.wav",40
Sample,38441,0,"bassdrum.wav",50
Sample,38933,0,"3-7.wav",20
Sample,38933,0,"2-7.wav",20
Sample,39097,0,"3-13.wav",40
Sample,39261,0,"3-7.wav",20
Sample,39261,0,"cymbol.wav",40
Sample,39425,0,"1-5.wav",20
Sample,39425,0,"3-7.wav",20
Sample,39425,0,"2-7.wav",20
Sample,39752,0,"1-5.wav",20
Sample,39752,0,"2-7.wav",20
Sample,39752,0,"3-7.wav",20
Sample,39916,0,"2-7.wav",20
Sample,39916,0,"3-7.wav",20
Sample,40080,0,"bassdrum.wav",50
Sample,40244,0,"3-7.wav",20
Sample,40244,0,"2-7.wav",20
Sample,40244,0,"1-5.wav",20
Sample,40408,0,"bassdrum.wav",50
Sample,40736,0,"2-7.wav",20
Sample,40736,0,"1-5.wav",20
Sample,40736,0,"3-7.wav",20
Sample,41064,0,"bassdrum.wav",50
Sample,41228,0,"snare.wav",40
Sample,41556,0,"2-9.wav",20
Sample,41556,0,"3-9.wav",20
Sample,42048,0,"4-11.wav",40
Sample,42375,0,"bassdrum.wav",50
Sample,42539,0,"snare.wav",40
Sample,42703,0,"1-8.wav",20
Sample,42703,0,"bassdrum.wav",40
Sample,42703,0,"2-10.wav",20
Sample,42703,0,"3-10.wav",20
Sample,43769,0,"snare.wav",50
Sample,43933,0,"snare.wav",50
Sample,44097,0,"tom01.wav",50
Sample,44179,0,"2-7.wav",20
Sample,44179,0,"4-9.wav",20
Sample,44343,0,"2-7.wav",20
Sample,44343,0,"4-9.wav",20
Sample,44343,0,"3-9.wav",40
Sample,44507,0,"bassdrum.wav",50
Sample,44670,0,"2-7.wav",20
Sample,44670,0,"3-11.wav",40
Sample,44670,0,"4-9.wav",20
Sample,44834,0,"bassdrum.wav",50
Sample,44834,0,"2-7.wav",20
Sample,44834,0,"4-9.wav",20
Sample,45162,0,"bassdrum.wav",50
Sample,45326,0,"3-11.wav",40
Sample,45326,0,"4-9.wav",20
Sample,45326,0,"2-7.wav",20
Sample,45326,0,"bassdrum.wav",50
Sample,45654,0,"bassdrum.wav",50
Sample,45818,0,"bassdrum.wav",50
Sample,45982,0,"bassdrum.wav",50
Sample,46146,0,"3-14.wav",30
Sample,46146,0,"snare.wav",50
Sample,46146,0,"2-7.wav",20
Sample,46474,0,"snare.wav",50
Sample,46802,0,"2-9.wav",20
Sample,46802,0,"4-11.wav",20
Sample,46966,0,"3-9.wav",40
Sample,46966,0,"4-11.wav",20
Sample,46966,0,"2-9.wav",20
Sample,47129,0,"bassdrum.wav",50
Sample,47293,0,"3-11.wav",40
Sample,47293,0,"4-11.wav",20
Sample,47293,0,"2-9.wav",20
Sample,47457,0,"4-11.wav",20
Sample,47457,0,"bassdrum.wav",50
Sample,47457,0,"2-9.wav",20
Sample,47621,0,"bassdrum.wav",50
Sample,47785,0,"bassdrum.wav",50
Sample,47949,0,"2-9.wav",20
Sample,47949,0,"4-11.wav",20
Sample,47949,0,"bassdrum.wav",50
Sample,47949,0,"3-11.wav",40
Sample,48277,0,"bassdrum.wav",50
Sample,48441,0,"bassdrum.wav",50
Sample,48441,0,"cymbol.wav",40
Sample,48769,0,"4-11.wav",20
Sample,48769,0,"2-9.wav",20
Sample,48769,0,"bassdrum.wav",50
Sample,48933,0,"snare.wav",50
Sample,49015,0,"snare.wav",50
Sample,49179,0,"snare.wav",50
Sample,49261,0,"tom.wav",50
Sample,49343,0,"tom01.wav",50
Sample,49425,0,"4-13.wav",20
Sample,49425,0,"2-11.wav",20
Sample,49588,0,"4-9.wav",40
Sample,49588,0,"2-11.wav",20
Sample,49588,0,"4-13.wav",20
Sample,49752,0,"snare.wav",40
Sample,49916,0,"4-11.wav",40
Sample,49916,0,"4-13.wav",20
Sample,49916,0,"2-11.wav",20
Sample,50080,0,"4-13.wav",20
Sample,50080,0,"2-11.wav",20
Sample,50244,0,"bassdrum.wav",50
Sample,50408,0,"snare.wav",40
Sample,50572,0,"4-13.wav",20
Sample,50572,0,"2-11.wav",20
Sample,50736,0,"bassdrum.wav",50
Sample,50900,0,"bassdrum.wav",50
Sample,51064,0,"snare.wav",40
Sample,51228,0,"4-9.wav",40
Sample,51392,0,"4-13.wav",20
Sample,51392,0,"2-11.wav",20
Sample,51392,0,"bassdrum.wav",50
Sample,51556,0,"bassdrum.wav",50
Sample,51720,0,"snare.wav",50
Sample,51884,0,"4-11.wav",40
Sample,52048,0,"2-12.wav",20
Sample,52048,0,"4-14.wav",20
Sample,52048,0,"bassdrum.wav",40
Sample,52867,0,"snare.wav",40
Sample,52949,0,"snare.wav",50
Sample,53113,0,"snare.wav",50
Sample,53359,0,"4-16.wav",30
Sample,53359,0,"2-14.wav",30
Sample,53523,0,"4-16.wav",30
Sample,53523,0,"2-14.wav",30
Sample,54015,0,"2-16.wav",30
Sample,54015,0,"4-18.wav",30
Sample,54179,0,"2-16.wav",30
Sample,54179,0,"4-18.wav",30
Sample,54507,0,"4-11.wav",40
Sample,54670,0,"3-7.wav",20
Sample,54670,0,"5-12.wav",40
Sample,54670,0,"2-7.wav",20
Sample,54998,0,"snare.wav",40
Sample,55162,0,"5-12.wav",40
Sample,55162,0,"1-5.wav",20
Sample,55162,0,"2-7.wav",20
Sample,55162,0,"3-7.wav",20
Sample,55490,0,"5-14.wav",40
Sample,55490,0,"bassdrum.wav",50
Sample,55818,0,"bassdrum.wav",50
Sample,55818,0,"5-12.wav",40
Sample,55982,0,"2-9.wav",20
Sample,55982,0,"1-7.wav",20
Sample,56146,0,"bassdrum.wav",50
Sample,56146,0,"4-14.wav",40
Sample,56474,0,"3-9.wav",20
Sample,56474,0,"bassdrum.wav",50
Sample,56474,0,"2-9.wav",20
Sample,56474,0,"1-7.wav",20
Sample,56802,0,"bassdrum.wav",50
Sample,56966,0,"snare.wav",40
Sample,57293,0,"1-4.wav",20
Sample,57293,0,"3-6.wav",20
Sample,57293,0,"2-6.wav",20
Sample,57293,0,"bassdrum.wav",40
Sample,57621,0,"snare.wav",40
Sample,57785,0,"5-12.wav",40
Sample,57785,0,"1-4.wav",20
Sample,57785,0,"2-6.wav",20
Sample,57785,0,"3-6.wav",20
Sample,58113,0,"bassdrum.wav",50
Sample,58113,0,"3-13.wav",40
Sample,58441,0,"4-11.wav",40
Sample,58441,0,"bassdrum.wav",50
Sample,58605,0,"3-13.wav",30
Sample,58605,0,"4-6.wav",20
Sample,58769,0,"3-14.wav",40
Sample,58769,0,"bassdrum.wav",50
Sample,58933,0,"snare.wav",40
Sample,59097,0,"bassdrum.wav",50
Sample,59097,0,"2-4.wav",20
Sample,59261,0,"4-6.wav",20
Sample,59261,0,"3-14.wav",30
Sample,59261,0,"3-6.wav",20
Sample,59916,0,"3-7.wav",20
Sample,59916,0,"2-7.wav",20
Sample,59916,0,"1-5.wav",20
Sample,60408,0,"1-5.wav",20
Sample,60408,0,"3-11.wav",40
Sample,60408,0,"3-7.wav",20
Sample,60408,0,"2-7.wav",20
Sample,60736,0,"bassdrum.wav",50
Sample,60900,0,"bassdrum.wav",40
Sample,61228,0,"bassdrum.wav",40
Sample,61228,0,"2-9.wav",20
Sample,61228,0,"3-9.wav",20
Sample,61228,0,"1-7.wav",20
Sample,61392,0,"bassdrum.wav",50
Sample,61720,0,"1-7.wav",20
Sample,61720,0,"3-9.wav",30
Sample,61720,0,"3-9.wav",40
Sample,61720,0,"2-9.wav",20
Sample,62048,0,"bassdrum.wav",50
Sample,62211,0,"snare.wav",40
Sample,62539,0,"2-4.wav",20
Sample,62539,0,"bassdrum.wav",40
Sample,62539,0,"3-6.wav",20
Sample,62621,0,"4-6.wav",20
Sample,62703,0,"bassdrum.wav",50
Sample,63031,0,"2-4.wav",20
Sample,63031,0,"3-6.wav",20
Sample,63031,0,"bassdrum.wav",50
Sample,63031,0,"4-6.wav",20
Sample,63359,0,"4-9.wav",40
Sample,63359,0,"bassdrum.wav",50
Sample,63523,0,"snare.wav",40
Sample,63687,0,"4-13.wav",40
Sample,63851,0,"3-6.wav",20
Sample,63851,0,"2-4.wav",20
Sample,63851,0,"4-6.wav",20
Sample,64015,0,"bassdrum.wav",40
Sample,64343,0,"3-6.wav",20
Sample,64343,0,"4-6.wav",20
Sample,64343,0,"2-4.wav",20
Sample,64998,0,"tom.wav",40
Sample,64998,0,"4-11.wav",40
Sample,65080,0,"tom01.wav",50
Sample,65162,0,"1-5.wav",20
Sample,65162,0,"2-7.wav",20
Sample,65490,0,"cymbol.wav",40
Sample,65653,0,"5-12.wav",40
Sample,65654,0,"1-5.wav",20
Sample,65654,0,"3-7.wav",20
Sample,65982,0,"bassdrum.wav",50
Sample,65982,0,"5-14.wav",40
Sample,66310,0,"5-12.wav",40
Sample,66310,0,"bassdrum.wav",50
Sample,66474,0,"3-9.wav",20
Sample,66474,0,"2-9.wav",20
Sample,66638,0,"4-14.wav",40
Sample,66638,0,"bassdrum.wav",50
Sample,66966,0,"3-9.wav",20
Sample,66966,0,"1-7.wav",20
Sample,66966,0,"2-9.wav",20
Sample,67293,0,"bassdrum.wav",50
Sample,67457,0,"snare.wav",40
Sample,67785,0,"bassdrum.wav",40
Sample,67785,0,"1-4.wav",20
Sample,67785,0,"2-6.wav",20
Sample,67785,0,"3-6.wav",20
Sample,68113,0,"snare.wav",40
Sample,68277,0,"5-12.wav",40
Sample,68277,0,"3-6.wav",20
Sample,68277,0,"1-4.wav",20
Sample,68605,0,"bassdrum.wav",50
Sample,68605,0,"4-13.wav",40
Sample,68933,0,"bassdrum.wav",50
Sample,68933,0,"6-14.wav",40
Sample,69097,0,"4-6.wav",20
Sample,69097,0,"3-6.wav",20
Sample,69261,0,"6-12.wav",40
Sample,69261,0,"bassdrum.wav",50
Sample,69425,0,"snare.wav",40
Sample,69588,0,"2-4.wav",20
Sample,69588,0,"4-6.wav",20
Sample,69588,0,"3-6.wav",20
Sample,70408,0,"cymbol.wav",40
Sample,70408,0,"2-7.wav",20
Sample,70408,0,"3-7.wav",20
Sample,70408,0,"1-5.wav",20
Sample,70572,0,"3-11.wav",40
Sample,70736,0,"snare.wav",40
Sample,70900,0,"1-5.wav",20
Sample,70900,0,"3-7.wav",20
Sample,70900,0,"2-7.wav",20
Sample,70900,0,"4-11.wav",40
Sample,71064,0,"bassdrum.wav",40
Sample,71228,0,"bassdrum.wav",50
Sample,71392,0,"snare.wav",40
Sample,71556,0,"4-13.wav",40
Sample,71720,0,"3-7.wav",20
Sample,71720,0,"2-7.wav",20
Sample,71720,0,"1-5.wav",20
Sample,71884,0,"bassdrum.wav",40
Sample,71884,0,"bassdrum.wav",50
Sample,71884,0,"4-14.wav",30
Sample,71884,0,"4-14.wav",40
Sample,72211,0,"4-13.wav",40
Sample,72211,0,"3-7.wav",20
Sample,72211,0,"1-5.wav",20
Sample,72211,0,"2-7.wav",20
Sample,72539,0,"bassdrum.wav",50
Sample,72539,0,"4-13.wav",40
Sample,72703,0,"snare.wav",40
Sample,72867,0,"4-13.wav",40
Sample,73031,0,"3-9.wav",20
Sample,73031,0,"bassdrum.wav",40
Sample,73031,0,"1-7.wav",20
Sample,73031,0,"2-9.wav",20
Sample,73195,0,"bassdrum.wav",40
Sample,73523,0,"2-9.wav",20
Sample,73523,0,"3-9.wav",20
Sample,73523,0,"1-7.wav",20
Sample,74179,0,"bassdrum.wav",50
Sample,74343,0,"snare.wav",40
Sample,74343,0,"1-7.wav",20
Sample,74343,0,"2-9.wav",20
Sample,74343,0,"3-9.wav",20
Sample,74507,0,"bassdrum.wav",50
Sample,74670,0,"snare.wav",40
Sample,74834,0,"4-11.wav",40
Sample,74834,0,"3-9.wav",20
Sample,74834,0,"2-9.wav",20
Sample,74834,0,"1-7.wav",20
Sample,75162,0,"snare.wav",40
Sample,75244,0,"bassdrum.wav",50
Sample,75326,0,"tom.wav",40
Sample,75408,0,"tom01.wav",50
Sample,75490,0,"tom.wav",40
Sample,75572,0,"tom01.wav",50
Sample,75654,0,"4-6.wav",20
Sample,75654,0,"2-4.wav",20
Sample,75818,0,"3-4.wav",40
Sample,75982,0,"snare.wav",40
Sample,75982,0,"4-6.wav",20
Sample,76146,0,"4-4.wav",40
Sample,76146,0,"2-4.wav",20
Sample,76146,0,"4-6.wav",20
Sample,76310,0,"bassdrum.wav",50
Sample,76474,0,"bassdrum.wav",50
Sample,76474,0,"4-4.wav",40
Sample,76638,0,"4-6.wav",20
Sample,76638,0,"snare.wav",40
Sample,76638,0,"2-4.wav",20
Sample,76802,0,"4-4.wav",40
Sample,76966,0,"2-4.wav",20
Sample,76966,0,"bassdrum.wav",50
Sample,76966,0,"3-6.wav",20
Sample,77129,0,"4-4.wav",40
Sample,77129,0,"bassdrum.wav",50
Sample,77293,0,"snare.wav",40
Sample,77457,0,"2-4.wav",20
Sample,77457,0,"3-6.wav",20
Sample,77457,0,"5-4.wav",40
Sample,77457,0,"4-6.wav",20
Sample,77621,0,"bassdrum.wav",50
Sample,77785,0,"bassdrum.wav",50
Sample,77785,0,"5-4.wav",40
Sample,77949,0,"2-4.wav",20
Sample,77949,0,"snare.wav",40
Sample,77949,0,"3-6.wav",20
Sample,78277,0,"1-5.wav",20
Sample,78277,0,"2-7.wav",20
Sample,78441,0,"3-11.wav",30
Sample,78605,0,"2-7.wav",20
Sample,78605,0,"snare.wav",40
Sample,78769,0,"3-7.wav",20
Sample,78769,0,"1-5.wav",20
Sample,78769,0,"4-11.wav",30
Sample,78769,0,"2-7.wav",20
Sample,78933,0,"snare.wav",40
Sample,79097,0,"bassdrum.wav",50
Sample,79261,0,"1-5.wav",20
Sample,79261,0,"snare.wav",40
Sample,79425,0,"bassdrum.wav",50
Sample,79425,0,"4-13.wav",30
Sample,79588,0,"3-7.wav",20
Sample,79588,0,"1-5.wav",20
Sample,79752,0,"4-14.wav",40
Sample,79752,0,"bassdrum.wav",50
Sample,79916,0,"3-7.wav",20
Sample,80080,0,"3-7.wav",20
Sample,80080,0,"4-13.wav",40
Sample,80080,0,"1-5.wav",20
Sample,80408,0,"bassdrum.wav",50
Sample,80408,0,"4-13.wav",40
Sample,80572,0,"snare.wav",40
Sample,80654,0,"3-7.wav",20
Sample,80736,0,"4-11.wav",40
Sample,80900,0,"1-7.wav",20
Sample,80900,0,"2-9.wav",20
Sample,80900,0,"3-9.wav",20
Sample,81228,0,"1-7.wav",20
Sample,81228,0,"3-9.wav",20
Sample,81392,0,"1-7.wav",20
Sample,81392,0,"2-9.wav",20
Sample,81392,0,"3-9.wav",20
Sample,81884,0,"3-9.wav",20
Sample,81884,0,"1-7.wav",20
Sample,81884,0,"2-9.wav",20
Sample,82048,0,"snare.wav",40
Sample,82211,0,"1-7.wav",20
Sample,82211,0,"2-9.wav",20
Sample,82211,0,"bassdrum.wav",40
Sample,82211,0,"3-9.wav",20
Sample,82539,0,"4-11.wav",40
Sample,82703,0,"4-11.wav",40
Sample,83031,0,"4-9.wav",40
Sample,83195,0,"snare.wav",40
Sample,83359,0,"4-9.wav",40
Sample,83523,0,"1-5.wav",20
Sample,83523,0,"2-7.wav",20
Sample,83523,0,"3-7.wav",20
Sample,83851,0,"snare.wav",40
Sample,84015,0,"3-11.wav",40
Sample,84343,0,"bassdrum.wav",50
Sample,84507,0,"snare.wav",40
Sample,84670,0,"2-9.wav",20
Sample,84670,0,"3-9.wav",20
Sample,84670,0,"1-7.wav",20
Sample,84998,0,"bassdrum.wav",50
Sample,85162,0,"snare.wav",40
Sample,85326,0,"cymbol.wav",40
Sample,85326,0,"3-6.wav",20
Sample,85326,0,"2-6.wav",20
Sample,85326,0,"1-4.wav",20
Sample,85654,0,"bassdrum.wav",50
Sample,85818,0,"snare.wav",40
Sample,85982,0,"3-6.wav",20
Sample,85982,0,"2-4.wav",20
Sample,85982,0,"4-6.wav",20

[TimingPoints]
-411,327.868852459016,4,2,2,10,1,0
54670,-100,4,2,2,10,0,1
83523,-100,4,2,2,10,0,0

[HitObjects]
109,192,900,5,0,0:0:0:0:
402,192,1392,1,0,0:0:0:0:
36,192,2048,5,0,0:0:0:40:4-11.wav
182,192,2211,1,0,0:0:0:40:5-12.wav
329,192,2539,1,0,0:0:0:40:5-12.wav
182,192,2703,1,0,0:0:0:40:5-12.wav
475,192,3031,1,0,0:0:0:40:5-14.wav
402,192,3359,1,0,0:0:0:40:5-12.wav
329,192,3687,1,0,0:0:0:40:4-14.wav
256,192,4015,1,0,0:0:0:40:4-13.wav
182,192,4343,1,0,0:0:0:40:4-13.wav
402,192,4507,1,0,0:0:0:40:4-14.wav
36,192,4834,1,0,0:0:0:40:4-13.wav
256,192,5162,1,0,0:0:0:40:4-13.wav
475,192,5326,1,0,0:0:0:40:5-12.wav
329,192,5654,1,0,0:0:0:40:3-13.wav
475,192,5982,1,0,0:0:0:40:4-11.wav
329,192,6310,5,0,0:0:0:40:3-14.wav
182,192,6474,1,0,0:0:0:40:3-13.wav
36,192,6638,1,0,0:0:0:40:3-14.wav
109,192,7457,1,0,0:0:0:40:cymbol.wav
402,192,7457,1,0,0:0:0:40:4-13.wav
256,192,7949,1,0,0:0:0:40:3-11.wav
182,192,8769,1,0,0:0:0:40:4-11.wav
329,192,8769,1,0,0:0:0:40:cymbol.wav
36,192,9261,1,0,0:0:0:40:3-9.wav
256,192,9752,1,0,0:0:0:40:4-11.wav
109,192,10080,1,0,0:0:0:40:cymbol.wav
402,192,10080,1,0,0:0:0:40:4-11.wav
256,192,10408,1,0,0:0:0:40:bassdrum.wav
256,192,10736,1,0,0:0:0:40:bassdrum.wav
36,192,11064,1,0,0:0:0:40:4-11.wav
109,192,11392,1,0,0:0:0:40:snare.wav
329,192,11392,1,0,0:0:0:40:cymbol.wav
256,192,11720,1,0,0:0:0:40:snare.wav
475,192,11720,1,0,0:0:0:40:cymbol.wav
182,192,12048,1,0,0:0:0:40:bassdrum.wav
329,192,12375,1,0,0:0:0:40:snare.wav
36,192,12703,1,0,0:0:0:40:cymbol.wav
475,192,12703,1,0,0:0:0:40:5-12.wav
256,192,13031,1,0,0:0:0:40:snare.wav
109,192,13359,1,0,0:0:0:40:bassdrum.wav
192,192,13687,1,0,0:0:0:40:6-12.wav
475,192,14015,1,0,0:0:0:40:6-11.wav
256,192,14343,1,0,0:0:0:40:snare.wav
402,192,14670,1,0,0:0:0:40:bassdrum.wav
192,192,14998,1,0,0:0:0:40:5-10.wav
320,192,15326,1,0,0:0:0:40:4-13.wav
109,192,15654,1,0,0:0:0:40:snare.wav
475,192,15982,1,0,0:0:0:40:5-12.wav
64,192,16310,1,0,0:0:0:40:snare.wav
402,192,16638,1,0,0:0:0:40:4-11.wav
256,192,16966,1,0,0:0:0:40:snare.wav
182,192,17293,1,0,0:0:0:40:4-9.wav
256,192,17457,1,0,0:0:0:40:4-11.wav
320,192,17621,1,0,0:0:0:40:4-13.wav
109,192,17949,1,0,0:0:0:40:cymbol.wav
402,192,17949,1,0,0:0:0:40:4-11.wav
182,192,18277,1,0,0:0:0:40:snare.wav
329,192,18605,1,0,0:0:0:40:snare.wav
64,192,18933,1,0,0:0:0:40:3-13.wav
329,192,19261,128,0,19916:0:0:0:40:3-11.wav
256,192,19916,128,0,20572:0:0:0:40:bassdrum.wav
109,192,20572,128,0,21228:0:0:0:40:5-9.wav
182,192,21228,128,0,21884:0:0:0:40:5-12.wav
256,192,21884,128,0,22539:0:0:0:40:5-14.wav
109,192,22539,1,0,0:0:0:40:5-14.wav
402,192,22703,1,0,0:0:0:40:5-14.wav
36,192,23195,1,0,0:0:0:40:cymbol.wav
475,192,23195,1,0,0:0:0:40:3-14.wav
256,192,24507,1,0,0:0:0:40:3-14.wav
182,192,24834,1,0,0:0:0:40:3-13.wav
36,192,24998,1,0,0:0:0:40:3-14.wav
329,192,25326,1,0,0:0:0:40:4-11.wav
475,192,25654,1,0,0:0:0:40:4-13.wav
256,192,25818,1,0,0:0:0:40:3-14.wav
36,192,26802,1,0,0:0:0:40:2-14.wav
182,192,27129,1,0,0:0:0:40:3-13.wav
329,192,27621,1,0,0:0:0:40:3-14.wav
475,192,28113,1,0,0:0:0:40:bassdrum.wav
109,192,28441,1,0,0:0:0:40:cymbol.wav
402,192,28441,1,0,0:0:0:40:3-14.wav
36,192,28769,1,0,0:0:0:40:snare.wav
256,192,28933,1,0,0:0:0:40:3-14.wav
475,192,29097,1,0,0:0:0:40:bassdrum.wav
402,192,29425,1,0,0:0:0:40:snare.wav
256,192,29752,1,0,0:0:0:40:3-14.wav
329,192,30080,1,0,0:0:0:40:snare.wav
182,192,30244,1,0,0:0:0:40:3-13.wav
402,192,30408,1,0,0:0:0:40:bassdrum.wav
256,192,30736,1,0,0:0:0:40:3-14.wav
36,192,31064,1,0,0:0:0:40:cymbol.wav
329,192,31064,1,0,0:0:0:40:4-13.wav
109,192,31392,1,0,0:0:0:40:snare.wav
256,192,31556,1,0,0:0:0:40:4-14.wav
402,192,31720,1,0,0:0:0:40:bassdrum.wav
256,192,32048,1,0,0:0:0:40:4-13.wav
36,192,32211,1,0,0:0:0:40:4-11.wav
402,192,32539,1,0,0:0:0:40:bassdrum.wav
182,192,32703,1,0,0:0:0:40:snare.wav
64,192,33031,1,0,0:0:0:40:bassdrum.wav
182,192,33195,1,0,0:0:0:40:snare.wav
329,192,33359,1,0,3:0:0:70:bassdrum.wav
402,192,33687,1,0,0:0:0:40:cymbol.wav
109,192,33687,1,0,0:0:0:40:3-14.wav
329,192,34015,1,0,0:0:0:40:bassdrum.wav
182,192,34343,1,0,0:0:0:40:bassdrum.wav
329,192,34670,1,0,0:0:0:40:bassdrum.wav
109,192,34998,1,0,0:0:0:40:3-14.wav
256,192,35326,1,0,0:0:0:40:3-13.wav
36,192,35654,1,0,0:0:0:50:bassdrum.wav
182,192,35982,1,0,0:0:0:50:bassdrum.wav
475,192,36310,1,0,0:0:0:40:bassdrum.wav
329,192,36638,1,0,0:0:0:40:bassdrum.wav
475,192,36966,1,0,0:0:0:40:bassdrum.wav
256,192,37293,1,0,0:0:0:40:2-14.wav
402,192,37621,1,0,0:0:0:40:3-13.wav
182,192,37949,1,0,0:0:0:40:bassdrum.wav
36,192,38277,1,0,0:0:0:40:snare.wav
475,192,38277,1,0,0:0:0:10:kuhaku.wav
182,192,38605,1,0,0:0:0:40:snare.wav
329,192,38605,1,0,0:0:0:10:kuhaku.wav
109,192,38933,1,0,0:0:0:40:cymbol.wav
402,192,38933,1,0,0:0:0:40:3-14.wav
402,192,39261,1,0,0:0:0:40:snare.wav
256,192,39425,1,0,0:0:0:40:3-14.wav
109,192,39588,1,0,0:0:0:40:bassdrum.wav
256,192,39916,1,0,0:0:0:40:snare.wav
402,192,40244,1,0,0:0:0:40:3-14.wav
256,192,40572,1,0,0:0:0:40:snare.wav
109,192,40736,1,0,0:0:0:40:3-13.wav
402,192,40900,1,0,0:0:0:40:bassdrum.wav
256,192,41228,1,0,0:0:0:40:3-14.wav
475,192,41556,1,0,0:0:0:40:cymbol.wav
36,192,41556,1,0,0:0:0:40:4-13.wav
182,192,41884,1,0,0:0:0:40:snare.wav
329,192,42211,1,0,0:0:0:40:bassdrum.wav
475,192,42539,1,0,0:0:0:40:5-12.wav
256,192,42703,1,0,0:0:0:40:4-13.wav
320,192,43031,1,0,0:0:0:40:bassdrum.wav
182,192,43195,1,0,0:0:0:40:snare.wav
402,192,43523,1,0,0:0:0:40:bassdrum.wav
109,192,43687,1,0,0:0:0:40:snare.wav
475,192,43851,1,0,0:0:0:40:snare.wav
36,192,44015,1,0,0:0:0:40:tom.wav
329,192,44179,1,0,0:0:0:40:bassdrum.wav
182,192,44179,1,0,0:0:0:40:cymbol.wav
256,192,44507,1,0,0:0:0:40:3-11.wav
402,192,44834,1,0,0:0:0:40:3-11.wav
109,192,45162,1,0,0:0:0:40:3-9.wav
329,192,45490,1,0,0:0:0:50:bassdrum.wav
182,192,45654,1,0,0:0:0:40:3-11.wav
402,192,45818,1,0,0:0:0:40:3-11.wav
109,192,45982,1,0,0:0:0:40:3-9.wav
36,192,46146,1,0,0:0:0:40:cymbol.wav
475,192,46146,1,0,0:0:0:40:3-14.wav
64,192,46474,1,0,0:0:0:40:cymbol.wav
475,192,46474,1,0,0:0:0:40:3-14.wav
256,192,46802,1,0,0:0:0:40:bassdrum.wav
182,192,47129,1,0,0:0:0:40:3-11.wav
329,192,47457,1,0,0:0:0:40:3-11.wav
182,192,47785,1,0,0:0:0:40:3-9.wav
109,192,48113,1,0,0:0:0:50:bassdrum.wav
402,192,48277,1,0,0:0:0:40:3-11.wav
182,192,48441,1,0,0:0:0:40:3-11.wav
329,192,48605,1,0,0:0:0:40:3-9.wav
475,192,48769,1,0,0:0:0:40:cymbol.wav
36,192,48769,1,0,0:0:0:40:3-14.wav
36,192,49097,1,0,0:0:0:40:3-14.wav
475,192,49097,1,0,0:0:0:50:bassdrum.wav
109,192,49425,1,0,0:0:0:40:bassdrum.wav
402,192,49425,1,0,0:0:0:40:cymbol.wav
320,192,49752,1,0,0:0:0:40:4-11.wav
256,192,50080,1,0,0:0:0:40:4-11.wav
64,192,50408,1,0,0:0:0:40:4-9.wav
182,192,50572,1,0,0:0:0:40:4-11.wav
320,192,50900,1,0,0:0:0:40:4-9.wav
448,192,51064,1,0,0:0:0:40:4-11.wav
192,192,51392,1,0,0:0:0:40:4-13.wav
329,192,51556,1,0,0:0:0:40:4-14.wav
182,192,51720,1,0,0:0:0:40:4-13.wav
64,192,52048,1,0,0:0:0:40:cymbol.wav
448,192,52048,128,0,52703:0:0:0:30:4-11.wav
109,192,52703,1,0,0:0:0:40:snare.wav
329,192,53031,1,0,0:0:0:40:snare.wav
182,192,53359,1,0,0:0:0:40:bassdrum.wav
182,192,53523,1,0,0:0:0:40:bassdrum.wav
329,192,54015,1,0,0:0:0:40:bassdrum.wav
329,192,54179,1,0,0:0:0:40:bassdrum.wav
64,192,54670,1,0,0:0:0:40:cymbol.wav
448,192,54670,128,0,55982:0:0:0:20:1-5.wav
182,192,54998,1,0,0:0:0:40:5-12.wav
329,192,55326,1,0,0:0:0:50:bassdrum.wav
192,192,55654,1,0,0:0:0:40:snare.wav
320,192,55982,128,0,57293:0:0:0:20:3-9.wav
402,192,56310,1,0,0:0:0:40:snare.wav
109,192,56474,1,0,0:0:0:40:4-13.wav
109,192,56802,1,0,0:0:0:40:4-13.wav
402,192,56966,1,0,0:0:0:40:4-14.wav
192,192,57293,128,0,58605:0:0:0:40:4-13.wav
64,192,57621,1,0,0:0:0:40:4-13.wav
256,192,57949,1,0,0:0:0:50:bassdrum.wav
475,192,58277,1,0,0:0:0:40:snare.wav
64,192,58605,128,0,59588:0:0:0:20:2-4.wav
448,192,58933,1,0,0:0:0:40:3-13.wav
329,192,59097,1,0,0:0:0:40:3-14.wav
192,192,59425,1,0,0:0:0:40:bassdrum.wav
320,192,59588,1,0,0:0:0:40:snare.wav
109,192,59916,1,0,0:0:0:40:cymbol.wav
402,192,59916,128,0,61228:0:0:0:40:4-13.wav
256,192,60244,1,0,0:0:0:40:snare.wav
36,192,60572,1,0,0:0:0:40:bassdrum.wav
182,192,60900,1,0,0:0:0:40:4-13.wav
329,192,61228,128,0,62539:0:0:0:40:4-11.wav
109,192,61556,1,0,0:0:0:40:snare.wav
475,192,61884,1,0,0:0:0:40:bassdrum.wav
64,192,62211,1,0,0:0:0:40:4-11.wav
192,192,62539,128,0,63851:0:0:0:40:4-11.wav
448,192,62867,1,0,0:0:0:40:snare.wav
64,192,63195,1,0,0:0:0:40:snare.wav
402,192,63523,1,0,0:0:0:40:4-11.wav
329,192,63851,1,0,0:0:0:40:bassdrum.wav
475,192,64179,1,0,0:0:0:40:snare.wav
109,192,64507,1,0,0:0:0:40:bassdrum.wav
256,192,64670,1,0,0:0:0:40:tom.wav
402,192,64834,1,0,0:0:0:40:tom01.wav
475,192,65162,1,0,0:0:0:40:cymbol.wav
192,192,65162,128,0,66474:0:0:0:40:5-12.wav
36,192,65490,1,0,0:0:0:40:5-12.wav
402,192,65818,1,0,0:0:0:50:bassdrum.wav
329,192,66146,1,0,0:0:0:40:snare.wav
109,192,66474,128,0,67785:0:0:0:20:1-7.wav
402,192,66802,1,0,0:0:0:40:snare.wav
256,192,66966,1,0,0:0:0:40:4-13.wav
329,192,67293,1,0,0:0:0:40:4-13.wav
475,192,67457,1,0,0:0:0:40:4-14.wav
320,192,67785,128,0,69097:0:0:0:40:5-12.wav
402,192,68113,1,0,0:0:0:40:5-12.wav
36,192,68441,1,0,0:0:0:50:bassdrum.wav
192,192,68769,1,0,0:0:0:40:snare.wav
448,192,69097,128,0,70408:0:0:0:20:2-4.wav
109,192,69425,1,0,0:0:0:40:6-11.wav
256,192,69588,1,0,0:0:0:40:6-12.wav
109,192,69916,1,0,0:0:0:40:bassdrum.wav
256,192,70080,1,0,0:0:0:40:snare.wav
182,192,70408,1,0,0:0:0:40:bassdrum.wav
329,192,70736,1,0,0:0:0:40:4-11.wav
182,192,71064,1,0,0:0:0:40:4-11.wav
329,192,71392,1,0,0:0:0:40:4-11.wav
109,192,71720,1,0,0:0:0:50:bassdrum.wav
402,192,72048,1,0,0:0:0:40:snare.wav
109,192,72375,1,0,0:0:0:50:bassdrum.wav
402,192,72703,1,0,0:0:0:40:4-13.wav
256,192,73031,1,0,0:0:0:40:4-11.wav
36,192,73359,1,0,0:0:0:40:snare.wav
402,192,73687,1,0,0:0:0:40:snare.wav
109,192,73851,1,0,0:0:0:40:bassdrum.wav
448,192,74015,1,0,0:0:0:40:snare.wav
182,192,74179,1,0,0:0:0:40:3-9.wav
329,192,74343,1,0,0:0:0:40:4-11.wav
448,192,74670,1,0,0:0:0:40:4-11.wav
36,192,74998,1,0,0:0:0:50:bassdrum.wav
256,192,75162,1,0,0:0:0:40:4-9.wav
402,192,75326,1,0,0:0:0:40:4-8.wav
109,192,75490,1,0,0:0:0:40:4-9.wav
329,192,75654,1,0,0:0:0:40:cymbol.wav
182,192,75654,1,0,0:0:0:40:3-6.wav
36,192,75982,1,0,0:0:0:40:3-6.wav
182,192,76310,1,0,0:0:0:40:4-6.wav
109,192,76638,1,0,0:0:0:40:3-6.wav
256,192,76966,1,0,0:0:0:40:4-6.wav
182,192,77293,1,0,0:0:0:40:4-6.wav
320,192,77621,1,0,0:0:0:40:5-5.wav
256,192,77949,1,0,0:0:0:40:5-4.wav
402,192,78277,1,0,0:0:0:40:4-6.wav
109,192,78277,1,0,0:0:0:40:cymbol.wav
448,192,78605,1,0,0:0:0:40:4-11.wav
256,192,78933,1,0,0:0:0:40:4-11.wav
402,192,79261,1,0,0:0:0:40:4-11.wav
182,192,79588,1,0,0:0:0:40:snare.wav
329,192,79916,1,0,0:0:0:40:snare.wav
109,192,80244,1,0,0:0:0:40:snare.wav
256,192,80572,1,0,0:0:0:40:4-13.wav
36,192,80900,1,0,0:0:0:40:cymbol.wav
402,192,80900,1,0,0:0:0:40:4-11.wav
109,192,81228,1,0,0:0:0:40:bassdrum.wav
402,192,81392,1,0,0:0:0:40:bassdrum.wav
182,192,81556,1,0,0:0:0:40:snare.wav
329,192,81720,1,0,0:0:0:40:snare.wav
109,192,81884,1,0,0:0:0:40:bassdrum.wav
402,192,82048,1,0,0:0:0:40:3-9.wav
64,192,82211,128,0,83195:0:0:0:40:4-11.wav
320,192,83195,1,0,0:0:0:40:4-8.wav
192,192,83523,1,0,0:0:0:40:cymbol.wav
475,192,83523,1,0,0:0:0:40:5-9.wav
320,192,83851,1,0,0:0:0:40:cymbol.wav
109,192,84179,1,0,0:0:0:50:bassdrum.wav
256,192,84507,1,0,0:0:0:40:5-9.wav
402,192,84670,1,0,0:0:0:40:5-12.wav
182,192,84998,1,0,0:0:0:40:5-10.wav
109,192,85162,1,0,0:0:0:40:5-9.wav
36,192,85326,1,0,0:0:0:40:4-11.wav
182,192,85654,1,0,0:0:0:40:4-9.wav
320,192,85818,1,0,0:0:0:40:5-12.wav
475,192,85982,128,0,89097:0:0:0:40:6-9.wav
36,192,85982,128,0,89097:0:0:0:40:cymbol.wav
