osu file format v13

[General]
AudioFilename: IGNITE.mp3
AudioLeadIn: 1000
PreviewTime: 53713
Countdown: 0
SampleSet: Normal
StackLeniency: 0.7
Mode: 0
LetterboxInBreaks: 0
WidescreenStoryboard: 0

[Editor]
Bookmarks: 13011,18625,62133
DistanceSpacing: 1.2
BeatDivisor: 4
GridSize: 8
TimelineZoom: 1

[Metadata]
Title:IGNITE (TV size ver.)
TitleUnicode:IGNITE (TV size ver.)
Artist:Aoi Eir
ArtistUnicode:藍井エイル
Creator:Yuzu-
Version:Hard
Source:ソードアート・オンラインⅡ
Tags:sword art online ii sao 2nd season opening phantom bullet toybot pishifat winber1 desperate-kun mao saoii sao2 collab collaboration yuuki asuna kirigaya kazuto kirito sinon shinon
BeatmapID:454118
BeatmapSetID:190736

[Difficulty]
HPDrainRate:5
CircleSize:4
OverallDifficulty:6
ApproachRate:7.5
SliderMultiplier:1.4
SliderTickRate:1

[Events]
//Background and Video events
0,0,"bg.jpg",0,0
Video,295,"stolen video.avi"
//Break Periods
2,13211,17800
//Storyboard Layer 0 (Background)
//Storyboard Layer 1 (Fail)
//Storyboard Layer 2 (Pass)
//Storyboard Layer 3 (Foreground)
//Storyboard Sound Samples
//Background Colour Transformations
3,100,163,162,255

[TimingPoints]
380,350.877192982456,4,2,1,100,1,0
1784,-114.942528735632,4,2,1,60,0,0
1872,-114.942528735632,4,2,1,50,0,0
12310,-100,4,1,0,60,0,0
12837,-100,4,2,1,75,0,0
13012,-100,4,1,0,80,0,0
18626,-100,4,2,2,60,0,0
18714,-100,4,2,1,50,0,0
25995,-100,4,2,2,50,0,0
26082,-100,4,2,1,50,0,0
27573,-100,4,2,0,55,0,0
27661,-100,4,2,1,50,0,0
29503,-100,4,2,0,40,0,0
29679,-100,4,2,0,70,0,0
29854,-100,4,1,0,33,0,0
29942,-100,4,2,1,75,0,0
32310,-100,4,2,1,40,0,0
32398,-100,4,2,1,75,0,0
38275,-100,4,1,0,75,0,0
38363,-100,4,2,1,60,0,0
39328,-100,4,1,0,60,0,0
39416,-100,4,2,1,60,0,0
46609,-100,4,2,1,60,0,0
46696,-117.647058823529,4,1,0,60,0,0
46784,-117.647058823529,4,2,1,90,0,0
49503,-117.647058823529,4,1,0,70,0,0
49591,-117.647058823529,4,2,1,70,0,0
50556,-100,4,2,1,70,0,0
53889,-100,4,2,1,65,0,0
55117,-100,4,1,0,70,0,1
55205,-100,4,2,1,85,0,1
60731,-100,4,1,1,60,0,1
60819,-100,4,2,1,85,0,1
63538,-100,4,2,1,65,0,1
63626,-100,4,2,1,85,0,1
66345,-100,4,1,0,70,0,1
66433,-100,4,2,1,85,0,1
71959,-100,4,1,0,60,0,1
72047,-100,4,2,1,85,0,1
74766,-100,4,1,0,60,0,1
74854,-100,4,2,1,85,0,1
77573,-100,4,1,0,70,0,1
77661,-100,4,2,1,85,0,1
88626,-100,4,2,1,65,0,0

[Colours]
Combo1 : 215,101,252
Combo2 : 255,137,81
Combo3 : 128,185,255
Combo4 : 216,14,65

[HitObjects]
367,141,1783,6,0,P|340:79|274:55,1,140,4|0,0:0|0:0,0:0:0:0:
164,147,2485,2,0,P|220:169|276:147,2,121.800001022186,2|0|0,0:1|0:0|0:0,0:0:0:0:
126,86,3362,1,0,0:0:0:0:
69,131,3537,2,0,L|17:178,1,60.9000005110931,0|0,0:0|0:0,0:0:0:0:
106,195,3888,2,0,L|71:261,1,60.9000005110931,2|0,0:1|0:0,0:0:0:0:
163,253,4239,2,0,L|163:326,1,60.9000005110931,0|0,0:0|0:0,0:0:0:0:
224,353,4590,5,0,0:0:0:0:
265,212,4941,1,0,0:0:0:0:
398,273,5292,2,0,P|450:235|447:158,1,121.800001022186,2|0,0:1|0:0,0:0:0:0:
349,80,5994,2,0,P|317:127|347:176,1,121.800001022186,0|0,0:0|0:0,0:0:0:0:
290,28,6695,2,0,P|250:85|247:153,1,121.800001022186,2|0,0:1|0:0,0:0:0:0:
279,277,7397,5,0,0:0:0:0:
500,238,8099,1,2,0:1:0:0:
461,17,8801,1,0,0:0:0:0:
241,56,9502,1,2,0:1:0:0:
95,44,9853,1,0,0:0:0:0:
79,189,10204,6,0,P|103:223|133:242,1,60.9000005110931,4|0,0:0|0:0,0:0:0:0:
182,270,10555,1,0,0:0:0:0:
253,284,10730,2,0,P|307:261|337:209,1,121.800001022186,0|0,0:1|0:0,0:0:0:0:
339,62,11432,2,0,P|448:95|460:223,1,243.600002044373,0|2,0:0|0:0,0:0:0:0:
399,262,12309,5,0,0:0:0:0:
338,209,12485,2,0,P|289:253|291:332,1,140
300,340,12923,1,0,0:0:0:0:
318,356,13011,1,4,0:0:0:0:
135,91,18625,5,4,0:0:0:0:
40,193,18976,1,2,0:1:0:0:
135,293,19327,1,0,0:0:0:0:
231,192,19678,2,0,P|265:200|288:226,1,70,2|0,0:3|0:0,0:0:0:0:
330,281,20029,2,0,P|382:319|457:303,1,140,0|0,0:0|0:0,0:0:0:0:
504,258,20555,2,0,P|526:197|483:128,1,140,0|0,0:0|0:0,0:0:0:0:
433,96,21081,1,0,0:0:0:0:
367,72,21257,1,2,0:0:0:0:
297,68,21432,6,0,B|238:67|208:107|208:107|200:170|138:180,1,210,2|0,0:0|0:0,0:0:0:0:
69,182,22134,1,2,0:1:0:0:
20,313,22485,2,0,L|86:351,1,70,0|0,0:0|0:0,0:0:0:0:
149,359,22836,1,2,0:3:0:0:
223,240,23187,1,0,0:3:0:0:
324,338,23537,2,0,P|393:324|416:260,1,140,2|4,0:3|0:0,0:0:0:0:
324,88,24239,6,0,P|316:121|329:154,1,70,2|0,0:0|0:0,0:0:0:0:
393,180,24590,1,0,0:0:0:0:
463,182,24765,2,0,P|475:114|456:48,1,140,0|0,0:0|0:0,0:0:0:0:
324,88,25467,1,2,0:0:0:0:
263,120,25643,1,2,0:0:0:0:
135,65,25994,2,0,P|109:93|103:129,1,70,4|0,0:0|0:0,0:0:0:0:
101,243,26344,2,0,P|125:218|135:185,1,70,2|0,0:1|0:0,0:0:0:0:
31,246,26695,2,0,P|5:274|0:310,1,70,0|2,0:0|0:0,0:0:0:0:
62,181,27046,5,2,0:0:0:0:
197,250,27397,1,0,0:0:0:0:
259,282,27572,1,2,0:3:0:0:
256,213,27748,1,0,0:0:0:0:
256,192,27923,12,0,29151,0:0:0:0:
152,42,29502,5,2,0:0:0:0:
152,42,29678,1,0,0:0:0:0:
92,100,29853,6,0,L|92:172,1,70,4|0,0:0|0:0,0:0:0:0:
176,173,30204,2,0,L|226:223,1,70,2|0,0:0|0:0,0:0:0:0:
284,282,30555,1,2,0:0:0:0:
447,322,30906,2,0,P|479:306|501:277,1,70,8|0,0:0|0:0,0:0:0:0:
424,241,31257,2,0,P|443:211|445:177,1,70,2|0,0:0|0:0,0:0:0:0:
361,184,31608,1,2,0:0:0:0:
363,99,31783,2,0,B|280:120|215:69,1,140
162,131,32309,2,0,P|135:151|101:159,1,70,8|0,3:0|0:0,0:0:0:0:
18,140,32660,6,0,P|32:208|92:242,1,140,2|2,0:0|0:0,0:0:0:0:
168,270,33187,1,0,0:0:0:0:
248,244,33362,1,2,0:0:0:0:
382,345,33713,1,8,0:0:0:0:
484,211,34064,1,2,0:0:0:0:
401,220,34239,1,0,0:0:0:0:
342,160,34415,1,8,0:0:0:0:
261,149,34590,1,0,3:0:0:0:
176,143,34765,2,0,P|150:122|138:88,1,70,2|0,0:0|0:0,0:0:0:0:
221,76,35116,2,0,P|253:64|288:70,1,70,8|0,0:0|0:0,0:0:0:0:
261,149,35467,6,0,P|255:183|232:210,1,70,2|0,0:0|0:0,0:0:0:0:
150,223,35818,2,0,L|112:287,1,70,2|0,0:0|0:0,0:0:0:0:
121,368,36169,2,0,P|159:360|190:321,1,70,2|0,0:0|0:0,0:0:0:0:
246,285,36520,2,0,P|282:277|322:286,1,70,8|0,0:0|0:0,0:0:0:0:
387,326,36871,1,2,0:0:0:0:
344,163,37222,1,2,0:0:0:0:
282,350,37572,1,2,0:0:0:0:
484,192,37923,1,8,0:0:0:0:
484,192,38274,6,0,B|464:128|464:128|424:136|392:112,1,140,4|2,0:0|0:0,0:0:0:0:
328,80,38801,1,8,0:0:0:0:
192,40,39151,2,0,P|184:76|192:108,1,70,2|4,0:0|0:0,0:0:0:0:
215,174,39502,1,2,0:0:0:0:
260,228,39678,1,2,0:0:0:0:
327,248,39853,1,8,0:0:0:0:
425,148,40204,1,2,0:0:0:0:
407,80,40379,2,0,P|383:53|351:44,1,70,8|2,2:0|2:0,0:0:0:0:
269,154,40730,2,0,P|302:147|327:122,1,70,2|2,2:0|2:0,0:0:0:0:
268,84,41081,5,8,0:0:0:0:
216,36,41257,1,8,0:0:0:0:
84,164,41608,1,8,0:0:0:0:
132,112,41783,1,8,0:0:0:0:
268,244,42134,5,8,2:0:0:0:
216,196,42309,1,8,0:0:0:0:
92,340,42660,1,8,0:0:0:0:
140,288,42836,1,8,0:0:0:0:
305,179,43187,6,0,P|332:209|341:254,1,70,2|2,0:0|0:0,0:0:0:0:
425,284,43537,2,0,P|436:251|460:226,1,70,8|0,0:0|0:0,0:0:0:0:
405,157,43888,6,0,L|405:85,1,70,8|8,0:0|0:0,0:0:0:0:
264,89,44415,2,0,L|213:38,1,70,8|8,0:0|0:0,0:0:0:0:
150,164,44941,2,0,L|78:164,1,70,8|8,0:0|0:0,0:0:0:0:
174,268,45467,2,0,L|244:268,1,70,8|8,0:0|0:0,0:0:0:0:
318,290,45818,1,2,0:0:0:0:
354,304,45906,1,0,0:0:0:0:
392,308,45994,2,0,P|452:260|452:200,1,140,8|8,0:0|0:0,0:0:0:0:
424,129,46520,1,2,0:0:0:0:
379,66,46695,6,0,B|322:27|245:62|245:62|175:20|114:64,1,280,4|8,0:0|0:0,0:0:0:0:
99,195,47748,1,2,2:0:0:0:
153,241,47923,1,0,2:0:0:0:
208,195,48099,1,2,2:0:0:0:
279,195,48274,2,0,P|338:211|379:263,1,119.000002269745,8|2,0:0|0:0,0:0:0:0:
388,324,48801,1,8,0:0:0:0:
249,357,49151,1,8,0:0:0:0:
112,317,49502,6,0,B|73:258|73:258|17:227|28:165,1,178.500003404617,4|2,0:0|0:0,0:0:0:0:
69,110,50204,1,8,0:0:0:0:
227,54,50555,1,8,0:0:0:0:
281,117,50730,1,2,0:0:0:0:
272,200,50906,2,0,L|342:187,1,70
406,135,51257,1,2,0:0:0:0:
467,192,51432,2,0,P|487:153|481:98,1,70,8|0,0:0|0:0,0:0:0:0:
440,57,51783,1,8,0:0:0:0:
356,67,51958,1,8,0:0:0:0:
256,192,52134,12,8,53537,0:0:0:0:
256,210,53888,5,0,0:0:0:0:
321,183,54064,2,0,P|341:155|348:121,1,70,2|2,0:0|0:0,0:0:0:0:
164,121,54415,2,0,P|170:155|191:184,1,70,2|2,0:0|0:0,0:0:0:0:
256,210,54765,5,0,0:0:0:0:
256,126,54941,1,0,0:0:0:0:
257,293,55116,6,0,B|329:293|329:293|385:253,1,140,4|8,0:0|0:0,0:0:0:0:
466,232,55643,1,0,0:0:0:0:
442,153,55818,2,0,L|442:77,1,70,2|2,0:0|0:0,0:0:0:0:
366,123,56169,2,0,L|366:53,1,70,8|0,0:0|0:0,0:0:0:0:
287,25,56520,1,2,0:0:0:0:
217,72,56695,1,0,0:0:0:0:
164,137,56871,2,0,P|193:155|228:154,1,70,8|0,0:0|0:0,0:0:0:0:
125,62,57222,2,0,P|96:81|83:113,1,70,2|0,0:0|0:0,0:0:0:0:
59,243,57572,2,0,P|88:225|101:194,1,70,8|2,0:0|0:0,0:0:0:0:
9,312,57923,6,0,P|68:330|143:289,1,140,2|8,0:0|0:0,0:0:0:0:
198,240,58450,1,0,0:0:0:0:
274,204,58625,2,0,P|339:224|355:289,1,140,2|8,0:0|0:0,0:0:0:0:
304,355,59151,1,0,0:0:0:0:
288,273,59327,2,0,P|337:219|398:232,1,140,2|8,0:0|0:0,0:0:0:0:
470,271,59853,1,2,0:0:0:0:
424,342,60029,1,0,0:0:0:0:
229,327,60379,1,8,0:0:0:0:
353,175,60730,6,0,B|297:129|285:183|220:144,1,140,4|8,0:0|0:0,0:0:0:0:
270,75,61257,1,0,0:0:0:0:
187,63,61432,2,0,B|131:15|115:67|54:32,1,140,2|8,0:0|0:0,0:0:0:0:
0,96,61958,1,0,0:0:0:0:
95,190,62134,2,0,P|94:156|78:125,1,70,2|0,0:0|0:0,0:0:0:0:
102,275,62485,2,0,P|137:266|162:241,1,70,8|0,0:0|0:0,0:0:0:0:
189,163,62836,1,2,0:0:0:0:
328,302,63187,1,8,0:0:0:0:
344,107,63537,6,0,P|324:78|297:57,1,70,4|0,0:0|0:0,0:0:0:0:
348,192,63888,1,8,0:0:0:0:
344,276,64064,2,0,P|324:305|297:327,2,70,2|0|2,0:0|0:0|0:0,0:0:0:0:
348,192,64590,1,2,0:0:0:0:
264,180,64765,2,0,P|229:185|199:203,1,70,8|2,0:0|0:0,0:0:0:0:
131,252,65116,2,0,P|157:275|189:290,2,70,2|8|2,0:0|0:0|0:0,0:0:0:0:
200,204,65643,2,0,P|177:177|163:145,1,70,8|2,0:0|0:0,0:0:0:0:
248,134,65994,2,0,P|237:100|238:66,1,70,8|8,0:0|0:0,0:0:0:0:
321,90,66344,6,0,P|321:178|277:230,1,140,4|8,0:0|0:0,0:0:0:0:
247,289,66871,1,0,0:0:0:0:
179,339,67046,2,0,P|143:347|107:339,1,70,2|2,0:0|0:0,0:0:0:0:
76,264,67397,2,0,P|110:256|144:261,1,70,8|0,0:0|0:0,0:0:0:0:
212,211,67748,1,2,0:0:0:0:
134,179,67923,2,0,P|119:148|117:113,1,70,0|8,0:0|0:0,0:0:0:0:
121,29,68274,2,0,P|86:36|56:53,1,70,0|2,0:0|0:0,0:0:0:0:
192,76,68625,1,2,0:0:0:0:
276,74,68801,2,0,P|311:79|345:75,1,70,8|0,0:0|0:0,0:0:0:0:
408,20,69151,6,0,P|428:87|391:144,1,140,2|8,0:0|0:0,0:0:0:0:
316,179,69678,1,0,0:0:0:0:
234,196,69853,2,0,P|205:260|238:326,1,140,2|8,0:0|0:0,0:0:0:0:
289,259,70379,1,0,0:0:0:0:
316,179,70555,2,0,P|278:120|202:119,1,140,2|8,0:0|0:0,0:0:0:0:
138,152,71081,1,0,0:0:0:0:
138,152,71257,1,2,0:0:0:0:
9,259,71608,1,8,0:0:0:0:
169,309,71958,6,0,L|236:329,1,70,4|0,0:0|0:0,0:0:0:0:
255,247,72309,2,0,L|327:247,1,70,8|0,0:0|0:0,0:0:0:0:
409,246,72660,1,2,0:0:0:0:
493,100,73011,1,8,0:0:0:0:
330,58,73362,2,0,L|260:57,1,70,2|0,0:0|0:0,0:0:0:0:
192,106,73713,2,0,L|250:144,1,70,8|0,0:0|0:0,0:0:0:0:
334,136,74064,1,2,0:0:0:0:
359,302,74415,1,8,0:0:0:0:
359,302,74590,1,8,0:0:0:0:
276,314,74765,6,0,P|243:298|207:298,1,70,4|2,0:0|0:0,0:0:0:0:
127,282,75116,1,8,0:0:0:0:
54,235,75292,2,0,P|48:201|54:167,1,70
129,128,75643,1,2,0:0:0:0:
202,167,75818,1,8,0:0:0:0:
227,247,75994,2,0,P|277:199|273:122,1,140,0|2,0:0|0:0,0:0:0:0:
361,138,76520,2,8,L|435:123,1,70
442,40,76871,2,0,L|373:53,1,70
293,27,77222,1,8,0:0:0:0:
221,70,77397,5,8,0:0:0:0:
257,129,77572,1,4,0:0:0:0:
318,163,77748,1,2,0:0:0:0:
387,172,77923,2,0,P|425:176|457:174,1,70,8|2,0:0|0:0,0:0:0:0:
421,97,78274,1,0,0:0:0:0:
336,100,78450,2,0,P|281:153|278:225,1,140,2|2,0:0|0:0,0:0:0:0:
310,273,78976,5,0,0:0:0:0:
259,321,79151,2,0,P|219:318|192:287,1,70,2|8,0:0|0:0,0:0:0:0:
168,235,79502,2,0,L|224:104,1,140,2|2,0:0|0:0,0:0:0:0:
250,41,80029,1,8,0:0:0:0:
114,75,80379,6,0,L|59:204,1,140,2|8,0:0|0:0,0:0:0:0:
38,272,80906,1,2,0:0:0:0:
91,317,81081,2,0,P|128:329|158:323,1,70,2|2,0:0|0:0,0:0:0:0:
250,234,81432,2,0,P|216:239|187:259,1,70,8|2,0:0|0:0,0:0:0:0:
308,273,81783,6,0,P|339:261|362:233,1,70,0|2,0:0|0:0,0:0:0:0:
391,170,82134,1,8,0:0:0:0:
355,110,82309,1,2,0:0:0:0:
289,87,82485,1,0,0:0:0:0:
226,117,82660,2,0,P|192:124|156:124,1,70,2|10,0:0|0:0,0:0:0:0:
93,95,83011,1,2,0:0:0:0:
79,26,83187,6,0,P|24:79|40:142,1,140,2|8,0:0|0:0,0:0:0:0:
82,187,83713,2,0,B|142:250|151:177|233:253,1,140,2|8,0:0|0:0,0:0:0:0:
255,287,84239,1,2,0:0:0:0:
295,344,84415,2,0,P|362:337|416:288,1,140,8|0,0:0|0:0,0:0:0:0:
424,221,84941,2,0,L|414:76,1,140,8|2,0:0|0:0,0:0:0:0:
284,30,85643,1,8,0:0:0:0:
304,168,85994,1,0,0:0:0:0:
256,192,86169,12,4,88625,0:0:0:0:
