osu file format v13

[General]
AudioFilename: IGNITE (TV size ver.).mp3
AudioLeadIn: 0
PreviewTime: 53287
Countdown: 0
SampleSet: Normal
StackLeniency: 0.7
Mode: 1
LetterboxInBreaks: 0
WidescreenStoryboard: 0

[Editor]
DistanceSpacing: 1.1
BeatDivisor: 2
GridSize: 32
TimelineZoom: 1.1

[Metadata]
Title:IGNITE (TV size ver.)
TitleUnicode:IGNITE (TV size ver.)
Artist:Aoi Eir
ArtistUnicode:藍井エイル
Creator:Nardoxyribonucleic
Version:Kantan
Source:ソードアート・オンラインⅡ
Tags:Taiko Sword Art Online II SAO Phantom Bullet Opening
BeatmapID:469809
BeatmapSetID:198039

[Difficulty]
HPDrainRate:3
CircleSize:5
OverallDifficulty:3
ApproachRate:3
SliderMultiplier:1.2
SliderTickRate:1

[Events]
//Background and Video events
0,0,"BG.jpg",0,80
//Break Periods
//Storyboard Layer 0 (Background)
//Storyboard Layer 1 (Fail)
//Storyboard Layer 2 (Pass)
//Storyboard Layer 3 (Foreground)
//Storyboard Sound Samples

[TimingPoints]
-46,350.877192982456,4,1,0,70,1,0
12585,-100,4,1,0,80,0,0
18199,-100,4,1,0,70,0,0
29427,-100,4,1,0,80,0,0
54690,-100,4,1,0,90,0,1
77146,-100,4,1,0,90,0,0

[HitObjects]
256,192,1357,5,0,0:0:0:0:
256,192,2761,1,0,0:0:0:0:
256,192,4164,1,0,0:0:0:0:
256,192,4866,1,8,0:0:0:0:
256,192,5568,1,8,0:0:0:0:
256,192,6269,1,0,0:0:0:0:
256,192,6971,1,0,0:0:0:0:
256,192,8375,1,0,0:0:0:0:
256,192,9076,1,8,0:0:0:0:
256,192,9778,1,8,0:0:0:0:
256,192,10304,1,0,0:0:0:0:
256,192,10655,1,0,0:0:0:0:
256,192,11006,1,0,0:0:0:0:
256,192,11883,1,8,0:0:0:0:
256,192,12585,1,4,0:0:0:0:
256,192,13287,1,0,0:0:0:0:
256,192,13989,1,8,0:0:0:0:
256,192,14690,1,8,0:0:0:0:
256,192,15041,1,8,0:0:0:0:
256,192,15392,1,0,0:0:0:0:
256,192,16094,1,0,0:0:0:0:
256,192,16620,1,8,0:0:0:0:
256,192,17497,1,8,0:0:0:0:
256,192,18199,1,4,0:0:0:0:
256,192,19603,1,0,0:0:0:0:
256,192,21006,1,8,0:0:0:0:
256,192,22410,1,0,0:0:0:0:
256,192,23111,1,0,0:0:0:0:
256,192,23813,1,0,0:0:0:0:
256,192,25217,1,8,0:0:0:0:
256,192,26620,1,0,0:0:0:0:
256,192,28024,1,0,0:0:0:0:
256,192,28725,1,8,0:0:0:0:
256,192,29427,1,4,0:0:0:0:
256,192,30480,1,8,0:0:0:0:
256,192,30831,1,0,0:0:0:0:
256,192,31532,1,0,0:0:0:0:
256,192,31883,1,8,0:0:0:0:
256,192,32234,1,8,0:0:0:0:
256,192,32936,1,0,0:0:0:0:
256,192,34339,1,0,0:0:0:0:
256,192,34690,1,8,0:0:0:0:
256,192,35041,1,8,0:0:0:0:
256,192,35743,1,0,0:0:0:0:
256,192,36445,1,8,0:0:0:0:
256,192,37146,1,0,0:0:0:0:
256,192,37497,1,8,0:0:0:0:
256,192,37848,1,4,0:0:0:0:
256,192,38901,1,4,0:0:0:0:
256,192,39953,1,8,0:0:0:0:
256,192,40304,1,0,0:0:0:0:
256,192,40655,1,8,0:0:0:0:
256,192,41708,1,8,0:0:0:0:
256,192,42761,1,8,0:0:0:0:
256,192,43111,1,8,0:0:0:0:
256,192,43462,1,0,0:0:0:0:
256,192,44515,1,0,0:0:0:0:
256,192,45568,1,0,0:0:0:0:
256,192,45918,1,0,0:0:0:0:
256,192,46269,1,4,0:0:0:0:
256,192,47673,1,0,0:0:0:0:
256,192,48375,1,8,0:0:0:0:
256,192,49076,1,8,0:0:0:0:
256,192,50480,1,8,0:0:0:0:
256,192,51532,1,8,0:0:0:0:
256,192,51883,2,0,L|352:192,7,60,0|0|0|0|0|0|0|0,0:0|0:0|0:0|0:0|0:0|0:0|0:0|0:0,0:0:0:0:
256,192,54690,1,4,0:0:0:0:
256,192,55041,1,8,0:0:0:0:
256,192,55743,1,8,0:0:0:0:
256,192,56445,1,0,0:0:0:0:
256,192,56796,1,0,0:0:0:0:
256,192,57146,1,8,0:0:0:0:
256,192,57497,1,8,0:0:0:0:
256,192,58199,1,8,0:0:0:0:
256,192,58901,1,0,0:0:0:0:
256,192,59603,1,0,0:0:0:0:
256,192,60304,1,0,0:0:0:0:
256,192,61708,1,0,0:0:0:0:
256,192,62410,1,8,0:0:0:0:
256,192,63111,1,8,0:0:0:0:
256,192,63638,1,0,0:0:0:0:
256,192,63989,1,0,0:0:0:0:
256,192,64339,1,0,0:0:0:0:
256,192,65217,1,8,0:0:0:0:
256,192,65918,1,4,0:0:0:0:
256,192,66269,1,8,0:0:0:0:
256,192,66971,1,8,0:0:0:0:
256,192,67673,1,0,0:0:0:0:
256,192,68024,1,0,0:0:0:0:
256,192,68375,1,8,0:0:0:0:
256,192,68725,1,8,0:0:0:0:
256,192,69427,1,8,0:0:0:0:
256,192,70129,1,0,0:0:0:0:
256,192,70831,1,0,0:0:0:0:
256,192,71532,1,0,0:0:0:0:
256,192,72936,1,0,0:0:0:0:
256,192,73638,1,8,0:0:0:0:
256,192,74339,1,8,0:0:0:0:
256,192,74866,1,0,0:0:0:0:
256,192,75217,1,0,0:0:0:0:
256,192,75568,1,0,0:0:0:0:
256,192,76445,1,8,0:0:0:0:
256,192,77146,1,4,0:0:0:0:
256,192,77673,1,0,0:0:0:0:
256,192,78550,1,8,0:0:0:0:
256,192,79076,1,8,0:0:0:0:
256,192,79953,1,4,0:0:0:0:
256,192,80480,1,0,0:0:0:0:
256,192,81357,1,8,0:0:0:0:
256,192,81883,1,8,0:0:0:0:
256,192,82761,1,4,0:0:0:0:
256,192,83111,1,8,0:0:0:0:
256,192,83813,1,8,0:0:0:0:
256,192,84515,1,0,0:0:0:0:
256,192,84866,1,8,0:0:0:0:
256,192,85217,1,8,0:0:0:0:
256,192,85568,1,4,0:0:0:0:
256,192,86620,1,8,0:0:0:0:
256,192,87673,1,0,0:0:0:0:
256,192,88024,1,8,0:0:0:0:
256,192,88199,1,8,0:0:0:0:
