osu file format v13

[General]
AudioFilename: IGNITE (TV size ver.).mp3
AudioLeadIn: 0
PreviewTime: 53287
Countdown: 0
SampleSet: Normal
StackLeniency: 0.7
Mode: 1
LetterboxInBreaks: 0
WidescreenStoryboard: 0

[Editor]
DistanceSpacing: 1.1
BeatDivisor: 4
GridSize: 32
TimelineZoom: 1.1

[Metadata]
Title:IGNITE (TV size ver.)
TitleUnicode:IGNITE (TV size ver.)
Artist:Aoi Eir
ArtistUnicode:藍井エイル
Creator:Nardoxyribonucleic
Version:Inner Oni
Source:ソードアート・オンラインⅡ
Tags:Taiko Sword Art Online II SAO Phantom Bullet Opening
BeatmapID:469808
BeatmapSetID:198039

[Difficulty]
HPDrainRate:6
CircleSize:5
OverallDifficulty:6
ApproachRate:7
SliderMultiplier:1.4
SliderTickRate:1

[Events]
//Background and Video events
0,0,"BG.jpg",0,80
//Break Periods
//Storyboard Layer 0 (Background)
//Storyboard Layer 1 (Fail)
//Storyboard Layer 2 (Pass)
//Storyboard Layer 3 (Foreground)
//Storyboard Sound Samples
//Background Colour Transformations
3,100,163,162,255

[TimingPoints]
-46,350.877192982456,4,1,0,70,1,0
12585,-100,4,1,0,80,0,0
18199,-100,4,1,0,70,0,0
29427,-100,4,1,0,80,0,0
54690,-100,4,1,0,90,0,1
77146,-100,4,1,0,90,0,0

[HitObjects]
256,192,129,5,8,0:0:0:0:
256,192,304,1,8,0:0:0:0:
256,192,655,1,8,0:0:0:0:
256,192,831,1,0,0:0:0:0:
256,192,1006,1,0,0:0:0:0:
256,192,1182,1,8,0:0:0:0:
256,192,1357,1,0,0:0:0:0:
256,192,1708,1,0,0:0:0:0:
256,192,1883,1,0,0:0:0:0:
256,192,2059,1,8,0:0:0:0:
256,192,2410,1,0,0:0:0:0:
256,192,2585,1,8,0:0:0:0:
256,192,2936,1,0,0:0:0:0:
256,192,3111,1,0,0:0:0:0:
256,192,3462,1,0,0:0:0:0:
256,192,3638,1,0,0:0:0:0:
256,192,3813,1,8,0:0:0:0:
256,192,3989,1,0,0:0:0:0:
256,192,4164,1,8,0:0:0:0:
256,192,4515,1,0,0:0:0:0:
256,192,4690,1,0,0:0:0:0:
256,192,4866,1,8,0:0:0:0:
256,192,5217,1,8,0:0:0:0:
256,192,5392,1,0,0:0:0:0:
256,192,5568,1,8,0:0:0:0:
256,192,5918,1,0,0:0:0:0:
256,192,6269,1,8,0:0:0:0:
256,192,6971,1,0,0:0:0:0:
256,192,7673,1,8,0:0:0:0:
256,192,8375,1,0,0:0:0:0:
256,192,9076,1,8,0:0:0:0:
256,192,9778,1,8,0:0:0:0:
256,192,9953,1,8,0:0:0:0:
256,192,10304,1,8,0:0:0:0:
256,192,10655,1,0,0:0:0:0:
256,192,11006,1,8,0:0:0:0:
256,192,11357,1,0,0:0:0:0:
256,192,11532,1,8,0:0:0:0:
256,192,11708,1,8,0:0:0:0:
256,192,11796,1,8,0:0:0:0:
256,192,11883,1,0,0:0:0:0:
256,192,12059,1,4,0:0:0:0:
256,192,12410,1,0,0:0:0:0:
256,192,12497,1,0,0:0:0:0:
256,192,12585,1,8,0:0:0:0:
256,192,12761,1,0,0:0:0:0:
256,192,12936,1,8,0:0:0:0:
256,192,13111,1,0,0:0:0:0:
256,192,13199,1,0,0:0:0:0:
256,192,13287,1,0,0:0:0:0:
256,192,13462,1,0,0:0:0:0:
256,192,13638,1,8,0:0:0:0:
256,192,13813,1,8,0:0:0:0:
256,192,13901,1,8,0:0:0:0:
256,192,13989,1,0,0:0:0:0:
256,192,14164,1,0,0:0:0:0:
256,192,14339,1,8,0:0:0:0:
256,192,14515,1,0,0:0:0:0:
256,192,14603,1,8,0:0:0:0:
256,192,14690,1,0,0:0:0:0:
256,192,14778,1,0,0:0:0:0:
256,192,14866,1,0,0:0:0:0:
256,192,15041,1,8,0:0:0:0:
256,192,15217,1,8,0:0:0:0:
256,192,15304,1,8,0:0:0:0:
256,192,15392,1,0,0:0:0:0:
256,192,15568,1,0,0:0:0:0:
256,192,15655,1,0,0:0:0:0:
256,192,15743,1,8,0:0:0:0:
256,192,15918,1,0,0:0:0:0:
256,192,16094,1,0,0:0:0:0:
256,192,16182,1,0,0:0:0:0:
256,192,16269,1,8,0:0:0:0:
256,192,16357,1,8,0:0:0:0:
256,192,16445,1,8,0:0:0:0:
256,192,16620,1,4,0:0:0:0:
256,192,16971,1,0,0:0:0:0:
256,192,17146,1,0,0:0:0:0:
256,192,17322,1,0,0:0:0:0:
256,192,17497,1,12,0:0:0:0:
256,192,17673,1,12,0:0:0:0:
256,192,18199,1,4,0:0:0:0:
256,192,18550,1,0,0:0:0:0:
256,192,18725,1,8,0:0:0:0:
256,192,18901,1,0,0:0:0:0:
256,192,19252,1,8,0:0:0:0:
256,192,19427,1,0,0:0:0:0:
256,192,19603,1,8,0:0:0:0:
256,192,19953,1,0,0:0:0:0:
256,192,20129,1,0,0:0:0:0:
256,192,20480,1,8,0:0:0:0:
256,192,20831,1,0,0:0:0:0:
256,192,21006,1,8,0:0:0:0:
256,192,21357,1,8,0:0:0:0:
256,192,21532,1,0,0:0:0:0:
256,192,21708,1,0,0:0:0:0:
256,192,22059,1,0,0:0:0:0:
256,192,22234,1,8,0:0:0:0:
256,192,22410,1,0,0:0:0:0:
256,192,22761,1,0,0:0:0:0:
256,192,23111,1,0,0:0:0:0:
256,192,23462,1,8,0:0:0:0:
256,192,23813,1,8,0:0:0:0:
256,192,23989,1,0,0:0:0:0:
256,192,24339,1,8,0:0:0:0:
256,192,24690,1,8,0:0:0:0:
256,192,25041,1,0,0:0:0:0:
256,192,25392,1,0,0:0:0:0:
256,192,25568,1,8,0:0:0:0:
256,192,25918,1,8,0:0:0:0:
256,192,26269,1,0,0:0:0:0:
256,192,26620,1,8,0:0:0:0:
256,192,26971,1,0,0:0:0:0:
256,192,27146,1,8,0:0:0:0:
256,192,27322,1,0,0:0:0:0:
256,192,27673,1,0,0:0:0:0:
256,192,28024,1,0,0:0:0:0:
256,192,28375,1,8,0:0:0:0:
256,192,28550,1,0,0:0:0:0:
256,192,28725,1,8,0:0:0:0:
256,192,29076,1,8,0:0:0:0:
256,192,29252,1,0,0:0:0:0:
256,192,29427,1,4,0:0:0:0:
256,192,29778,1,0,0:0:0:0:
256,192,29953,1,8,0:0:0:0:
256,192,30129,1,0,0:0:0:0:
256,192,30480,1,8,0:0:0:0:
256,192,30655,1,0,0:0:0:0:
256,192,30743,1,0,0:0:0:0:
256,192,30831,1,0,0:0:0:0:
256,192,31006,1,8,0:0:0:0:
256,192,31182,1,0,0:0:0:0:
256,192,31357,1,8,0:0:0:0:
256,192,31445,1,8,0:0:0:0:
256,192,31532,1,0,0:0:0:0:
256,192,31708,1,0,0:0:0:0:
256,192,31883,1,8,0:0:0:0:
256,192,32059,1,8,0:0:0:0:
256,192,32146,1,8,0:0:0:0:
256,192,32234,1,8,0:0:0:0:
256,192,32410,1,0,0:0:0:0:
256,192,32585,1,8,0:0:0:0:
256,192,32673,1,0,0:0:0:0:
256,192,32761,1,8,0:0:0:0:
256,192,32848,1,8,0:0:0:0:
256,192,32936,1,0,0:0:0:0:
256,192,33111,1,0,0:0:0:0:
256,192,33287,1,8,0:0:0:0:
256,192,33462,1,0,0:0:0:0:
256,192,33550,1,0,0:0:0:0:
256,192,33638,1,8,0:0:0:0:
256,192,33813,1,8,0:0:0:0:
256,192,33989,1,0,0:0:0:0:
256,192,34164,1,0,0:0:0:0:
256,192,34515,1,0,0:0:0:0:
256,192,34690,1,8,0:0:0:0:
256,192,34866,1,0,0:0:0:0:
256,192,34953,1,0,0:0:0:0:
256,192,35041,1,8,0:0:0:0:
256,192,35217,1,0,0:0:0:0:
256,192,35392,1,0,0:0:0:0:
256,192,35568,1,8,0:0:0:0:
256,192,35655,1,8,0:0:0:0:
256,192,35743,1,0,0:0:0:0:
256,192,35831,1,0,0:0:0:0:
256,192,35918,1,0,0:0:0:0:
256,192,36094,1,8,0:0:0:0:
256,192,36269,1,0,0:0:0:0:
256,192,36357,1,0,0:0:0:0:
256,192,36445,1,8,0:0:0:0:
256,192,36620,1,8,0:0:0:0:
256,192,36796,1,0,0:0:0:0:
256,192,36971,1,8,0:0:0:0:
256,192,37059,1,8,0:0:0:0:
256,192,37146,1,0,0:0:0:0:
256,192,37234,1,8,0:0:0:0:
256,192,37322,1,0,0:0:0:0:
256,192,37497,1,12,0:0:0:0:
256,192,37848,1,4,0:0:0:0:
256,192,38199,1,8,0:0:0:0:
256,192,38375,1,4,0:0:0:0:
256,192,38725,1,0,0:0:0:0:
256,192,38901,1,12,0:0:0:0:
256,192,39076,1,0,0:0:0:0:
256,192,39164,1,0,0:0:0:0:
256,192,39252,1,0,0:0:0:0:
256,192,39427,1,12,0:0:0:0:
256,192,39778,1,0,0:0:0:0:
256,192,39953,1,8,0:0:0:0:
256,192,40129,1,8,0:0:0:0:
256,192,40217,1,0,0:0:0:0:
256,192,40304,1,8,0:0:0:0:
256,192,40392,1,8,0:0:0:0:
256,192,40480,1,0,0:0:0:0:
256,192,40655,1,4,0:0:0:0:
256,192,40831,1,4,0:0:0:0:
256,192,41006,1,8,0:0:0:0:
256,192,41182,1,0,0:0:0:0:
256,192,41269,1,0,0:0:0:0:
256,192,41357,1,0,0:0:0:0:
256,192,41532,1,8,0:0:0:0:
256,192,41708,1,4,0:0:0:0:
256,192,41883,1,4,0:0:0:0:
256,192,42059,1,0,0:0:0:0:
256,192,42146,1,0,0:0:0:0:
256,192,42234,1,8,0:0:0:0:
256,192,42322,1,0,0:0:0:0:
256,192,42410,1,8,0:0:0:0:
256,192,42761,1,8,0:0:0:0:
256,192,42848,1,8,0:0:0:0:
256,192,42936,1,0,0:0:0:0:
256,192,43024,1,0,0:0:0:0:
256,192,43111,1,8,0:0:0:0:
256,192,43287,1,0,0:0:0:0:
256,192,43462,1,12,0:0:0:0:
256,192,43638,1,12,0:0:0:0:
256,192,43813,1,0,0:0:0:0:
256,192,43989,1,0,0:0:0:0:
256,192,44076,1,0,0:0:0:0:
256,192,44164,1,8,0:0:0:0:
256,192,44252,1,8,0:0:0:0:
256,192,44339,1,0,0:0:0:0:
256,192,44515,1,12,0:0:0:0:
256,192,44690,1,12,0:0:0:0:
256,192,44866,1,8,0:0:0:0:
256,192,44953,1,8,0:0:0:0:
256,192,45041,1,0,0:0:0:0:
256,192,45217,1,0,0:0:0:0:
256,192,45392,1,0,0:0:0:0:
256,192,45480,1,8,0:0:0:0:
256,192,45568,1,8,0:0:0:0:
256,192,45655,1,8,0:0:0:0:
256,192,45743,1,0,0:0:0:0:
256,192,45918,1,0,0:0:0:0:
256,192,46094,1,8,0:0:0:0:
256,192,46269,1,4,0:0:0:0:
256,192,46620,1,0,0:0:0:0:
256,192,46796,1,0,0:0:0:0:
256,192,46971,1,8,0:0:0:0:
256,192,47146,1,0,0:0:0:0:
256,192,47234,1,0,0:0:0:0:
256,192,47322,1,0,0:0:0:0:
256,192,47497,1,8,0:0:0:0:
256,192,47585,1,8,0:0:0:0:
256,192,47673,1,0,0:0:0:0:
256,192,47848,1,8,0:0:0:0:
256,192,48024,1,0,0:0:0:0:
256,192,48111,1,8,0:0:0:0:
256,192,48199,1,0,0:0:0:0:
256,192,48287,1,0,0:0:0:0:
256,192,48375,1,8,0:0:0:0:
256,192,48725,1,0,0:0:0:0:
256,192,48901,1,0,0:0:0:0:
256,192,48989,1,0,0:0:0:0:
256,192,49076,1,8,0:0:0:0:
256,192,49252,1,0,0:0:0:0:
256,192,49427,1,8,0:0:0:0:
256,192,49515,1,8,0:0:0:0:
256,192,49603,1,0,0:0:0:0:
256,192,49690,1,0,0:0:0:0:
256,192,49778,1,8,0:0:0:0:
256,192,49953,1,8,0:0:0:0:
256,192,50041,1,8,0:0:0:0:
256,192,50129,1,0,0:0:0:0:
256,192,50304,1,0,0:0:0:0:
256,192,50392,1,0,0:0:0:0:
256,192,50480,1,8,0:0:0:0:
256,192,50655,1,0,0:0:0:0:
256,192,51006,1,12,0:0:0:0:
256,192,51357,1,12,0:0:0:0:
256,192,51532,1,12,0:0:0:0:
256,192,51708,1,0,0:0:0:0:
256,192,51796,1,0,0:0:0:0:
256,192,51883,1,0,0:0:0:0:
256,192,52059,1,0,0:0:0:0:
256,192,52146,1,8,0:0:0:0:
256,192,52234,1,0,0:0:0:0:
256,192,52322,1,0,0:0:0:0:
256,192,52410,1,8,0:0:0:0:
256,192,52497,1,0,0:0:0:0:
256,192,52585,1,8,0:0:0:0:
256,192,52673,1,8,0:0:0:0:
256,192,52761,1,0,0:0:0:0:
256,192,52848,1,0,0:0:0:0:
256,192,52936,1,8,0:0:0:0:
256,192,53111,1,4,0:0:0:0:
256,192,53462,1,8,0:0:0:0:
256,192,53638,1,8,0:0:0:0:
256,192,53813,1,8,0:0:0:0:
256,192,53989,1,8,0:0:0:0:
256,192,54164,1,0,0:0:0:0:
256,192,54339,1,0,0:0:0:0:
256,192,54515,1,8,0:0:0:0:
256,192,54690,1,4,0:0:0:0:
256,192,55041,1,8,0:0:0:0:
256,192,55392,1,0,0:0:0:0:
256,192,55568,1,0,0:0:0:0:
256,192,55743,1,8,0:0:0:0:
256,192,56094,1,8,0:0:0:0:
256,192,56269,1,0,0:0:0:0:
256,192,56445,1,0,0:0:0:0:
256,192,56620,1,8,0:0:0:0:
256,192,56708,1,0,0:0:0:0:
256,192,56796,1,0,0:0:0:0:
256,192,56971,1,0,0:0:0:0:
256,192,57146,1,8,0:0:0:0:
256,192,57322,1,0,0:0:0:0:
256,192,57410,1,0,0:0:0:0:
256,192,57497,1,8,0:0:0:0:
256,192,57673,1,0,0:0:0:0:
256,192,57848,1,8,0:0:0:0:
256,192,58024,1,8,0:0:0:0:
256,192,58111,1,8,0:0:0:0:
256,192,58199,1,0,0:0:0:0:
256,192,58375,1,0,0:0:0:0:
256,192,58550,1,8,0:0:0:0:
256,192,58725,1,0,0:0:0:0:
256,192,58813,1,0,0:0:0:0:
256,192,58901,1,8,0:0:0:0:
256,192,58989,1,8,0:0:0:0:
256,192,59076,1,0,0:0:0:0:
256,192,59252,1,8,0:0:0:0:
256,192,59427,1,0,0:0:0:0:
256,192,59603,1,0,0:0:0:0:
256,192,59953,1,8,0:0:0:0:
256,192,60129,1,8,0:0:0:0:
256,192,60217,1,8,0:0:0:0:
256,192,60304,1,0,0:0:0:0:
256,192,60480,1,0,0:0:0:0:
256,192,60655,1,8,0:0:0:0:
256,192,60831,1,0,0:0:0:0:
256,192,60918,1,0,0:0:0:0:
256,192,61006,1,8,0:0:0:0:
256,192,61182,1,0,0:0:0:0:
256,192,61357,1,8,0:0:0:0:
256,192,61532,1,0,0:0:0:0:
256,192,61620,1,0,0:0:0:0:
256,192,61708,1,0,0:0:0:0:
256,192,61883,1,0,0:0:0:0:
256,192,62059,1,8,0:0:0:0:
256,192,62146,1,8,0:0:0:0:
256,192,62234,1,0,0:0:0:0:
256,192,62322,1,0,0:0:0:0:
256,192,62410,1,8,0:0:0:0:
256,192,62585,1,0,0:0:0:0:
256,192,62761,1,8,0:0:0:0:
256,192,62936,1,0,0:0:0:0:
256,192,63024,1,0,0:0:0:0:
256,192,63111,1,8,0:0:0:0:
256,192,63287,1,0,0:0:0:0:
256,192,63462,1,8,0:0:0:0:
256,192,63638,1,0,0:0:0:0:
256,192,63725,1,0,0:0:0:0:
256,192,63813,1,0,0:0:0:0:
256,192,63989,1,0,0:0:0:0:
256,192,64164,1,8,0:0:0:0:
256,192,64339,1,12,0:0:0:0:
256,192,64690,1,0,0:0:0:0:
256,192,64866,1,8,0:0:0:0:
256,192,64953,1,8,0:0:0:0:
256,192,65041,1,0,0:0:0:0:
256,192,65217,1,8,0:0:0:0:
256,192,65392,1,0,0:0:0:0:
256,192,65480,1,0,0:0:0:0:
256,192,65568,1,8,0:0:0:0:
256,192,65655,1,8,0:0:0:0:
256,192,65743,1,8,0:0:0:0:
256,192,65918,1,4,0:0:0:0:
256,192,66269,1,8,0:0:0:0:
256,192,66620,1,0,0:0:0:0:
256,192,66796,1,0,0:0:0:0:
256,192,66971,1,8,0:0:0:0:
256,192,67322,1,8,0:0:0:0:
256,192,67497,1,0,0:0:0:0:
256,192,67673,1,8,0:0:0:0:
256,192,67848,1,0,0:0:0:0:
256,192,67936,1,0,0:0:0:0:
256,192,68024,1,0,0:0:0:0:
256,192,68199,1,0,0:0:0:0:
256,192,68375,1,8,0:0:0:0:
256,192,68462,1,8,0:0:0:0:
256,192,68550,1,0,0:0:0:0:
256,192,68638,1,0,0:0:0:0:
256,192,68725,1,8,0:0:0:0:
256,192,68901,1,0,0:0:0:0:
256,192,69076,1,8,0:0:0:0:
256,192,69252,1,0,0:0:0:0:
256,192,69339,1,8,0:0:0:0:
256,192,69427,1,0,0:0:0:0:
256,192,69603,1,0,0:0:0:0:
256,192,69778,1,8,0:0:0:0:
256,192,69866,1,8,0:0:0:0:
256,192,69953,1,8,0:0:0:0:
256,192,70041,1,8,0:0:0:0:
256,192,70129,1,0,0:0:0:0:
256,192,70304,1,0,0:0:0:0:
256,192,70480,1,8,0:0:0:0:
256,192,70655,1,8,0:0:0:0:
256,192,70743,1,8,0:0:0:0:
256,192,70831,1,0,0:0:0:0:
256,192,71006,1,0,0:0:0:0:
256,192,71182,1,8,0:0:0:0:
256,192,71269,1,8,0:0:0:0:
256,192,71357,1,0,0:0:0:0:
256,192,71445,1,8,0:0:0:0:
256,192,71532,1,0,0:0:0:0:
256,192,71708,1,0,0:0:0:0:
256,192,71883,1,8,0:0:0:0:
256,192,72059,1,0,0:0:0:0:
256,192,72146,1,0,0:0:0:0:
256,192,72234,1,8,0:0:0:0:
256,192,72322,1,8,0:0:0:0:
256,192,72410,1,0,0:0:0:0:
256,192,72497,1,0,0:0:0:0:
256,192,72585,1,8,0:0:0:0:
256,192,72761,1,0,0:0:0:0:
256,192,72848,1,0,0:0:0:0:
256,192,72936,1,0,0:0:0:0:
256,192,73111,1,0,0:0:0:0:
256,192,73287,1,8,0:0:0:0:
256,192,73462,1,0,0:0:0:0:
256,192,73550,1,0,0:0:0:0:
256,192,73638,1,8,0:0:0:0:
256,192,73813,1,0,0:0:0:0:
256,192,73989,1,8,0:0:0:0:
256,192,74076,1,8,0:0:0:0:
256,192,74164,1,0,0:0:0:0:
256,192,74252,1,0,0:0:0:0:
256,192,74339,1,8,0:0:0:0:
256,192,74515,1,0,0:0:0:0:
256,192,74690,1,8,0:0:0:0:
256,192,74866,1,0,0:0:0:0:
256,192,74953,1,0,0:0:0:0:
256,192,75041,1,0,0:0:0:0:
256,192,75217,1,0,0:0:0:0:
256,192,75392,1,8,0:0:0:0:
256,192,75568,1,12,0:0:0:0:
256,192,75918,1,0,0:0:0:0:
256,192,76094,1,8,0:0:0:0:
256,192,76269,1,0,0:0:0:0:
256,192,76357,1,0,0:0:0:0:
256,192,76445,1,8,0:0:0:0:
256,192,76532,1,8,0:0:0:0:
256,192,76620,1,8,0:0:0:0:
256,192,76708,1,8,0:0:0:0:
256,192,76796,1,0,0:0:0:0:
256,192,76883,1,0,0:0:0:0:
256,192,76971,1,0,0:0:0:0:
256,192,77146,1,4,0:0:0:0:
256,192,77497,1,8,0:0:0:0:
256,192,77673,1,0,0:0:0:0:
256,192,77761,1,0,0:0:0:0:
256,192,77848,1,0,0:0:0:0:
256,192,78024,1,0,0:0:0:0:
256,192,78199,1,8,0:0:0:0:
256,192,78375,1,0,0:0:0:0:
256,192,78462,1,8,0:0:0:0:
256,192,78550,1,0,0:0:0:0:
256,192,78638,1,0,0:0:0:0:
256,192,78725,1,0,0:0:0:0:
256,192,78901,1,8,0:0:0:0:
256,192,79076,1,8,0:0:0:0:
256,192,79164,1,8,0:0:0:0:
256,192,79252,1,0,0:0:0:0:
256,192,79339,1,0,0:0:0:0:
256,192,79427,1,0,0:0:0:0:
256,192,79603,1,8,0:0:0:0:
256,192,79953,1,4,0:0:0:0:
256,192,80304,1,8,0:0:0:0:
256,192,80480,1,0,0:0:0:0:
256,192,80568,1,0,0:0:0:0:
256,192,80655,1,0,0:0:0:0:
256,192,80831,1,0,0:0:0:0:
256,192,81006,1,8,0:0:0:0:
256,192,81182,1,0,0:0:0:0:
256,192,81269,1,0,0:0:0:0:
256,192,81357,1,8,0:0:0:0:
256,192,81445,1,8,0:0:0:0:
256,192,81532,1,0,0:0:0:0:
256,192,81708,1,8,0:0:0:0:
256,192,81883,1,8,0:0:0:0:
256,192,81971,1,0,0:0:0:0:
256,192,82059,1,8,0:0:0:0:
256,192,82146,1,8,0:0:0:0:
256,192,82234,1,0,0:0:0:0:
256,192,82410,1,0,0:0:0:0:
256,192,82585,1,8,0:0:0:0:
256,192,82761,1,4,0:0:0:0:
256,192,83111,1,8,0:0:0:0:
256,192,83287,1,0,0:0:0:0:
256,192,83375,1,8,0:0:0:0:
256,192,83462,1,0,0:0:0:0:
256,192,83638,1,0,0:0:0:0:
256,192,83813,1,8,0:0:0:0:
256,192,83989,1,8,0:0:0:0:
256,192,84076,1,8,0:0:0:0:
256,192,84164,1,0,0:0:0:0:
256,192,84339,1,0,0:0:0:0:
256,192,84515,1,8,0:0:0:0:
256,192,84690,1,0,0:0:0:0:
256,192,84778,1,0,0:0:0:0:
256,192,84866,1,8,0:0:0:0:
256,192,84953,1,8,0:0:0:0:
256,192,85041,1,0,0:0:0:0:
256,192,85129,1,0,0:0:0:0:
256,192,85217,1,8,0:0:0:0:
256,192,85392,1,8,0:0:0:0:
256,192,85568,1,4,0:0:0:0:
256,192,85918,1,0,0:0:0:0:
256,192,86094,1,12,0:0:0:0:
256,192,86445,1,0,0:0:0:0:
256,192,86620,1,8,0:0:0:0:
256,192,86796,1,8,0:0:0:0:
256,192,86971,1,0,0:0:0:0:
256,192,87146,1,0,0:0:0:0:
256,192,87322,1,8,0:0:0:0:
256,192,87497,1,0,0:0:0:0:
256,192,87673,1,0,0:0:0:0:
256,192,87848,1,0,0:0:0:0:
256,192,88024,1,8,0:0:0:0:
256,192,88199,1,12,0:0:0:0:
