osu file format v13

[General]
AudioFilename: IGNITEup_1.mp3
AudioLeadIn: 0
PreviewTime: 53713
Countdown: 0
SampleSet: Soft
StackLeniency: 0.7
Mode: 0
LetterboxInBreaks: 0
WidescreenStoryboard: 0

[Editor]
DistanceSpacing: 1
BeatDivisor: 4
GridSize: 4
TimelineZoom: 1.6

[Metadata]
Title:IGNITE (TV size ver.)
TitleUnicode:IGNITE (TV size ver.)
Artist:Aoi Eir
ArtistUnicode:藍井エイル
Creator:Guy
Version:Insane
Source:ソードアート・オンラインⅡ
Tags:SWORD ART ONLINE II sao 2nd season opening Phantom Bullet
BeatmapID:453042
BeatmapSetID:190222

[Difficulty]
HPDrainRate:7
CircleSize:4
OverallDifficulty:8
ApproachRate:9
SliderMultiplier:1.7
SliderTickRate:1

[Events]
//Background and Video events
0,0,"bg.jpg",0,0
Video,250,"video.avi"
//Break Periods
//Storyboard Layer 0 (Background)
//Storyboard Layer 1 (Fail)
//Storyboard Layer 2 (Pass)
//Storyboard Layer 3 (Foreground)
//Storyboard Sound Samples
//Background Colour Transformations
3,100,163,162,255

[TimingPoints]
1783,350.877192982456,4,2,1,60,1,0
1783,-133.333333333333,4,2,2,60,0,0
11782,-133.333333333333,4,2,1,40,0,0
12309,-133.333333333333,4,2,1,60,0,0
12835,-100,4,2,1,70,0,0
18625,-133.333333333333,4,2,2,60,0,0
21256,-133.333333333333,4,2,1,40,0,0
21782,-133.333333333333,4,2,2,60,0,0
24239,-133.333333333333,4,2,1,40,0,0
24414,-133.333333333333,4,2,2,60,0,0
25467,-133.333333333333,4,2,1,40,0,0
25993,-133.333333333333,4,2,2,60,0,0
26870,-133.333333333333,4,2,1,40,0,0
27572,-133.333333333333,4,2,2,30,0,0
27747,-133.333333333333,4,2,2,60,0,0
29853,-100,4,2,1,70,0,0
55116,-100,4,2,1,70,0,1
85993,-100,4,2,1,70,0,0

[Colours]
Combo1 : 255,0,204
Combo2 : 39,231,124
Combo3 : 232,139,0
Combo4 : 1,197,254
Combo5 : 170,201,48

[HitObjects]
136,192,1783,6,0,L|208:200,1,63.7500024318696,2|0,0:0|0:0,0:0:0:0:
300,112,2133,2,0,L|228:104,1,63.7500024318696,0|0,0:0|0:0,0:0:0:0:
104,92,2484,2,0,L|120:224,1,127.500004863739,2|0,0:0|0:0,0:0:0:0:
396,276,3186,1,2,0:0:0:0:
360,176,3361,5,0,0:0:0:0:
372,296,3537,1,0,0:0:0:0:
384,152,3712,1,0,0:0:0:0:
436,280,3888,2,0,P|448:316|456:352,1,63.7500024318696,2|0,0:0|0:0,0:0:0:0:
284,292,4239,2,0,P|291:261|301:230,1,63.7500024318696
380,64,4590,6,0,P|412:184|412:216,1,127.500004863739,2|0,0:0|0:0,0:0:0:0:
216,376,5291,2,0,P|184:256|184:224,1,127.500004863739,2|0,0:0|0:0,0:0:0:0:
232,128,5818,1,0,0:0:0:0:
116,192,5993,2,0,P|76:216|48:228,1,63.7500024318696,2|0,0:0|0:0,0:0:0:0:
172,24,6344,1,0,0:0:0:0:
144,108,6519,1,0,0:0:0:0:
116,192,6695,2,0,L|88:256,1,63.7500024318696,2|0,0:0|0:0,0:0:0:0:
200,356,7046,2,0,P|184:320|172:288,1,63.7500024318696,0|0,0:0|0:0,0:0:0:0:
256,76,7397,6,0,P|236:172|240:220,1,127.500004863739,2|0,0:0|0:0,0:0:0:0:
272,284,7923,1,0,0:0:0:0:
360,280,8098,2,0,P|412:236|496:248,1,127.500004863739,2|0,0:0|0:0,0:0:0:0:
212,348,8800,2,0,P|177:344|140:336,1,63.7500024318696,2|0,0:0|0:0,0:0:0:0:
12,272,9151,2,0,P|46:268|84:260,1,63.7500024318696
256,192,9502,2,0,P|240:96|216:60,1,127.500004863739,2|0,0:0|0:0,0:0:0:0:
148,336,10204,5,2,0:0:0:0:
148,336,10379,2,0,P|156:280|160:264,1,63.7500024318696
76,152,10730,2,0,P|82:183|85:214,1,63.7500024318696,0|2,0:0|0:0,0:0:0:0:
236,356,11081,2,0,P|288:344|312:344,1,63.7500024318696
400,352,11432,1,2,0:0:0:0:
379,215,11607,5,2,0:0:0:0:
284,244,11782,1,2,0:0:0:0:
448,288,11958,1,2,0:0:0:0:
400,124,12133,1,2,0:0:0:0:
352,312,12309,1,8,0:0:0:0:
344,56,12484,1,8,0:0:0:0:
260,340,12835,1,0,0:0:0:0:
260,340,12923,1,0,0:0:0:0:
260,340,13011,6,0,P|213:333|168:324,1,85,4|0,0:0|0:0,0:0:0:0:
44,272,13361,1,8,0:0:0:0:
176,240,13537,1,0,0:0:0:0:
80,376,13712,2,0,P|72:316|76:276,1,85,2|0,0:0|0:0,0:0:0:0:
251,127,14063,2,0,P|259:169|258:212,1,85,8|0,0:0|0:0,0:0:0:0:
116,304,14414,6,0,P|56:288|44:192,2,170,2|8|2,0:0|0:0|0:0,0:0:0:0:
78,86,15291,1,0,0:0:0:0:
104,234,15467,1,8,0:0:0:0:
200,136,15642,1,0,0:0:0:0:
152,296,15818,6,0,P|136:352|132:380,1,85,4|0,0:0|0:0,0:0:0:0:
16,208,16168,2,0,P|23:249|35:290,1,85,8|0,0:0|0:0,0:0:0:0:
248,328,16519,1,2,0:0:0:0:
120,156,16695,1,2,0:0:0:0:
120,156,16782,1,2,0:0:0:0:
120,156,16870,1,8,0:0:0:0:
192,368,17046,6,0,P|268:320|352:332,1,170,4|8,0:0|0:3,0:0:0:0:
436,368,17572,1,8,0:3:0:0:
224,236,17747,1,4,0:3:0:0:
360,256,17923,1,4,0:0:0:0:
112,312,18098,1,2,0:0:0:0:
104,332,18625,6,0,P|56:304|148:256,1,191.250007295609,4|2,0:0|0:0,0:0:0:0:
192,312,19326,2,0,P|224:356|244:368,1,63.7500024318696,0|0,0:0|0:0,0:0:0:0:
344,344,19677,2,0,P|366:294|366:270,1,63.7500024318696,0|2,3:0|0:0,0:0:0:0:
304,160,20028,6,0,L|276:304,1,127.500004863739,0|0,0:0|3:0,0:0:0:0:
136,372,20554,2,0,L|56:356,1,63.7500024318696,0|2,0:0|0:0,0:0:0:0:
0,304,20905,1,0,0:0:0:0:
184,280,21081,2,0,L|176:192,1,63.7500024318696,0|2,3:0|0:0,0:0:0:0:
76,136,21432,6,0,L|88:276,1,127.500004863739,2|0,0:0|3:0,0:0:0:0:
48,360,21958,1,2,0:0:0:0:
180,216,22133,2,0,P|212:264|220:288,1,63.7500024318696
140,384,22484,2,0,L|148:320,1,63.7500024318696,0|0,3:0|0:0,0:0:0:0:
168,128,22835,5,0,0:0:0:0:
312,356,23186,2,0,L|392:348,1,63.7500024318696,0|0,3:0|0:0,0:0:0:0:
476,300,23537,2,0,P|448:272|352:272,1,127.500004863739,0|0,0:0|3:0,0:0:0:0:
224,344,24063,1,0,0:0:0:0:
296,200,24239,6,0,P|312:164|320:120,1,63.7500024318696,2|0,0:0|0:0,0:0:0:0:
188,68,24590,2,0,P|196:98|209:127,1,63.7500024318696,0|2,3:0|0:0,0:0:0:0:
358,211,24940,2,0,P|327:202|295:200,1,63.7500024318696,0|0,0:0|0:0,0:0:0:0:
148,288,25291,2,0,P|170:265|188:239,1,63.7500024318696,0|2,3:0|0:0,0:0:0:0:
279,74,25642,6,0,L|299:221,1,127.500004863739,2|0,0:0|3:0,0:0:0:0:
388,312,26168,1,2,0:0:0:0:
288,360,26344,2,0,L|296:284,1,63.7500024318696
384,156,26695,2,0,L|390:219,1,63.7500024318696,0|2,3:0|0:0,0:0:0:0:
444,368,27046,6,0,P|388:320|288:360,1,191.250007295609,2|4,0:0|0:0,0:0:0:0:
444,368,27747,2,0,L|436:276,1,63.7500024318696
296,176,28098,2,0,L|304:268,1,63.7500024318696,0|2,3:0|0:0,0:0:0:0:
316,380,28449,5,0,0:0:0:0:
404,228,28625,2,0,L|476:240,1,63.7500024318696,2|0,0:0|0:0,0:0:0:0:
236,312,28975,1,2,0:0:0:0:
236,312,29151,2,0,L|100:288,1,127.500004863739
296,224,29677,1,0,0:0:0:0:
296,224,29765,1,0,0:0:0:0:
296,224,29853,6,0,P|320:96|360:92,1,170,4|2,0:0|0:0,0:0:0:0:
436,152,30379,1,0,0:0:0:0:
344,292,30554,2,0,P|324:328|312:372,1,85,2|0,0:0|0:0,0:0:0:0:
444,256,30905,1,8,0:0:0:0:
252,296,31081,1,0,0:0:0:0:
456,268,31256,6,0,L|440:176,1,85,2|0,0:0|0:0,0:0:0:0:
328,72,31607,1,2,0:0:0:0:
264,160,31782,1,0,0:0:0:0:
352,196,31958,1,2,0:0:0:0:
244,48,32133,1,0,0:0:0:0:
280,248,32309,2,0,P|288:308|288:360,1,85,4|0,0:3|0:0,0:0:0:0:
120,360,32660,6,0,P|72:308|112:220,1,170,2|2,0:0|0:0,0:0:0:0:
264,160,33186,1,0,0:0:0:0:
145,289,33361,1,2,0:0:0:0:
264,160,33537,1,0,0:0:0:0:
104,68,33712,2,0,P|112:132|120:164,1,85,8|0,0:0|0:0,0:0:0:0:
140,184,33975,1,0,0:0:0:0:
180,192,34063,6,0,P|240:180|284:180,1,85,2|0,0:0|0:0,0:0:0:0:
404,280,34414,2,0,P|344:292|300:292,1,85,2|8,0:0|0:3,0:0:0:0:
196,204,34765,1,2,0:0:0:0:
388,268,34940,1,0,0:0:0:0:
248,360,35116,2,0,P|240:308|240:264,1,85,8|0,0:0|0:0,0:0:0:0:
328,72,35467,5,2,0:0:0:0:
400,156,35642,2,0,L|304:164,1,85,0|2,0:0|0:0,0:0:0:0:
184,96,35993,2,0,L|192:192,1,85,0|2,0:0|0:0,0:0:0:0:
284,264,36344,1,0,0:0:0:0:
108,212,36519,1,8,0:0:0:0:
280,88,36695,1,0,0:0:0:0:
280,88,36782,1,0,0:0:0:0:
280,88,36870,6,0,P|288:148|288:176,1,85,2|0,0:0|0:0,0:0:0:0:
216,368,37221,1,2,0:0:0:0:
148,228,37396,1,0,0:0:0:0:
80,312,37572,1,2,0:0:0:0:
248,228,37747,1,0,0:0:0:0:
56,148,37923,2,0,P|56:204|64:240,1,85,8|0,0:0|0:0,0:0:0:0:
300,356,38274,6,0,L|284:176,1,170,4|8,0:0|0:0,0:0:0:0:
132,116,38800,2,0,P|224:132|272:76,1,170,4|8,0:0|0:0,0:0:0:0:
396,24,39326,2,0,L|412:204,1,170,4|2,0:0|0:0,0:0:0:0:
372,328,39853,2,0,P|324:316|272:312,1,85,4|0,0:0|0:0,0:0:0:0:
168,336,40204,1,2,0:0:0:0:
348,232,40379,1,4,0:0:0:0:
248,372,40554,1,2,0:0:0:0:
244,332,40642,1,2,0:0:0:0:
240,292,40730,1,2,0:0:0:0:
236,252,40818,1,2,0:0:0:0:
232,216,40905,1,2,0:0:0:0:
312,352,41081,5,12,0:0:0:0:
120,260,41256,1,8,0:0:0:0:
204,180,41432,2,0,L|196:276,1,85,2|8,0:0|0:0,0:0:0:0:
44,348,41782,2,0,L|36:252,1,85,8|2,0:0|0:0,0:0:0:0:
108,164,42133,1,8,0:0:0:0:
288,236,42309,1,8,0:0:0:0:
136,328,42484,6,0,L|144:236,1,85,2|8,0:0|0:0,0:0:0:0:
272,68,42835,2,0,L|280:160,1,85,8|2,0:0|0:0,0:0:0:0:
279,152,43098,1,0,0:0:0:0:
279,152,43186,1,8,0:0:0:0:
204,100,43361,1,2,0:0:0:0:
224,264,43537,1,8,0:0:0:0:
360,172,43712,1,2,0:0:0:0:
256,328,43888,6,0,L|160:316,1,85,12|8,0:0|0:0,0:0:0:0:
64,344,44239,1,2,0:0:0:0:
224,252,44414,1,8,0:0:0:0:
328,356,44590,2,0,L|420:336,1,85,8|2,0:0|0:0,0:0:0:0:
288,188,44940,1,8,0:0:0:0:
228,336,45116,1,8,0:0:0:0:
372,240,45291,5,2,0:0:0:0:
204,300,45467,1,8,0:0:0:0:
316,156,45642,2,0,P|308:104|292:56,1,85,8|2,0:0|0:0,0:0:0:0:
240,4,45905,1,2,0:0:0:0:
228,32,45993,2,0,P|216:64|208:116,1,85,8|8,0:0|0:3,0:0:0:0:
184,220,46344,1,4,0:3:0:0:
336,148,46519,1,2,0:0:0:0:
248,340,46695,6,0,P|168:320|76:304,1,170,4|2,0:0|0:0,0:0:0:0:
344,368,47221,1,2,0:0:0:0:
256,244,47397,2,0,P|244:180|240:132,1,85,8|0,0:0|0:0,0:0:0:0:
408,52,47747,2,0,P|402:94|393:135,1,85,0|2,0:0|0:0,0:0:0:0:
336,276,48098,5,2,0:0:0:0:
176,204,48274,1,8,0:0:0:0:
300,140,48449,1,0,0:0:0:0:
204,288,48625,1,2,0:0:0:0:
384,356,48800,2,0,L|380:252,1,85,8|2,0:0|0:0,0:0:0:0:
248,88,49151,2,0,L|252:192,1,85,0|0,0:0|0:0,0:0:0:0:
156,348,49502,6,0,P|124:292|196:212,1,170,4|0,0:0|0:0,0:0:0:0:
376,352,50028,1,2,0:0:0:0:
204,288,50204,1,8,0:0:0:0:
408,320,50379,1,2,0:0:0:0:
204,288,50554,2,0,L|212:376,1,85,8|0,0:0|0:0,0:0:0:0:
380,180,50905,5,12,0:0:0:0:
232,352,51081,1,2,0:0:0:0:
268,120,51256,1,2,0:0:0:0:
348,324,51432,2,0,L|448:308,1,85,12|0,0:0|0:0,0:0:0:0:
144,304,51782,1,2,0:0:0:0:
356,232,51958,1,12,0:0:0:0:
164,368,52133,1,0,0:0:0:0:
184,176,52309,1,8,0:0:0:0:
288,364,52484,5,2,0:0:0:0:
288,364,52572,1,2,0:0:0:0:
288,364,52660,2,0,P|300:332|304:312,1,42.5,8|0,0:0|0:0,0:0:0:0:
236,160,52835,2,0,P|224:128|220:108,1,42.5,2|0,0:0|0:0,0:0:0:0:
152,328,53011,6,0,P|108:316|88:308,1,42.5,8|0,0:0|0:0,0:0:0:0:
48,196,53186,2,0,P|92:208|112:216,1,42.5,2|0,0:0|0:0,0:0:0:0:
240,360,53361,2,0,L|224:300,1,42.5,8|0,0:0|0:0,0:0:0:0:
176,100,53537,1,2,0:0:0:0:
244,216,53888,5,0,0:0:0:0:
308,128,54063,1,0,0:0:0:0:
200,116,54239,1,0,0:0:0:0:
328,216,54414,1,4,0:3:0:0:
188,268,54590,1,2,0:0:0:0:
364,140,54765,1,4,0:3:0:0:
176,68,54940,1,0,0:0:0:0:
276,288,55116,6,0,L|268:376,1,85,4|0,0:0|0:0,0:0:0:0:
176,200,55467,1,8,0:0:0:0:
300,156,55642,1,0,0:0:0:0:
176,308,55818,2,0,L|76:288,1,85,2|0,0:0|0:0,0:0:0:0:
352,236,56168,1,8,0:0:0:0:
232,364,56344,1,0,0:0:0:0:
208,228,56519,6,0,P|192:160|184:140,1,85,2|0,0:0|0:0,0:0:0:0:
108,20,56870,2,0,P|94:60|86:101,1,85,8|0,0:0|0:0,0:0:0:0:
112,200,57221,1,2,0:0:0:0:
188,64,57397,1,0,0:0:0:0:
292,212,57572,2,0,P|252:224|208:228,1,85,8|0,0:0|0:0,0:0:0:0:
368,344,57923,6,0,L|352:148,1,170,4|8,0:0|0:0,0:0:0:0:
344,72,58449,1,0,0:0:0:0:
280,244,58625,1,2,0:0:0:0:
436,204,58800,1,0,0:0:0:0:
260,116,58975,2,0,L|168:136,1,85,8|0,0:0|0:0,0:0:0:0:
100,288,59326,5,2,0:0:0:0:
252,272,59502,1,0,0:0:0:0:
100,288,59677,2,0,L|108:200,1,85,8|0,0:0|0:0,0:0:0:0:
164,72,60028,1,2,0:0:0:0:
40,120,60204,1,0,0:0:0:0:
188,216,60379,1,8,0:0:0:0:
288,32,60554,1,0,0:0:0:0:
288,32,60642,1,0,0:0:0:0:
288,32,60730,6,0,L|276:128,1,85,4|0,0:0|0:0,0:0:0:0:
312,244,61081,1,8,0:0:0:0:
208,140,61256,1,0,0:0:0:0:
284,328,61432,2,0,L|380:312,1,85,2|0,0:0|0:0,0:0:0:0:
368,184,61782,1,8,0:0:0:0:
208,296,61958,1,0,0:0:0:0:
408,348,62133,6,0,L|392:252,1,85,2|0,0:0|0:0,0:0:0:0:
308,56,62484,2,0,L|292:152,1,85,8|0,0:0|0:0,0:0:0:0:
284,240,62835,1,2,0:0:0:0:
212,92,63011,1,0,0:0:0:0:
312,320,63186,1,8,0:0:0:0:
344,296,63274,1,0,0:0:0:0:
364,264,63361,1,0,0:0:0:0:
364,224,63449,1,0,0:0:0:0:
356,188,63537,5,4,0:0:0:0:
216,284,63712,1,0,0:0:0:0:
212,92,63888,1,8,0:0:0:0:
312,320,64063,2,0,P|324:268|324:232,1,85,0|2,0:0|0:0,0:0:0:0:
184,44,64414,2,0,P|172:96|172:132,1,85,0|8,0:0|0:0,0:0:0:0:
200,300,64765,1,4,0:0:0:0:
264,196,64940,5,2,0:0:0:0:
100,268,65116,1,4,0:3:0:0:
292,300,65291,1,8,0:0:0:0:
312,260,65379,1,8,0:0:0:0:
312,216,65467,1,8,0:0:0:0:
160,92,65642,5,4,0:3:0:0:
163,130,65730,1,4,0:3:0:0:
167,168,65818,1,2,0:0:0:0:
171,205,65905,1,0,0:0:0:0:
175,243,65993,1,8,0:0:0:0:
182,280,66081,1,8,0:0:0:0:
193,316,66168,1,8,0:0:0:0:
212,348,66256,1,8,0:0:0:0:
244,368,66344,6,0,P|330:368|377:294,1,170,4|8,0:0|0:0,0:0:0:0:
264,196,66870,1,0,0:0:0:0:
152,332,67046,1,2,0:0:0:0:
284,280,67221,1,0,0:0:0:0:
168,168,67397,2,0,P|164:108|168:76,1,85,8|0,0:0|0:0,0:0:0:0:
316,132,67747,5,2,0:0:0:0:
212,244,67923,1,0,0:0:0:0:
352,284,68098,2,0,P|336:324|324:372,1,85,8|0,0:0|0:0,0:0:0:0:
468,284,68449,2,0,P|457:242|441:203,1,85,2|0,0:0|0:0,0:0:0:0:
248,324,68800,1,8,0:0:0:0:
212,164,68975,1,0,0:0:0:0:
352,352,69151,6,0,P|424:360|460:260,1,170,4|8,0:0|0:0,0:0:0:0:
280,236,69677,1,0,0:0:0:0:
394,292,69853,2,0,P|398:240|398:204,1,85,2|0,0:0|0:0,0:0:0:0:
272,112,70204,1,8,0:0:0:0:
280,236,70379,1,0,0:0:0:0:
400,116,70554,6,0,L|312:96,1,85,2|0,0:0|0:0,0:0:0:0:
132,196,70905,2,0,L|220:176,1,85,8|8,0:0|0:0,0:0:0:0:
356,252,71256,1,2,0:0:0:0:
224,312,71432,1,0,0:0:0:0:
232,156,71607,2,0,L|240:56,1,85,8|0,0:0|0:0,0:0:0:0:
372,40,71958,6,0,L|360:216,1,170,4|8,0:0|0:0,0:0:0:0:
164,236,72484,1,0,0:0:0:0:
164,236,72572,1,0,0:0:0:0:
164,236,72660,2,0,L|172:324,1,85,2|0,0:0|0:0,0:0:0:0:
344,376,73011,2,0,L|351:291,1,85,8|0,0:0|0:0,0:0:0:0:
268,136,73361,5,2,0:0:0:0:
120,264,73537,1,0,0:0:0:0:
288,264,73712,2,0,L|268:144,1,85,8|0,0:0|0:0,0:0:0:0:
156,48,74063,5,2,0:0:0:0:
112,60,74151,1,2,0:0:0:0:
84,96,74239,1,2,0:0:0:0:
80,144,74326,1,0,0:0:0:0:
100,188,74414,1,8,0:3:0:0:
128,204,74502,1,0,0:0:0:0:
160,200,74590,1,4,0:3:0:0:
192,196,74677,1,0,0:0:0:0:
224,192,74765,6,0,L|336:172,1,85,4|0,0:0|0:0,0:0:0:0:
124,288,75116,1,8,0:0:0:0:
156,124,75291,2,0,L|140:208,1,85,0|2,0:0|0:0,0:0:0:0:
192,340,75642,1,0,0:0:0:0:
376,292,75818,1,8,0:0:0:0:
224,220,75993,1,0,0:0:0:0:
224,220,76081,1,0,0:0:0:0:
224,220,76168,5,2,0:0:0:0:
312,344,76344,1,0,0:0:0:0:
312,156,76519,1,8,0:0:0:0:
184,296,76695,5,2,0:0:0:0:
144,300,76782,1,2,0:0:0:0:
104,284,76870,1,8,0:0:0:0:
80,248,76958,1,0,0:0:0:0:
80,204,77046,1,0,0:0:0:0:
100,168,77133,1,0,0:0:0:0:
140,152,77221,1,8,0:0:0:0:
184,156,77309,1,0,0:0:0:0:
220,176,77397,1,0,0:0:0:0:
260,188,77484,1,0,0:0:0:0:
304,188,77572,6,0,P|352:184|412:164,1,85,4|0,0:0|0:0,0:0:0:0:
264,88,77923,1,8,0:0:0:0:
155,226,78098,2,0,P|208:248|256:258,1,85,0|2,0:0|0:0,0:0:0:0:
392,256,78449,1,0,0:0:0:0:
340,112,78625,1,8,0:0:0:0:
288,316,78800,1,0,0:0:0:0:
232,184,78975,5,2,0:0:0:0:
368,332,79151,1,0,0:0:0:0:
208,328,79326,1,8,0:0:0:0:
420,268,79502,2,0,P|416:208|404:156,1,85,0|2,0:0|0:0,0:0:0:0:
272,72,79853,1,0,0:0:0:0:
320,232,80028,1,8,0:0:0:0:
440,116,80204,1,0,0:0:0:0:
440,116,80291,1,0,0:0:0:0:
440,116,80379,6,0,B|392:136|392:136|324:128|324:128|268:144,1,170,4|8,0:0|0:0,0:0:0:0:
312,300,80905,2,0,P|324:244|328:208,1,85,0|2,0:0|0:0,0:0:0:0:
188,80,81256,2,0,P|176:136|172:172,1,85,0|8,0:0|0:0,0:0:0:0:
312,300,81607,6,0,P|368:296|400:288,1,85,0|2,0:0|0:0,0:0:0:0:
472,216,81958,1,0,0:0:0:0:
320,136,82133,1,8,0:0:0:0:
232,316,82309,1,0,0:0:0:0:
384,248,82484,1,2,0:0:0:0:
200,184,82660,1,0,0:0:0:0:
384,248,82835,2,0,L|376:152,1,85,8|0,0:0|0:0,0:0:0:0:
236,48,83186,5,4,0:0:0:0:
272,212,83361,1,0,0:0:0:0:
164,120,83537,1,8,0:0:0:0:
312,284,83712,1,0,0:0:0:0:
316,144,83888,1,2,0:0:0:0:
244,324,84063,1,0,0:0:0:0:
196,192,84239,1,8,0:0:0:0:
316,364,84414,1,0,0:0:0:0:
196,192,84590,2,0,L|208:288,1,85,2|0,0:0|0:0,0:0:0:0:
360,184,84940,5,8,0:0:0:0:
280,108,85116,1,0,0:0:0:0:
236,320,85291,1,8,0:3:0:0:
341,288,85467,1,4,0:3:0:0:
180,137,85642,1,8,0:0:0:0:
156,244,85818,1,0,0:0:0:0:
444,256,85993,6,0,L|432:340,2,85,4|0|8,0:0|0:0|0:0,0:0:0:0:
208,260,86519,2,0,L|220:176,2,85,4|0|0,0:0|0:0|0:0,0:0:0:0:
268,348,87046,1,8,0:0:0:0:
312,152,87221,1,0,0:0:0:0:
364,332,87397,5,8,0:0:0:0:
248,224,87572,1,2,0:0:0:0:
400,176,87747,1,2,0:0:0:0:
272,304,87923,5,8,0:0:0:0:
224,151,88098,1,2,0:0:0:0:
381,186,88273,1,2,0:0:0:0:
184,272,88449,5,8,0:0:0:0:
244,72,88625,1,4,0:0:0:0:
