osu file format v13

[General]
AudioFilename: IGNITEup_1.mp3
AudioLeadIn: 0
PreviewTime: 53713
Countdown: 0
SampleSet: Soft
StackLeniency: 0.7
Mode: 0
LetterboxInBreaks: 0
WidescreenStoryboard: 0

[Editor]
Bookmarks: 40204,50379,71958
DistanceSpacing: 1
BeatDivisor: 4
GridSize: 4
TimelineZoom: 1.7

[Metadata]
Title:IGNITE (TV size ver.)
TitleUnicode:IGNITE (TV size ver.)
Artist:Aoi Eir
ArtistUnicode:藍井エイル
Creator:Guy
Version:Easy
Source:ソードアート・オンラインⅡ
Tags:SWORD ART ONLINE II sao 2nd season opening Phantom Bullet
BeatmapID:453122
BeatmapSetID:190222

[Difficulty]
HPDrainRate:2
CircleSize:2.5
OverallDifficulty:2
ApproachRate:3
SliderMultiplier:0.9
SliderTickRate:1

[Events]
//Background and Video events
0,0,"bg.jpg",0,0
Video,250,"video.avi"
//Break Periods
//Storyboard Layer 0 (Background)
//Storyboard Layer 1 (Fail)
//Storyboard Layer 2 (Pass)
//Storyboard Layer 3 (Foreground)
//Storyboard Sound Samples
//Background Colour Transformations
3,100,163,162,255

[TimingPoints]
1783,350.877192982456,4,2,2,60,1,0
12309,-100,4,2,1,70,0,0
13274,-100,4,2,3,60,0,0
13449,-100,4,2,1,70,0,0
14677,-100,4,2,3,60,0,0
14853,-100,4,2,1,70,0,0
15818,-100,4,2,1,50,0,0
18625,-100,4,2,2,60,0,0
21256,-100,4,2,1,40,0,0
21782,-100,4,2,2,60,0,0
24239,-100,4,2,1,40,0,0
24414,-100,4,2,2,60,0,0
25467,-100,4,2,1,40,0,0
25993,-100,4,2,2,60,0,0
26870,-100,4,2,1,40,0,0
27747,-100,4,2,2,60,0,0
29853,-100,4,2,1,70,0,0
33625,-100,4,2,3,60,0,0
33800,-100,4,2,1,70,0,0
52133,-100,4,2,1,50,0,0
55116,-100,4,2,1,70,0,1
55379,-100,4,2,3,60,0,1
55554,-100,4,2,1,70,0,1
56081,-100,4,2,3,60,0,1
56256,-100,4,2,1,70,0,1
58186,-100,4,2,3,60,0,1
58361,-100,4,2,1,70,0,1
60993,-100,4,2,3,60,0,1
61168,-100,4,2,1,70,0,1
61695,-100,4,2,3,60,0,1
61870,-100,4,2,1,70,0,1
64502,-100,4,2,3,60,0,1
64677,-100,4,2,1,70,0,1
66607,-100,4,2,3,60,0,1
66782,-100,4,2,1,70,0,1
67309,-100,4,2,3,60,0,1
67484,-100,4,2,1,70,0,1
69414,-100,4,2,3,60,0,1
69590,-100,4,2,1,70,0,1
70818,-100,4,2,3,60,0,1
70993,-100,4,2,1,70,0,1
72221,-100,4,2,3,60,0,1
72397,-100,4,2,1,70,0,1
72923,-100,4,2,3,60,0,1
73098,-100,4,2,1,70,0,1
75028,-100,4,2,3,60,0,1
75204,-100,4,2,1,70,0,1
75730,-100,4,2,3,60,0,1
75905,-100,4,2,1,70,0,1
79239,-100,4,2,3,60,0,1
79414,-100,4,2,1,70,0,1
80642,-100,4,2,3,60,0,1
80818,-100,4,2,1,70,0,1
81344,-100,4,2,3,60,0,1
81519,-100,4,2,1,70,0,1
83449,-100,4,2,3,60,0,1
83625,-100,4,2,1,70,0,1
85993,-100,4,2,1,60,0,0
88361,-100,4,2,3,50,0,0
88537,-100,4,2,1,60,0,0

[Colours]
Combo1 : 255,0,204
Combo2 : 39,231,124
Combo3 : 232,139,0
Combo4 : 1,197,254
Combo5 : 170,201,48

[HitObjects]
64,100,1783,6,0,P|156:116|236:60,1,180,2|2,0:0|0:0,0:0:0:0:
404,32,3186,2,0,L|396:132,1,90,2|0,0:0|0:0,0:0:0:0:
388,212,3888,1,2,0:0:0:0:
224,284,4590,6,0,B|208:224|208:224|216:168|216:168|204:104,2,180,2|2|2,0:0|0:0|0:0,0:0:0:0:
388,212,6695,1,2,0:0:0:0:
224,284,7397,6,0,P|136:264|48:236,1,180,2|2,0:0|0:0,0:0:0:0:
44,56,8800,2,0,P|132:76|220:104,1,180,2|2,0:0|0:0,0:0:0:0:
320,252,10204,2,0,L|304:68,2,180,2|2|2,0:0|0:0|0:0,0:0:0:0:
140,248,12309,1,4,0:0:0:0:
292,340,13011,6,0,P|356:336|408:232,1,180,4|2,0:0|0:0,0:0:0:0:
368,160,14063,1,8,0:0:0:0:
276,172,14414,2,0,B|228:156|180:174|180:174|132:192|84:176,1,180,2|2,0:0|0:0,0:0:0:0:
136,96,15467,1,8,0:0:0:0:
256,192,15818,12,4,17923,0:0:0:0:
304,304,18625,6,0,P|348:312|384:148,1,270,4|0,0:0|3:0,0:0:0:0:
292,144,20028,2,0,P|224:156|144:152,2,135,2|0|0,0:0|0:0|3:0,0:0:0:0:
332,64,21432,6,0,P|384:52|468:140,1,180,2|2,0:0|0:0,0:0:0:0:
468,224,22484,1,0,3:0:0:0:
388,268,22835,2,0,P|296:244|200:244,1,180
120,252,23888,1,0,3:0:0:0:
160,160,24239,5,2,0:0:0:0:
200,288,24765,2,0,P|120:340|31:249,1,225,2|2,0:0|0:0,0:0:0:0:
60,180,25993,1,2,0:0:0:0:
120,252,26344,2,0,P|144:208|152:156,1,90,0|0,0:0|3:0,0:0:0:0:
96,96,27046,6,0,P|168:80|241:150,1,180,2|0,0:0|0:0,0:0:0:0:
228,236,28098,1,0,3:0:0:0:
260,320,28449,2,0,P|312:328|400:228,1,180,0|2,0:0|0:0,0:0:0:0:
356,68,29853,6,0,P|304:124|300:224,1,180,4|2,0:0|0:0,0:0:0:0:
388,212,30905,1,8,0:0:0:0:
360,296,31256,2,0,P|276:316|208:252,1,180,2|2,0:0|0:0,0:0:0:0:
212,168,32309,1,4,0:3:0:0:
180,84,32660,6,0,B|152:92|132:120|132:120|80:76|16:84,2,180,2|2|2,0:0|0:0|0:0,0:0:0:0:
268,104,34414,1,8,0:0:0:0:
208,172,34765,2,0,P|196:224|196:264,1,90,2|8,0:0|0:0,0:0:0:0:
252,332,35467,6,0,P|336:348|420:288,1,180,2|2,0:0|0:0,0:0:0:0:
428,212,36519,1,8,0:0:0:0:
352,164,36870,2,0,L|360:68,2,90,2|2|2,0:0|0:0|0:0,0:0:0:0:
340,252,37923,1,8,0:0:0:0:
268,200,38274,6,0,B|240:172|232:136|232:136|184:172|116:176|116:176|108:140|80:112,2,270,4|4|4,0:0|0:0|0:0,0:0:0:0:
348,240,40730,1,2,0:0:0:0:
420,184,41081,5,12,0:0:0:0:
272,288,41782,2,0,L|180:268,1,90,2|8,0:0|0:0,0:0:0:0:
96,244,42484,1,2,0:0:0:0:
180,84,43186,2,0,L|272:64,1,90,2|8,0:0|0:0,0:0:0:0:
356,48,43888,5,12,0:0:0:0:
444,208,44590,2,0,P|399:195|352:188,1,90,2|8,0:0|0:0,0:0:0:0:
284,240,45291,2,0,P|239:251|192:260,1,90,2|8,0:0|0:0,0:0:0:0:
108,276,45993,2,0,P|52:208|80:128,1,180,2|4,0:0|0:0,0:0:0:0:
236,40,47397,6,0,P|240:88|232:144,1,90,8|0,0:0|0:0,0:0:0:0:
220,220,48098,2,0,P|276:236|380:164,2,180,2|8|4,0:0|0:0|0:0,0:0:0:0:
156,156,49853,1,8,0:0:0:0:
132,243,50204,2,0,P|124:275|124:331,1,90,2|8,0:0|0:0,0:0:0:0:
212,350,50905,6,0,L|348:338,2,135,12|12|12,0:0|0:0|0:0,0:0:0:0:
256,192,52133,12,8,53537,0:0:0:0:
208,348,54414,6,0,P|252:332|300:328,1,90,4|4,0:3|0:3,0:0:0:0:
384,312,55116,6,0,P|432:260|396:156,2,180,4|2|2,0:0|0:0|0:0,0:0:0:0:
300,280,56870,1,8,0:0:0:0:
228,332,57221,2,0,P|176:344|136:344,1,90,2|8,0:0|0:0,0:0:0:0:
56,316,57923,6,0,L|72:128,1,180,4|2,0:0|0:0,0:0:0:0:
132,72,58975,1,8,0:0:0:0:
212,116,59326,2,0,L|304:100,1,90,2|8,0:0|0:0,0:0:0:0:
320,188,60028,2,0,L|231:203,1,90,2|8,0:0|0:0,0:0:0:0:
252,292,60730,6,0,L|444:260,2,180,4|2|2,0:0|0:0|0:0,0:0:0:0:
164,268,62484,1,8,0:0:0:0:
228,204,62835,2,0,P|224:160|208:104,1,90,2|8,0:0|0:0,0:0:0:0:
160,40,63537,6,0,P|112:84|93:114,1,90,4|8,0:0|0:0,0:0:0:0:
84,192,64239,2,0,P|116:284|144:320,1,135,2|4,0:0|0:0,0:0:0:0:
256,376,65291,1,4,0:3:0:0:
260,288,65642,2,0,P|256:240|248:200,1,90,2|8,0:0|0:0,0:0:0:0:
212,116,66344,6,0,P|136:76|28:76,2,180,4|2|2,0:0|0:0|0:0,0:0:0:0:
280,172,68098,1,8,0:0:0:0:
196,204,68449,2,0,P|180:256|180:296,1,90,2|8,0:0|0:0,0:0:0:0:
252,348,69151,6,0,P|328:360|400:284,1,180,4|2,0:0|0:0,0:0:0:0:
432,208,70204,1,8,0:0:0:0:
344,212,70554,2,0,B|276:204|232:252|232:252|192:256|172:216,1,180,2|2,0:0|0:0,0:0:0:0:
132,156,71607,1,8,0:0:0:0:
100,72,71958,6,0,P|136:40|264:36,2,180,4|2|2,0:0|0:0|0:0,0:0:0:0:
83,160,73712,1,8,0:0:0:0:
104,248,74063,2,0,P|124:296|160:336,1,90,2|8,0:0|0:0,0:0:0:0:
236,340,74765,6,0,P|304:300|408:300,2,180,4|2|2,0:0|0:0|0:0,0:0:0:0:
204,256,76519,1,8,0:0:0:0:
176,172,76870,2,0,L|148:80,1,90,2|8,0:0|0:0,0:0:0:0:
90,17,77572,6,0,P|63:66|62:113,1,90,4|8,0:0|0:0,0:0:0:0:
76,188,78274,2,0,P|96:222|108:276,1,90,2|8,0:0|0:0,0:0:0:0:
60,348,78975,2,0,P|152:352|196:268,1,180,2|2,0:0|0:0,0:0:0:0:
172,196,80028,1,8,0:0:0:0:
220,120,80379,6,0,P|268:156|392:156,2,180,2|2|2,0:0|0:0|0:0,0:0:0:0:
208,32,82133,1,8,0:0:0:0:
296,24,82484,2,0,L|392:16,1,90,2|8,0:0|0:0,0:0:0:0:
464,60,83186,6,0,P|476:148|456:252,1,180,4|2,0:0|0:0,0:0:0:0:
388,292,84239,1,8,0:0:0:0:
300,280,84590,1,2,0:0:0:0:
248,208,84940,2,0,P|240:172|252:108,2,90,8|2|8,0:0|0:0|0:0,0:0:0:0:
300,280,85993,6,0,P|232:296|168:248,2,135,4|4|4,0:0|0:0|0:0,0:0:0:0:
356,208,87397,2,0,P|364:172|352:108,1,90,2|8,0:0|0:0,0:0:0:0:
300,52,88098,2,0,P|236:35|178:67,1,135,2|4,0:0|0:0,0:0:0:0:
