osu file format v13

[General]
AudioFilename: ignite.mp3
AudioLeadIn: 0
PreviewTime: 53264
Countdown: 0
SampleSet: Soft
StackLeniency: 0.7
Mode: 3
LetterboxInBreaks: 0
EpilepsyWarning: 1
SpecialStyle: 0
WidescreenStoryboard: 1

[Editor]
DistanceSpacing: 0.8
BeatDivisor: 2
GridSize: 8
TimelineZoom: 1.1

[Metadata]
Title:IGNITE (TV size ver.)
TitleUnicode:IGNITE (TV size ver.)
Artist:Aoi Eir
ArtistUnicode:藍井エイル
Creator:-Sh1n1-
Version:7K Lv.6
Source:ソードアート・オンラインⅡ
Tags:SWORD ART ONLINE II sao 2nd season opening Phantom Bullet ExUsagi mike91lau
BeatmapID:472148
BeatmapSetID:199055

[Difficulty]
HPDrainRate:7
CircleSize:7
OverallDifficulty:7
ApproachRate:5
SliderMultiplier:1.2
SliderTickRate:1

[Events]
//Background and Video events
0,0,"SAO BG.jpg",0,0
//Break Periods
//Storyboard Layer 0 (Background)
//Storyboard Layer 1 (Fail)
//Storyboard Layer 2 (Pass)
//Storyboard Layer 3 (Foreground)
Sprite,Foreground,Centre,"SB\images\title.png",320,240 F,0,12299,12474,0,1 M,1,12299,12825,766,102,480,102 F,0,12474,16948,1 M,0,12825,17035,480,102,388,102 F,0,16948,17386,1,0 M,0,17035,17386,388,102,274,102
Sprite,Foreground,Centre,"SB\images\shini 7K 1.png",320,240 F,0,12474,12649,0,1 M,1,12474,13000,766,382,480,382 F,0,12649,17123,1 M,0,13000,17210,480,382,388,382 F,0,17123,17561,1,0 M,0,17210,17561,388,382,274,382
//Storyboard Sound Samples

[TimingPoints]
-157,350.877192982456,4,2,1,40,1,0
11685,-100,4,3,30,70,0,0
12123,-100,4,2,1,70,0,0
17299,-100,4,3,30,70,0,0
18000,-100,4,3,30,30,0,0
18176,-100,4,2,1,70,0,0
20106,-100,4,3,30,30,0,0
20281,-100,4,2,1,50,0,0
31948,-100,4,2,1,70,0,0
33790,-100,4,3,30,70,0,0
34667,-100,4,2,1,70,0,0
40457,-100,4,3,30,70,0,0
42474,-100,4,2,1,70,0,0
43176,-100,4,3,30,70,0,0
45193,-100,4,2,1,70,0,0
54579,-100,4,2,1,70,0,1
77035,-100,4,2,1,70,0,0
87474,-100,4,3,30,60,0,0
88000,-100,4,2,1,70,0,0

[HitObjects]
256,192,1246,5,2,0:0:0:0:
182,192,1597,1,0,0:0:0:0:
109,192,1948,1,0,0:0:0:0:
329,192,2299,1,0,0:0:0:0:
402,192,2474,1,0,0:0:0:0:
109,192,2825,1,0,0:0:0:0:
256,192,3176,1,0,0:0:0:0:
475,192,3351,1,0,0:0:0:0:
329,192,3702,1,0,0:0:0:0:
182,192,4053,128,0,6860:0:0:0:0:
256,192,6860,128,0,9667:0:0:0:0:
329,192,9667,128,0,11246:0:0:0:0:
36,192,11246,1,0,0:0:0:0:
109,192,11421,1,0,0:0:0:0:
182,192,11597,1,0,0:0:0:0:
475,192,11772,1,8,0:0:0:0:
256,192,11772,1,8,0:0:0:0:
256,192,11948,1,8,0:0:0:0:
475,192,11948,1,8,0:0:0:0:
109,192,12474,1,0,0:0:0:0:
402,192,12474,1,0,0:0:0:0:
256,192,12825,1,0,0:0:0:0:
329,192,13176,1,0,0:0:0:0:
182,192,13527,1,0,0:0:0:0:
329,192,13878,1,0,0:0:0:0:
182,192,14228,1,0,0:0:0:0:
402,192,14579,1,0,0:0:0:0:
109,192,14930,1,0,0:0:0:0:
36,192,15281,1,0,0:0:0:0:
475,192,15632,1,0,0:0:0:0:
109,192,15983,1,0,0:0:0:0:
402,192,16158,1,0,0:0:0:0:
109,192,16334,1,0,0:0:0:0:
402,192,16509,1,0,0:0:0:0:
36,192,16860,1,0,0:0:0:0:
475,192,17035,1,0,0:0:0:0:
256,192,17211,1,0,0:0:0:0:
109,192,17386,1,8,0:0:0:0:
402,192,17386,1,8,0:0:0:0:
109,192,17562,1,8,0:0:0:0:
402,192,17562,1,8,0:0:0:0:
256,192,18088,1,4,0:0:0:0:
329,192,18439,1,0,0:0:0:0:
402,192,18790,1,0,0:0:0:0:
36,192,19141,1,0,0:0:0:0:
475,192,19492,1,0,0:0:0:0:
109,192,19842,1,0,0:0:0:0:
402,192,20193,1,4,0:0:0:0:
256,192,20720,1,0,0:0:0:0:
329,192,20895,1,0,0:0:0:0:
109,192,21246,1,0,0:0:0:0:
402,192,21597,1,0,0:0:0:0:
109,192,21948,1,0,0:0:0:0:
402,192,22299,1,0,0:0:0:0:
256,192,22650,1,0,0:0:0:0:
109,192,23000,1,0,0:0:0:0:
256,192,23702,1,0,0:0:0:0:
475,192,23702,1,0,0:0:0:0:
182,192,24053,1,0,0:0:0:0:
36,192,24404,1,0,0:0:0:0:
256,192,24930,1,0,0:0:0:0:
329,192,25106,1,0,0:0:0:0:
36,192,25457,1,0,0:0:0:0:
182,192,25807,1,0,0:0:0:0:
329,192,26158,1,0,0:0:0:0:
402,192,26509,1,0,0:0:0:0:
182,192,26685,1,0,0:0:0:0:
475,192,26860,1,0,0:0:0:0:
109,192,27035,1,0,0:0:0:0:
329,192,27211,1,0,0:0:0:0:
36,192,27386,1,0,0:0:0:0:
402,192,27562,1,0,0:0:0:0:
182,192,27737,1,0,0:0:0:0:
475,192,27913,1,0,0:0:0:0:
36,192,28088,1,0,0:0:0:0:
329,192,28264,128,0,28965:0:0:0:0:
109,192,29316,1,0,0:0:0:0:
329,192,29667,1,0,0:0:0:0:
182,192,30018,1,0,0:0:0:0:
475,192,30369,1,0,0:0:0:0:
329,192,30369,1,0,0:0:0:0:
182,192,30720,1,0,0:0:0:0:
256,192,31071,1,0,0:0:0:0:
109,192,31421,1,0,0:0:0:0:
475,192,31772,1,0,0:0:0:0:
329,192,31772,1,0,0:0:0:0:
36,192,32123,1,0,0:0:0:0:
182,192,32474,1,0,0:0:0:0:
329,192,32825,1,0,0:0:0:0:
475,192,33176,1,0,0:0:0:0:
182,192,33176,1,0,0:0:0:0:
36,192,33527,1,0,0:0:0:0:
256,192,33878,1,8,0:0:0:0:
256,192,34053,1,8,0:0:0:0:
256,192,34404,1,8,0:0:0:0:
256,192,34579,1,8,0:0:0:0:
36,192,34930,1,0,0:0:0:0:
475,192,35281,1,0,0:0:0:0:
109,192,35632,1,0,0:0:0:0:
402,192,35983,1,0,0:0:0:0:
182,192,35983,1,0,0:0:0:0:
36,192,36334,1,0,0:0:0:0:
475,192,36685,1,0,0:0:0:0:
109,192,37035,1,0,0:0:0:0:
256,192,37211,1,0,0:0:0:0:
402,192,37386,1,0,0:0:0:0:
329,192,37737,128,0,38264:0:0:0:0:
182,192,38264,1,0,0:0:0:0:
109,192,38614,1,0,0:0:0:0:
182,192,38790,128,0,39316:0:0:0:0:
329,192,39316,1,0,0:0:0:0:
475,192,39667,1,0,0:0:0:0:
402,192,39842,1,0,0:0:0:0:
182,192,40018,1,0,0:0:0:0:
256,192,40193,1,0,0:0:0:0:
329,192,40369,1,0,0:0:0:0:
402,192,40544,1,8,0:0:0:0:
475,192,40544,1,8,0:0:0:0:
475,192,40720,1,8,0:0:0:0:
402,192,40720,1,8,0:0:0:0:
182,192,41071,1,8,0:0:0:0:
329,192,41071,1,8,0:0:0:0:
182,192,41246,1,8,0:0:0:0:
329,192,41246,1,8,0:0:0:0:
36,192,41597,1,8,0:0:0:0:
109,192,41597,1,8,0:0:0:0:
109,192,41772,1,8,0:0:0:0:
36,192,41772,1,8,0:0:0:0:
329,192,42123,1,8,0:0:0:0:
182,192,42123,1,8,0:0:0:0:
182,192,42299,1,8,0:0:0:0:
329,192,42299,1,8,0:0:0:0:
256,192,42650,1,0,0:0:0:0:
256,192,43000,1,0,0:0:0:0:
182,192,43351,1,8,0:0:0:0:
329,192,43351,1,8,0:0:0:0:
109,192,43527,1,8,0:0:0:0:
402,192,43527,1,8,0:0:0:0:
182,192,43878,1,8,0:0:0:0:
329,192,43878,1,8,0:0:0:0:
402,192,44053,1,8,0:0:0:0:
109,192,44053,1,8,0:0:0:0:
36,192,44404,1,8,0:0:0:0:
182,192,44404,1,8,0:0:0:0:
36,192,44579,1,8,0:0:0:0:
182,192,44579,1,8,0:0:0:0:
475,192,44930,1,8,0:0:0:0:
329,192,44930,1,8,0:0:0:0:
475,192,45106,1,8,0:0:0:0:
329,192,45106,1,8,0:0:0:0:
182,192,45281,1,0,0:0:0:0:
109,192,45369,1,0,0:0:0:0:
36,192,45457,1,0,0:0:0:0:
475,192,45632,1,0,0:0:0:0:
329,192,45807,1,0,0:0:0:0:
256,192,45983,1,0,0:0:0:0:
36,192,46158,128,0,46860:0:0:0:0:
182,192,46509,1,0,0:0:0:0:
329,192,46860,1,0,0:0:0:0:
475,192,46860,1,0,0:0:0:0:
182,192,47211,1,0,0:0:0:0:
402,192,47562,1,0,0:0:0:0:
109,192,47913,1,0,0:0:0:0:
402,192,48264,1,0,0:0:0:0:
475,192,48264,1,0,0:0:0:0:
182,192,48614,1,0,0:0:0:0:
329,192,48965,1,0,0:0:0:0:
475,192,48965,1,0,0:0:0:0:
109,192,49316,1,0,0:0:0:0:
256,192,49667,1,0,0:0:0:0:
402,192,50018,1,0,0:0:0:0:
36,192,50369,1,0,0:0:0:0:
36,192,50544,1,0,0:0:0:0:
182,192,50895,1,0,0:0:0:0:
329,192,51246,1,0,0:0:0:0:
256,192,51421,128,0,53000:0:0:0:0:
109,192,51948,1,8,0:0:0:0:
402,192,52123,1,0,0:0:0:0:
182,192,52299,1,0,0:0:0:0:
329,192,52474,1,8,0:0:0:0:
36,192,52650,1,0,0:0:0:0:
475,192,52825,1,0,0:0:0:0:
402,192,53000,1,8,0:0:0:0:
182,192,53878,1,2,0:0:0:0:
182,192,54053,1,0,0:0:0:0:
256,192,54579,128,0,55983:0:0:0:0:
109,192,54579,1,0,0:0:0:0:
402,192,54930,1,0,0:0:0:0:
36,192,55281,1,0,0:0:0:0:
475,192,55632,1,0,0:0:0:0:
109,192,55983,128,0,57386:0:0:0:0:
402,192,56334,1,0,0:0:0:0:
329,192,56685,1,0,0:0:0:0:
475,192,57035,1,0,0:0:0:0:
256,192,57386,128,0,58088:0:0:0:0:
36,192,57737,1,8,0:0:0:0:
402,192,58088,128,0,58790:0:0:0:0:
109,192,58439,1,8,0:0:0:0:
256,192,58790,128,0,59492:0:0:0:0:
475,192,59141,1,8,0:0:0:0:
109,192,59492,128,0,59842:0:0:0:0:
402,192,59842,1,8,0:0:0:0:
475,192,60193,128,0,60895:0:0:0:0:
109,192,60544,1,8,0:0:0:0:
329,192,60895,128,0,61597:0:0:0:0:
36,192,61246,1,8,0:0:0:0:
182,192,61597,128,0,62299:0:0:0:0:
402,192,61948,1,8,0:0:0:0:
36,192,62299,128,0,62650:0:0:0:0:
475,192,62650,1,8,0:0:0:0:
329,192,63000,1,0,0:0:0:0:
182,192,63351,1,0,0:0:0:0:
256,192,63702,1,0,0:0:0:0:
402,192,64053,1,0,0:0:0:0:
256,192,64404,1,0,0:0:0:0:
402,192,64755,128,0,65807:0:0:0:0:
109,192,64755,1,0,0:0:0:0:
36,192,65106,1,0,0:0:0:0:
109,192,65457,1,0,0:0:0:0:
182,192,65807,128,0,67211:0:0:0:0:
256,192,65807,1,0,0:0:0:0:
329,192,66158,1,8,0:0:0:0:
402,192,66509,1,0,0:0:0:0:
475,192,66860,1,8,0:0:0:0:
256,192,67211,1,0,0:0:0:0:
329,192,67211,128,0,67737:0:0:0:0:
402,192,67737,128,0,68264:0:0:0:0:
182,192,68264,128,0,69316:0:0:0:0:
36,192,68614,1,0,0:0:0:0:
402,192,68965,1,8,0:0:0:0:
329,192,69316,128,0,70018:0:0:0:0:
109,192,69667,1,8,0:0:0:0:
475,192,70018,128,0,70720:0:0:0:0:
36,192,70369,1,8,0:0:0:0:
329,192,70720,128,0,71071:0:0:0:0:
256,192,71071,1,8,0:0:0:0:
109,192,71421,128,0,72123:0:0:0:0:
475,192,71772,1,8,0:0:0:0:
256,192,72123,128,0,72825:0:0:0:0:
36,192,72474,1,8,0:0:0:0:
402,192,72825,128,0,73527:0:0:0:0:
109,192,73176,1,8,0:0:0:0:
182,192,73527,128,0,73878:0:0:0:0:
475,192,73878,1,8,0:0:0:0:
256,192,74228,1,0,0:0:0:0:
402,192,74579,1,0,0:0:0:0:
329,192,74930,1,0,0:0:0:0:
109,192,75281,1,0,0:0:0:0:
475,192,75632,1,0,0:0:0:0:
36,192,75983,1,0,0:0:0:0:
109,192,76334,128,0,77035:0:0:0:0:
402,192,76685,128,0,77035:0:0:0:0:
256,192,77035,1,0,0:0:0:0:
329,192,77386,1,0,0:0:0:0:
475,192,77386,1,0,0:0:0:0:
182,192,77737,1,0,0:0:0:0:
109,192,78088,1,0,0:0:0:0:
402,192,78088,1,0,0:0:0:0:
256,192,78439,1,0,0:0:0:0:
36,192,78790,1,0,0:0:0:0:
475,192,79141,1,0,0:0:0:0:
256,192,79492,1,0,0:0:0:0:
109,192,79842,1,0,0:0:0:0:
402,192,79842,1,0,0:0:0:0:
329,192,80193,1,0,0:0:0:0:
182,192,80544,1,0,0:0:0:0:
109,192,80895,1,0,0:0:0:0:
329,192,80895,1,0,0:0:0:0:
475,192,81246,1,0,0:0:0:0:
109,192,81597,1,0,0:0:0:0:
402,192,81772,1,0,0:0:0:0:
182,192,82299,1,0,0:0:0:0:
329,192,82299,1,0,0:0:0:0:
256,192,82650,128,0,84053:0:0:0:0:
402,192,83000,1,0,0:0:0:0:
475,192,83176,1,0,0:0:0:0:
109,192,83527,1,0,0:0:0:0:
36,192,83702,1,0,0:0:0:0:
182,192,84053,1,0,0:0:0:0:
329,192,84404,1,0,0:0:0:0:
109,192,84755,1,0,0:0:0:0:
475,192,85106,1,0,0:0:0:0:
109,192,85457,128,0,88088:0:0:0:0:
329,192,85807,1,0,0:0:0:0:
182,192,85983,1,0,0:0:0:0:
402,192,86334,1,0,0:0:0:0:
256,192,86509,1,0,0:0:0:0:
475,192,86860,1,0,0:0:0:0:
329,192,87035,1,0,0:0:0:0:
36,192,87211,1,0,0:0:0:0:
182,192,87386,1,0,0:0:0:0:
475,192,87562,1,0,0:0:0:0:
329,192,87737,1,0,0:0:0:0:
402,192,87913,1,0,0:0:0:0:
256,192,88088,1,0,0:0:0:0:
