osu file format v14

[General]
AudioFilename: ignite.mp3
AudioLeadIn: 0
PreviewTime: 53264
Countdown: 0
SampleSet: Soft
StackLeniency: 0.7
Mode: 3
LetterboxInBreaks: 0
EpilepsyWarning: 1
SpecialStyle: 0
WidescreenStoryboard: 1

[Editor]
DistanceSpacing: 0.8
BeatDivisor: 4
GridSize: 8
TimelineZoom: 1.4

[Metadata]
Title:IGNITE (TV size ver.)
TitleUnicode:IGNITE (TV size ver.)
Artist:Aoi Eir
ArtistUnicode:藍井エイル
Creator:-Sh1n1-
Version:4K Lv.7
Source:ソードアート・オンラインⅡ
Tags:SWORD ART ONLINE II sao 2nd season opening Phantom Bullet ExUsagi mike91lau
BeatmapID:472143
BeatmapSetID:199055

[Difficulty]
HPDrainRate:7
CircleSize:4
OverallDifficulty:7
ApproachRate:5
SliderMultiplier:1.4
SliderTickRate:1

[Events]
//Background and Video events
0,0,"SAO BG.jpg",0,0
//Break Periods
//Storyboard Layer 0 (Background)
//Storyboard Layer 1 (Fail)
//Storyboard Layer 2 (Pass)
//Storyboard Layer 3 (Foreground)
Sprite,Foreground,Centre,"SB\images\title.png",320,240 F,0,12299,12474,0,1 M,1,12299,12825,766,102,480,102 F,0,12474,16948,1 M,0,12825,17035,480,102,388,102 F,0,16948,17386,1,0 M,0,17035,17386,388,102,274,102
Sprite,Foreground,Centre,"SB\images\shini 4K 2.png",320,240 F,0,12474,12649,0,1 M,1,12474,13000,766,382,480,382 F,0,12649,17123,1 M,0,13000,17210,480,382,388,382 F,0,17123,17561,1,0 M,0,17210,17561,388,382,274,382
//Storyboard Sound Samples

[TimingPoints]
-157,350.877192982456,4,2,1,60,1,0
11685,-100,4,3,30,50,0,0
12123,-100,4,2,1,70,0,0
17386,-100,4,3,30,40,0,0
17474,-100,4,2,1,70,0,0
18000,-100,4,3,30,40,0,0
18176,-100,4,2,1,70,0,0
20106,-100,4,3,30,30,0,0
20281,-100,4,3,30,15,0,0
20457,-100,4,2,1,60,0,0
40457,-100,4,3,30,50,0,0
42474,-100,4,2,1,60,0,0
43264,-100,4,3,30,50,0,0
46334,-100,4,2,1,50,0,0
54579,-100,4,2,1,50,0,1
64404,-100,4,3,30,60,0,1
65193,-100,4,2,1,50,0,1
76334,-100,4,3,30,50,0,1
77035,-100,4,2,1,50,0,0
86685,-100,4,3,30,50,0,0
88000,-100,4,2,1,50,0,0

[HitObjects]
64,192,1246,5,0,0:0:0:0:
448,192,1246,1,0,0:0:0:0:
320,192,1421,1,0,0:0:0:0:
192,192,1597,1,0,0:0:0:0:
320,192,1772,1,0,0:0:0:0:
192,192,1948,1,0,0:0:0:0:
448,192,2123,1,0,0:0:0:0:
64,192,2299,1,0,0:0:0:0:
192,192,2474,1,0,0:0:0:0:
448,192,2650,1,0,0:0:0:0:
192,192,2825,1,0,0:0:0:0:
64,192,3000,1,0,0:0:0:0:
448,192,3176,1,0,0:0:0:0:
192,192,3351,1,0,0:0:0:0:
320,192,3527,1,0,0:0:0:0:
192,192,3702,1,0,0:0:0:0:
320,192,3878,1,0,0:0:0:0:
448,192,4053,1,8,0:0:0:0:
64,192,4053,1,0,0:0:0:0:
320,192,4228,1,0,0:0:0:0:
64,192,4404,1,0,0:0:0:0:
448,192,4579,1,0,0:0:0:0:
192,192,4755,1,0,0:0:0:0:
64,192,4930,1,0,0:0:0:0:
320,192,5106,1,0,0:0:0:0:
448,192,5281,1,0,0:0:0:0:
64,192,5457,1,0,0:0:0:0:
320,192,5457,1,8,0:0:0:0:
192,192,5632,1,0,0:0:0:0:
448,192,5807,1,0,0:0:0:0:
64,192,5983,1,0,0:0:0:0:
192,192,6158,1,0,0:0:0:0:
320,192,6334,1,0,0:0:0:0:
192,192,6509,1,0,0:0:0:0:
64,192,6685,1,0,0:0:0:0:
192,192,6860,1,0,0:0:0:0:
448,192,6860,1,8,0:0:0:0:
64,192,7035,1,0,0:0:0:0:
192,192,7211,1,0,0:0:0:0:
320,192,7386,1,0,0:0:0:0:
64,192,7562,1,0,0:0:0:0:
192,192,7737,1,0,0:0:0:0:
320,192,7913,1,0,0:0:0:0:
448,192,8088,1,0,0:0:0:0:
192,192,8264,1,0,0:0:0:0:
320,192,8264,1,8,0:0:0:0:
64,192,8439,1,0,0:0:0:0:
448,192,8614,1,0,0:0:0:0:
64,192,8790,1,0,0:0:0:0:
448,192,8965,1,0,0:0:0:0:
192,192,9141,1,0,0:0:0:0:
320,192,9316,1,0,0:0:0:0:
192,192,9667,128,0,11071:0:0:0:0:
64,192,9667,1,0,0:0:0:0:
320,192,9842,1,0,0:0:0:0:
448,192,10193,1,0,0:0:0:0:
320,192,10544,1,0,0:0:0:0:
64,192,10720,1,0,0:0:0:0:
448,192,10895,1,0,0:0:0:0:
320,192,11071,1,0,0:0:0:0:
64,192,11246,1,0,0:0:0:0:
448,192,11246,1,0,0:0:0:0:
64,192,11421,1,0,0:0:0:0:
448,192,11421,1,0,0:0:0:0:
320,192,11597,1,0,0:0:0:0:
192,192,11772,1,8,0:0:0:0:
448,192,11772,1,8,0:0:0:0:
192,192,11948,1,8,0:0:0:0:
448,192,11948,1,8,0:0:0:0:
64,192,12299,1,0,0:0:0:0:
192,192,12386,1,0,0:0:0:0:
320,192,12474,128,0,15281:0:0:0:0:
64,192,12825,1,0,0:0:0:0:
448,192,13176,1,0,0:0:0:0:
192,192,13351,1,0,0:0:0:0:
64,192,13527,1,0,0:0:0:0:
192,192,13702,128,0,14228:0:0:0:0:
64,192,14228,1,0,0:0:0:0:
192,192,14579,1,0,0:0:0:0:
448,192,14930,1,0,0:0:0:0:
64,192,15281,128,0,17211:0:0:0:0:
192,192,15281,1,0,0:0:0:0:
448,192,15632,1,0,0:0:0:0:
192,192,15983,1,0,0:0:0:0:
448,192,16158,1,0,0:0:0:0:
192,192,16334,1,0,0:0:0:0:
448,192,16509,1,0,0:0:0:0:
448,192,16860,1,0,0:0:0:0:
192,192,17035,1,0,0:0:0:0:
448,192,17211,1,0,0:0:0:0:
320,192,17386,1,8,0:0:0:0:
192,192,17386,1,8,0:0:0:0:
448,192,17562,1,0,0:0:0:0:
320,192,18088,1,4,0:0:0:0:
192,192,18439,1,0,0:0:0:0:
320,192,18614,1,0,0:0:0:0:
64,192,19141,1,0,0:0:0:0:
448,192,19316,1,0,0:0:0:0:
192,192,19492,1,0,0:0:0:0:
320,192,19667,1,0,0:0:0:0:
64,192,19842,1,0,0:0:0:0:
192,192,20018,1,0,0:0:0:0:
320,192,20193,1,4,0:0:0:0:
320,192,20369,1,0,0:0:0:0:
192,192,20720,1,2,0:0:0:0:
192,192,20895,1,0,0:0:0:0:
448,192,21246,1,0,0:0:0:0:
64,192,21421,1,0,0:0:0:0:
320,192,21948,1,0,0:0:0:0:
192,192,22123,1,0,0:0:0:0:
64,192,22299,1,0,0:0:0:0:
192,192,22474,1,0,0:0:0:0:
320,192,22650,1,0,0:0:0:0:
448,192,22825,1,0,0:0:0:0:
64,192,23000,1,0,0:0:0:0:
192,192,23176,1,0,0:0:0:0:
320,192,23351,1,0,0:0:0:0:
192,192,23527,1,0,0:0:0:0:
64,192,23702,1,0,0:0:0:0:
448,192,23702,1,2,0:0:0:0:
320,192,23878,1,0,0:0:0:0:
64,192,24053,1,0,0:0:0:0:
448,192,24228,1,0,0:0:0:0:
64,192,24755,1,0,0:0:0:0:
192,192,24930,1,0,0:0:0:0:
320,192,24930,1,0,0:0:0:0:
64,192,25106,1,0,0:0:0:0:
448,192,25106,1,2,0:0:0:0:
320,192,25281,1,0,0:0:0:0:
192,192,25457,1,0,0:0:0:0:
64,192,25632,1,0,0:0:0:0:
192,192,26158,1,0,0:0:0:0:
320,192,26334,1,0,0:0:0:0:
64,192,26509,1,2,0:0:0:0:
448,192,26509,1,2,0:0:0:0:
192,192,26685,1,0,0:0:0:0:
320,192,26860,1,0,0:0:0:0:
192,192,27035,1,0,0:0:0:0:
64,192,27211,1,0,0:0:0:0:
448,192,27211,1,2,0:0:0:0:
192,192,27386,1,0,0:0:0:0:
320,192,27386,1,0,0:0:0:0:
448,192,27562,1,0,0:0:0:0:
64,192,27737,1,0,0:0:0:0:
192,192,27913,1,0,0:0:0:0:
320,192,28088,1,0,0:0:0:0:
192,192,28264,1,0,0:0:0:0:
320,192,28439,1,0,0:0:0:0:
64,192,28614,128,0,29141:0:0:0:0:
448,192,29316,1,0,0:0:0:0:
192,192,29316,1,0,0:0:0:0:
320,192,29667,1,0,0:0:0:0:
192,192,29842,1,0,0:0:0:0:
64,192,30369,1,0,0:0:0:0:
448,192,30369,1,0,0:0:0:0:
192,192,30544,1,0,0:0:0:0:
320,192,30720,1,0,0:0:0:0:
192,192,30895,1,0,0:0:0:0:
64,192,31071,1,0,0:0:0:0:
448,192,31071,1,0,0:0:0:0:
320,192,31246,1,0,0:0:0:0:
192,192,31421,1,0,0:0:0:0:
448,192,31597,1,0,0:0:0:0:
192,192,31772,1,0,0:0:0:0:
320,192,31772,1,0,0:0:0:0:
64,192,31948,1,0,0:0:0:0:
320,192,32123,1,0,0:0:0:0:
64,192,32299,1,0,0:0:0:0:
320,192,32474,1,0,0:0:0:0:
448,192,32650,1,0,0:0:0:0:
64,192,32825,1,0,0:0:0:0:
192,192,33000,1,0,0:0:0:0:
448,192,33176,1,0,0:0:0:0:
64,192,33176,1,0,0:0:0:0:
192,192,33351,1,0,0:0:0:0:
448,192,33527,1,0,0:0:0:0:
320,192,33702,1,0,0:0:0:0:
64,192,33878,1,0,0:0:0:0:
448,192,34053,1,2,0:0:0:0:
320,192,34053,1,0,0:0:0:0:
64,192,34404,1,0,0:0:0:0:
192,192,34579,1,0,0:0:0:0:
320,192,34579,1,2,0:0:0:0:
64,192,34755,1,0,0:0:0:0:
448,192,34930,1,0,0:0:0:0:
192,192,35106,1,0,0:0:0:0:
448,192,35281,1,0,0:0:0:0:
64,192,35457,1,0,0:0:0:0:
192,192,35632,1,0,0:0:0:0:
320,192,35807,1,0,0:0:0:0:
448,192,35983,1,0,0:0:0:0:
192,192,35983,1,0,0:0:0:0:
64,192,36158,1,0,0:0:0:0:
448,192,36334,1,2,0:0:0:0:
320,192,36334,1,0,0:0:0:0:
64,192,36509,1,0,0:0:0:0:
320,192,36685,1,0,0:0:0:0:
192,192,36860,1,0,0:0:0:0:
64,192,37035,1,0,0:0:0:0:
192,192,37211,1,0,0:0:0:0:
320,192,37386,1,0,0:0:0:0:
448,192,37386,1,0,0:0:0:0:
64,192,37737,128,0,38088:0:0:0:0:
320,192,38088,1,0,0:0:0:0:
448,192,38088,1,8,0:0:0:0:
320,192,38264,1,0,0:0:0:0:
448,192,38264,1,8,0:0:0:0:
192,192,38614,1,0,0:0:0:0:
320,192,38790,128,0,39141:0:0:0:0:
64,192,39141,1,8,0:0:0:0:
192,192,39141,1,0,0:0:0:0:
64,192,39316,1,8,0:0:0:0:
192,192,39316,1,0,0:0:0:0:
64,192,39667,1,0,0:0:0:0:
448,192,39842,1,0,0:0:0:0:
192,192,40018,1,0,0:0:0:0:
320,192,40193,1,0,0:0:0:0:
192,192,40369,1,0,0:0:0:0:
320,192,40544,1,8,0:0:0:0:
448,192,40544,1,8,0:0:0:0:
320,192,40720,1,8,0:0:0:0:
448,192,40720,1,8,0:0:0:0:
192,192,41071,1,8,0:0:0:0:
320,192,41071,1,8,0:0:0:0:
192,192,41246,1,8,0:0:0:0:
320,192,41246,1,8,0:0:0:0:
320,192,41597,1,8,0:0:0:0:
64,192,41597,1,8,0:0:0:0:
64,192,41772,1,8,0:0:0:0:
320,192,41772,1,8,0:0:0:0:
448,192,42123,1,8,0:0:0:0:
192,192,42123,1,8,0:0:0:0:
192,192,42299,1,8,0:0:0:0:
448,192,42299,1,8,0:0:0:0:
320,192,42650,1,0,0:0:0:0:
192,192,42825,1,0,0:0:0:0:
320,192,43000,1,0,0:0:0:0:
448,192,43176,1,0,0:0:0:0:
64,192,43351,1,8,0:0:0:0:
192,192,43351,1,8,0:0:0:0:
64,192,43527,1,8,0:0:0:0:
192,192,43527,1,8,0:0:0:0:
448,192,43878,1,8,0:0:0:0:
320,192,43878,1,8,0:0:0:0:
320,192,44053,1,8,0:0:0:0:
448,192,44053,1,8,0:0:0:0:
448,192,44404,1,8,0:0:0:0:
64,192,44404,1,8,0:0:0:0:
64,192,44579,1,8,0:0:0:0:
448,192,44579,1,8,0:0:0:0:
192,192,44930,1,8,0:0:0:0:
320,192,44930,1,8,0:0:0:0:
192,192,45106,1,8,0:0:0:0:
320,192,45106,1,8,0:0:0:0:
64,192,45281,1,8,0:0:0:0:
192,192,45369,1,8,0:0:0:0:
320,192,45457,1,8,0:0:0:0:
448,192,45632,1,8,0:0:0:0:
320,192,45807,1,8,0:0:0:0:
192,192,45983,1,8,0:0:0:0:
64,192,46158,1,8,0:0:0:0:
448,192,46158,128,0,46509:0:0:0:0:
192,192,46509,1,0,0:0:0:0:
320,192,46509,128,0,46860:0:0:0:0:
64,192,46860,1,0,0:0:0:0:
192,192,47211,1,0,0:0:0:0:
320,192,47211,128,0,47562:0:0:0:0:
448,192,47562,1,0,0:0:0:0:
64,192,47737,1,0,0:0:0:0:
192,192,47737,128,0,48264:0:0:0:0:
320,192,48264,1,0,0:0:0:0:
448,192,48264,128,0,48614:0:0:0:0:
192,192,48614,1,0,0:0:0:0:
64,192,48614,128,0,48965:0:0:0:0:
320,192,48965,1,0,0:0:0:0:
448,192,49141,1,0,0:0:0:0:
192,192,49316,1,0,0:0:0:0:
320,192,49492,1,0,0:0:0:0:
448,192,49667,1,0,0:0:0:0:
320,192,49842,1,0,0:0:0:0:
192,192,50018,1,0,0:0:0:0:
448,192,50018,1,0,0:0:0:0:
64,192,50193,1,0,0:0:0:0:
320,192,50369,1,0,0:0:0:0:
448,192,50544,1,0,0:0:0:0:
64,192,50720,1,0,0:0:0:0:
448,192,50895,1,0,0:0:0:0:
64,192,51071,1,0,0:0:0:0:
320,192,51246,1,0,0:0:0:0:
192,192,51421,1,0,0:0:0:0:
320,192,51597,1,0,0:0:0:0:
192,192,51772,1,0,0:0:0:0:
448,192,51948,1,0,0:0:0:0:
320,192,52035,1,0,0:0:0:0:
64,192,52123,1,0,0:0:0:0:
192,192,52211,1,0,0:0:0:0:
448,192,52299,1,0,0:0:0:0:
320,192,52386,1,0,0:0:0:0:
64,192,52474,1,0,0:0:0:0:
192,192,52562,1,0,0:0:0:0:
448,192,52650,1,0,0:0:0:0:
320,192,52737,1,0,0:0:0:0:
192,192,52825,1,0,0:0:0:0:
448,192,53000,1,0,0:0:0:0:
320,192,53000,1,0,0:0:0:0:
448,192,53878,1,2,0:0:0:0:
320,192,54053,1,0,0:0:0:0:
64,192,54053,128,0,54579:0:0:0:0:
320,192,54579,128,0,55983:0:0:0:0:
192,192,54579,1,0,0:0:0:0:
64,192,54930,1,8,0:0:0:0:
192,192,54930,1,8,0:0:0:0:
192,192,55281,1,0,0:0:0:0:
448,192,55457,1,0,0:0:0:0:
64,192,55632,1,8,0:0:0:0:
192,192,55632,1,8,0:0:0:0:
192,192,55983,1,0,0:0:0:0:
448,192,55983,128,0,57386:0:0:0:0:
64,192,56334,1,8,0:0:0:0:
192,192,56334,1,8,0:0:0:0:
64,192,56685,1,0,0:0:0:0:
320,192,56860,1,0,0:0:0:0:
192,192,57035,1,8,0:0:0:0:
64,192,57035,1,8,0:0:0:0:
64,192,57386,128,0,58088:0:0:0:0:
320,192,57386,1,0,0:0:0:0:
192,192,57737,1,0,0:0:0:0:
448,192,57737,1,8,0:0:0:0:
320,192,58088,1,0,0:0:0:0:
448,192,58088,128,0,58790:0:0:0:0:
64,192,58439,1,0,0:0:0:0:
192,192,58439,1,8,0:0:0:0:
192,192,58790,128,0,59492:0:0:0:0:
320,192,58790,1,0,0:0:0:0:
320,192,59141,1,0,0:0:0:0:
448,192,59141,1,8,0:0:0:0:
64,192,59492,128,0,59842:0:0:0:0:
320,192,59492,1,0,0:0:0:0:
192,192,59842,1,0,0:0:0:0:
448,192,59842,1,8,0:0:0:0:
448,192,60193,128,0,60895:0:0:0:0:
192,192,60193,1,0,0:0:0:0:
64,192,60369,1,0,0:0:0:0:
320,192,60544,1,8,0:0:0:0:
192,192,60720,1,0,0:0:0:0:
64,192,60895,128,0,61597:0:0:0:0:
320,192,60895,1,8,0:0:0:0:
192,192,61071,1,0,0:0:0:0:
448,192,61246,1,8,0:0:0:0:
192,192,61421,1,0,0:0:0:0:
320,192,61597,128,0,62299:0:0:0:0:
448,192,61597,1,8,0:0:0:0:
192,192,61772,1,0,0:0:0:0:
448,192,61948,1,8,0:0:0:0:
64,192,62123,1,0,0:0:0:0:
192,192,62299,128,8,62650:0:0:0:0:
64,192,62474,1,0,0:0:0:0:
448,192,62650,1,8,0:0:0:0:
320,192,62650,1,0,0:0:0:0:
64,192,63000,128,0,64228:0:0:0:0:
192,192,63000,1,0,0:0:0:0:
320,192,63176,1,0,0:0:0:0:
448,192,63351,1,8,0:0:0:0:
320,192,63527,1,0,0:0:0:0:
192,192,63702,1,0,0:0:0:0:
320,192,63878,1,0,0:0:0:0:
192,192,64053,1,0,0:0:0:0:
320,192,64228,1,8,0:0:0:0:
448,192,64228,1,8,0:0:0:0:
64,192,64579,1,8,0:0:0:0:
448,192,64755,1,8,0:0:0:0:
320,192,64842,1,8,0:0:0:0:
64,192,64930,1,8,0:0:0:0:
192,192,65018,1,8,0:0:0:0:
320,192,65106,1,8,0:0:0:0:
64,192,65193,1,0,0:0:0:0:
448,192,65281,1,0,0:0:0:0:
64,192,65457,1,0,0:0:0:0:
320,192,65632,1,0,0:0:0:0:
64,192,65807,1,0,0:0:0:0:
448,192,65807,128,0,67211:0:0:0:0:
192,192,66158,1,8,0:0:0:0:
64,192,66158,1,8,0:0:0:0:
64,192,66509,1,0,0:0:0:0:
320,192,66685,1,0,0:0:0:0:
64,192,66860,1,8,0:0:0:0:
192,192,66860,1,8,0:0:0:0:
192,192,67211,128,0,68439:0:0:0:0:
320,192,67211,1,0,0:0:0:0:
320,192,67562,1,8,0:0:0:0:
448,192,67562,1,8,0:0:0:0:
320,192,67913,1,0,0:0:0:0:
64,192,68088,1,0,0:0:0:0:
320,192,68264,1,8,0:0:0:0:
448,192,68439,1,8,0:0:0:0:
64,192,68439,128,0,69316:0:0:0:0:
320,192,68614,1,0,0:0:0:0:
320,192,68965,1,0,0:0:0:0:
448,192,68965,1,8,0:0:0:0:
192,192,69316,128,0,70018:0:0:0:0:
320,192,69667,1,0,0:0:0:0:
448,192,69667,1,8,0:0:0:0:
320,192,70018,128,0,70720:0:0:0:0:
448,192,70369,1,0,0:0:0:0:
64,192,70369,1,8,0:0:0:0:
192,192,70720,128,0,71071:0:0:0:0:
448,192,71071,1,0,0:0:0:0:
64,192,71071,1,0,0:0:0:0:
448,192,71421,128,8,72123:0:0:0:0:
320,192,71421,1,0,0:0:0:0:
64,192,71772,1,8,0:0:0:0:
320,192,71772,1,0,0:0:0:0:
64,192,72123,128,8,72825:0:0:0:0:
192,192,72474,1,8,0:0:0:0:
448,192,72474,1,0,0:0:0:0:
320,192,72825,128,8,73527:0:0:0:0:
192,192,73176,1,8,0:0:0:0:
64,192,73176,1,0,0:0:0:0:
192,192,73527,1,0,0:0:0:0:
64,192,73614,1,0,0:0:0:0:
320,192,73702,1,0,0:0:0:0:
448,192,73790,1,0,0:0:0:0:
64,192,73878,1,0,0:0:0:0:
192,192,73965,1,0,0:0:0:0:
448,192,74053,1,0,0:0:0:0:
320,192,74141,1,0,0:0:0:0:
64,192,74228,1,0,0:0:0:0:
192,192,74404,1,0,0:0:0:0:
320,192,74579,1,0,0:0:0:0:
64,192,74755,1,0,0:0:0:0:
192,192,74930,1,0,0:0:0:0:
320,192,74930,1,0,0:0:0:0:
448,192,75106,1,0,0:0:0:0:
320,192,75281,1,0,0:0:0:0:
448,192,75281,1,0,0:0:0:0:
64,192,75457,128,0,76334:0:0:0:0:
192,192,75457,1,0,0:0:0:0:
320,192,75632,1,8,0:0:0:0:
448,192,75632,1,8,0:0:0:0:
192,192,75983,1,8,0:0:0:0:
448,192,75983,1,8,0:0:0:0:
192,192,76334,1,8,0:0:0:0:
448,192,76509,1,8,0:0:0:0:
192,192,76685,1,8,0:0:0:0:
64,192,76772,1,8,0:0:0:0:
192,192,76860,1,8,0:0:0:0:
320,192,76948,1,8,0:0:0:0:
448,192,77035,1,8,0:0:0:0:
64,192,77211,1,0,0:0:0:0:
320,192,77386,1,0,0:0:0:0:
192,192,77562,1,0,0:0:0:0:
320,192,77737,1,0,0:0:0:0:
448,192,77913,1,0,0:0:0:0:
64,192,78088,1,8,0:0:0:0:
320,192,78088,1,8,0:0:0:0:
192,192,78264,1,0,0:0:0:0:
448,192,78439,1,0,0:0:0:0:
192,192,78614,1,0,0:0:0:0:
64,192,78790,1,8,0:0:0:0:
448,192,78790,1,8,0:0:0:0:
192,192,78965,1,8,0:0:0:0:
320,192,78965,1,8,0:0:0:0:
64,192,79141,1,0,0:0:0:0:
448,192,79316,1,0,0:0:0:0:
64,192,79492,1,0,0:0:0:0:
320,192,79667,1,0,0:0:0:0:
192,192,79842,1,8,0:0:0:0:
448,192,79842,1,8,0:0:0:0:
320,192,80018,1,0,0:0:0:0:
64,192,80193,1,0,0:0:0:0:
448,192,80369,1,0,0:0:0:0:
64,192,80544,1,0,0:0:0:0:
192,192,80720,1,8,0:0:0:0:
320,192,80720,1,8,0:0:0:0:
64,192,80895,1,8,0:0:0:0:
448,192,80895,1,8,0:0:0:0:
192,192,81071,1,0,0:0:0:0:
448,192,81246,1,0,0:0:0:0:
64,192,81421,1,0,0:0:0:0:
448,192,81597,1,8,0:0:0:0:
192,192,81597,1,8,0:0:0:0:
320,192,81772,1,8,0:0:0:0:
64,192,81772,1,8,0:0:0:0:
192,192,82123,1,0,0:0:0:0:
320,192,82299,1,0,0:0:0:0:
448,192,82474,1,0,0:0:0:0:
192,192,82650,128,0,84053:0:0:0:0:
320,192,82650,1,8,0:0:0:0:
64,192,82825,1,0,0:0:0:0:
448,192,83000,1,0,0:0:0:0:
320,192,83000,1,0,0:0:0:0:
64,192,83176,1,0,0:0:0:0:
320,192,83351,1,0,0:0:0:0:
64,192,83527,1,8,0:0:0:0:
448,192,83527,1,0,0:0:0:0:
64,192,83702,1,8,0:0:0:0:
448,192,83702,1,8,0:0:0:0:
320,192,83878,1,0,0:0:0:0:
448,192,84053,1,0,0:0:0:0:
64,192,84404,128,0,84755:0:0:0:0:
448,192,84404,1,0,0:0:0:0:
192,192,84755,128,0,85106:0:0:0:0:
320,192,85106,128,0,88088:0:0:0:0:
64,192,85457,1,8,0:0:0:0:
448,192,85457,1,8,0:0:0:0:
192,192,85807,1,0,0:0:0:0:
64,192,85983,1,8,0:0:0:0:
448,192,85983,1,8,0:0:0:0:
192,192,86334,1,0,0:0:0:0:
64,192,86509,1,8,0:0:0:0:
448,192,86509,1,8,0:0:0:0:
64,192,86860,1,8,0:0:0:0:
192,192,87035,1,8,0:0:0:0:
448,192,87211,1,8,0:0:0:0:
192,192,87386,1,8,0:0:0:0:
64,192,87562,1,8,0:0:0:0:
448,192,87737,1,8,0:0:0:0:
64,192,87913,1,8,0:0:0:0:
448,192,88088,1,12,0:0:0:0:
192,192,88088,1,0,0:0:0:0:
