osu file format v14

[General]
AudioFilename: ignite.mp3
AudioLeadIn: 0
PreviewTime: 53264
Countdown: 0
SampleSet: Soft
StackLeniency: 0.7
Mode: 3
LetterboxInBreaks: 0
EpilepsyWarning: 1
SpecialStyle: 0
WidescreenStoryboard: 1

[Editor]
DistanceSpacing: 0.8
BeatDivisor: 2
GridSize: 8
TimelineZoom: 1.3

[Metadata]
Title:IGNITE (TV size ver.)
TitleUnicode:IGNITE (TV size ver.)
Artist:Aoi Eir
ArtistUnicode:藍井エイル
Creator:-Sh1n1-
Version:4K Lv.4
Source:ソードアート・オンラインⅡ
Tags:SWORD ART ONLINE II sao 2nd season opening Phantom Bullet ExUsagi mike91lau
BeatmapID:472145
BeatmapSetID:199055

[Difficulty]
HPDrainRate:6
CircleSize:4
OverallDifficulty:6
ApproachRate:5
SliderMultiplier:1.2
SliderTickRate:1

[Events]
//Background and Video events
0,0,"SAO BG.jpg",0,0
//Break Periods
//Storyboard Layer 0 (Background)
//Storyboard Layer 1 (Fail)
//Storyboard Layer 2 (Pass)
//Storyboard Layer 3 (Foreground)
Sprite,Foreground,Centre,"SB\images\title.png",320,240 F,0,12299,12474,0,1 M,1,12299,12825,766,102,480,102 F,0,12474,16948,1 M,0,12825,17035,480,102,388,102 F,0,16948,17386,1,0 M,0,17035,17386,388,102,274,102
Sprite,Foreground,Centre,"SB\images\shini 4K 1.png",320,240 F,0,12474,12649,0,1 M,1,12474,13000,766,382,480,382 F,0,12649,17123,1 M,0,13000,17210,480,382,388,382 F,0,17123,17561,1,0 M,0,17210,17561,388,382,274,382
//Storyboard Sound Samples

[TimingPoints]
-157,350.877192982456,4,2,1,50,1,0
11685,-100,4,3,30,60,0,0
12123,-100,4,2,1,50,0,0
18000,-100,4,3,30,50,0,0
18176,-100,4,2,1,70,0,0
20106,-100,4,3,30,30,0,0
20281,-100,4,2,1,70,0,0
40457,-100,4,3,30,70,0,0
42474,-100,4,2,1,70,0,0
43176,-100,4,3,30,70,0,0
45281,-100,4,2,1,70,0,0
51860,-100,4,3,30,60,0,0
53176,-100,4,2,1,50,0,0
54579,-100,4,2,1,70,0,1
77035,-100,4,2,1,70,0,0
86948,-100,4,3,30,60,0,0
88000,-100,4,2,1,50,0,0

[HitObjects]
64,192,1246,5,0,0:0:0:0:
448,192,1246,1,0,0:0:0:0:
192,192,1597,1,0,0:0:0:0:
320,192,1948,1,0,0:0:0:0:
192,192,2299,1,0,0:0:0:0:
448,192,2650,1,0,0:0:0:0:
320,192,3000,1,0,0:0:0:0:
64,192,3351,1,0,0:0:0:0:
192,192,3702,1,0,0:0:0:0:
320,192,4053,1,0,0:0:0:0:
448,192,4053,1,0,0:0:0:0:
64,192,4404,1,0,0:0:0:0:
320,192,4755,1,0,0:0:0:0:
192,192,5106,1,0,0:0:0:0:
320,192,5457,1,0,0:0:0:0:
448,192,5807,1,0,0:0:0:0:
192,192,6158,1,0,0:0:0:0:
64,192,6509,1,0,0:0:0:0:
320,192,6860,1,0,0:0:0:0:
192,192,6860,1,0,0:0:0:0:
448,192,7211,1,0,0:0:0:0:
64,192,7562,1,0,0:0:0:0:
192,192,7913,1,0,0:0:0:0:
448,192,8264,1,0,0:0:0:0:
64,192,8614,1,0,0:0:0:0:
320,192,8965,1,0,0:0:0:0:
192,192,9316,1,0,0:0:0:0:
64,192,9667,1,0,0:0:0:0:
448,192,9667,1,8,0:0:0:0:
64,192,11071,128,0,11772:0:0:0:0:
448,192,11772,1,0,0:0:0:0:
192,192,11948,1,8,0:0:0:0:
320,192,11948,1,8,0:0:0:0:
448,192,12474,128,0,12825:0:0:0:0:
64,192,12825,1,0,0:0:0:0:
320,192,13176,1,0,0:0:0:0:
448,192,13527,1,0,0:0:0:0:
320,192,13878,1,0,0:0:0:0:
64,192,14228,1,0,0:0:0:0:
192,192,14579,1,0,0:0:0:0:
320,192,14930,1,0,0:0:0:0:
64,192,15281,128,0,16509:0:0:0:0:
448,192,15632,1,0,0:0:0:0:
320,192,15983,1,0,0:0:0:0:
448,192,16334,1,0,0:0:0:0:
192,192,16509,128,0,17386:0:0:0:0:
448,192,17035,1,0,0:0:0:0:
320,192,17386,1,0,0:0:0:0:
448,192,18088,1,4,0:0:0:0:
192,192,19141,1,0,0:0:0:0:
448,192,19492,1,0,0:0:0:0:
64,192,19842,1,0,0:0:0:0:
320,192,20193,1,4,0:0:0:0:
192,192,20895,1,2,0:0:0:0:
64,192,20895,1,0,0:0:0:0:
448,192,21597,1,0,0:0:0:0:
64,192,21948,1,0,0:0:0:0:
320,192,22299,1,0,0:0:0:0:
192,192,22650,1,0,0:0:0:0:
320,192,23000,1,0,0:0:0:0:
448,192,23702,1,2,0:0:0:0:
192,192,23702,1,0,0:0:0:0:
64,192,25106,1,0,0:0:0:0:
320,192,25106,1,2,0:0:0:0:
448,192,25457,1,0,0:0:0:0:
192,192,25807,1,0,0:0:0:0:
64,192,26509,1,0,0:0:0:0:
448,192,26860,1,0,0:0:0:0:
192,192,27211,1,0,0:0:0:0:
320,192,27562,1,0,0:0:0:0:
64,192,27913,1,0,0:0:0:0:
192,192,28264,128,0,28614:0:0:0:0:
320,192,29316,1,0,0:0:0:0:
448,192,29316,1,0,0:0:0:0:
192,192,29667,1,0,0:0:0:0:
320,192,30018,1,0,0:0:0:0:
64,192,30369,1,8,0:0:0:0:
448,192,30369,1,0,0:0:0:0:
192,192,30720,1,0,0:0:0:0:
64,192,31071,1,0,0:0:0:0:
192,192,31421,1,0,0:0:0:0:
320,192,31772,1,8,0:0:0:0:
64,192,31772,1,0,0:0:0:0:
448,192,32123,1,0,0:0:0:0:
192,192,32474,1,0,0:0:0:0:
320,192,32825,1,0,0:0:0:0:
448,192,33176,1,8,0:0:0:0:
192,192,33176,1,0,0:0:0:0:
64,192,33527,1,0,0:0:0:0:
192,192,33878,1,0,0:0:0:0:
448,192,34053,1,8,0:0:0:0:
320,192,34053,1,0,0:0:0:0:
320,192,34404,1,0,0:0:0:0:
64,192,34579,1,8,0:0:0:0:
192,192,34579,1,0,0:0:0:0:
448,192,34930,1,0,0:0:0:0:
192,192,34930,1,0,0:0:0:0:
64,192,35281,1,0,0:0:0:0:
320,192,35632,1,0,0:0:0:0:
448,192,35983,1,8,0:0:0:0:
64,192,35983,1,0,0:0:0:0:
192,192,36334,1,0,0:0:0:0:
320,192,36685,1,0,0:0:0:0:
192,192,37035,1,0,0:0:0:0:
448,192,37386,1,0,0:0:0:0:
64,192,37386,1,0,0:0:0:0:
192,192,37737,128,0,38264:0:0:0:0:
448,192,38264,1,0,0:0:0:0:
320,192,38790,128,0,39316:0:0:0:0:
64,192,39316,1,0,0:0:0:0:
320,192,39842,1,0,0:0:0:0:
192,192,40193,1,0,0:0:0:0:
448,192,40544,1,8,0:0:0:0:
64,192,40544,1,8,0:0:0:0:
192,192,41071,1,8,0:0:0:0:
320,192,41071,1,8,0:0:0:0:
64,192,41597,1,8,0:0:0:0:
448,192,41597,1,8,0:0:0:0:
192,192,42123,1,8,0:0:0:0:
320,192,42123,1,8,0:0:0:0:
448,192,42650,1,0,0:0:0:0:
64,192,43000,1,0,0:0:0:0:
192,192,43351,1,8,0:0:0:0:
448,192,43351,1,8,0:0:0:0:
64,192,43878,1,8,0:0:0:0:
320,192,43878,1,8,0:0:0:0:
192,192,44404,1,8,0:0:0:0:
448,192,44404,1,8,0:0:0:0:
320,192,44930,1,8,0:0:0:0:
64,192,44930,1,8,0:0:0:0:
192,192,45457,1,0,0:0:0:0:
448,192,45807,1,0,0:0:0:0:
64,192,46158,128,0,46860:0:0:0:0:
448,192,46860,128,0,47562:0:0:0:0:
192,192,47562,128,0,48264:0:0:0:0:
448,192,48264,1,0,0:0:0:0:
320,192,48965,1,0,0:0:0:0:
192,192,49316,1,0,0:0:0:0:
64,192,49667,1,0,0:0:0:0:
448,192,50018,1,0,0:0:0:0:
192,192,50369,1,0,0:0:0:0:
320,192,50369,1,0,0:0:0:0:
448,192,50720,1,0,0:0:0:0:
64,192,51071,1,0,0:0:0:0:
320,192,51421,1,0,0:0:0:0:
192,192,52123,1,8,0:0:0:0:
320,192,52474,1,8,0:0:0:0:
64,192,52825,1,8,0:0:0:0:
448,192,53000,1,8,0:0:0:0:
192,192,53878,128,0,54228:0:0:0:0:
64,192,54579,1,0,0:0:0:0:
320,192,54579,1,0,0:0:0:0:
192,192,54930,1,8,0:0:0:0:
448,192,55281,1,0,0:0:0:0:
192,192,55632,1,8,0:0:0:0:
64,192,55632,1,0,0:0:0:0:
320,192,55983,1,0,0:0:0:0:
448,192,56334,1,0,0:0:0:0:
320,192,56685,1,0,0:0:0:0:
448,192,57035,1,0,0:0:0:0:
192,192,57035,1,0,0:0:0:0:
64,192,57386,1,0,0:0:0:0:
448,192,57737,1,0,0:0:0:0:
192,192,57737,1,0,0:0:0:0:
320,192,58088,1,0,0:0:0:0:
448,192,58439,1,0,0:0:0:0:
64,192,58439,1,0,0:0:0:0:
192,192,58790,1,0,0:0:0:0:
448,192,59141,1,0,0:0:0:0:
320,192,59141,1,0,0:0:0:0:
64,192,59492,1,0,0:0:0:0:
320,192,59842,1,0,0:0:0:0:
192,192,60193,1,0,0:0:0:0:
320,192,60544,1,0,0:0:0:0:
448,192,60544,1,8,0:0:0:0:
192,192,60895,1,0,0:0:0:0:
64,192,61246,1,0,0:0:0:0:
320,192,61246,1,8,0:0:0:0:
448,192,61597,1,0,0:0:0:0:
192,192,61948,1,0,0:0:0:0:
64,192,61948,1,8,0:0:0:0:
448,192,62299,1,0,0:0:0:0:
320,192,62650,1,0,0:0:0:0:
64,192,63000,1,0,0:0:0:0:
320,192,63351,1,0,0:0:0:0:
192,192,63702,1,0,0:0:0:0:
448,192,64053,1,0,0:0:0:0:
64,192,64404,1,0,0:0:0:0:
192,192,64755,1,0,0:0:0:0:
320,192,65106,1,0,0:0:0:0:
448,192,65457,1,0,0:0:0:0:
64,192,65807,128,0,67211:0:0:0:0:
448,192,66158,1,8,0:0:0:0:
320,192,66509,1,0,0:0:0:0:
448,192,66860,1,8,0:0:0:0:
320,192,67211,1,0,0:0:0:0:
192,192,67562,1,0,0:0:0:0:
448,192,67913,1,0,0:0:0:0:
192,192,68264,1,0,0:0:0:0:
320,192,68614,1,0,0:0:0:0:
64,192,68965,1,0,0:0:0:0:
448,192,68965,1,8,0:0:0:0:
192,192,69316,1,0,0:0:0:0:
320,192,69667,1,0,0:0:0:0:
448,192,69667,1,8,0:0:0:0:
64,192,70018,1,0,0:0:0:0:
192,192,70369,1,0,0:0:0:0:
320,192,70369,1,8,0:0:0:0:
448,192,70720,1,0,0:0:0:0:
192,192,71071,1,0,0:0:0:0:
320,192,71421,1,0,0:0:0:0:
64,192,71772,1,0,0:0:0:0:
448,192,71772,1,8,0:0:0:0:
192,192,72123,1,0,0:0:0:0:
448,192,72474,1,8,0:0:0:0:
320,192,72474,1,0,0:0:0:0:
64,192,72825,1,0,0:0:0:0:
192,192,73176,1,0,0:0:0:0:
320,192,73176,1,8,0:0:0:0:
64,192,73527,128,0,74228:0:0:0:0:
448,192,74228,1,0,0:0:0:0:
320,192,74579,1,0,0:0:0:0:
192,192,74930,1,0,0:0:0:0:
448,192,75281,1,0,0:0:0:0:
192,192,75632,1,0,0:0:0:0:
320,192,75983,128,0,77035:0:0:0:0:
64,192,77035,1,0,0:0:0:0:
448,192,77386,1,0,0:0:0:0:
192,192,77737,1,0,0:0:0:0:
64,192,78088,1,0,0:0:0:0:
448,192,78088,1,8,0:0:0:0:
320,192,78439,1,0,0:0:0:0:
64,192,78790,1,0,0:0:0:0:
448,192,79141,1,0,0:0:0:0:
192,192,79492,1,8,0:0:0:0:
320,192,79492,1,0,0:0:0:0:
64,192,79842,1,0,0:0:0:0:
320,192,80193,1,0,0:0:0:0:
192,192,80544,1,0,0:0:0:0:
448,192,80895,1,8,0:0:0:0:
64,192,80895,1,0,0:0:0:0:
320,192,81246,1,0,0:0:0:0:
64,192,81597,1,0,0:0:0:0:
448,192,81948,1,0,0:0:0:0:
64,192,82299,1,8,0:0:0:0:
192,192,82299,1,0,0:0:0:0:
320,192,82650,1,0,0:0:0:0:
448,192,83176,1,0,0:0:0:0:
64,192,83702,1,0,0:0:0:0:
448,192,84053,1,8,0:0:0:0:
192,192,84053,1,0,0:0:0:0:
64,192,84404,1,0,0:0:0:0:
320,192,84755,1,0,0:0:0:0:
448,192,85106,1,0,0:0:0:0:
64,192,85457,128,0,88088:0:0:0:0:
192,192,85457,1,8,0:0:0:0:
320,192,85983,1,8,0:0:0:0:
448,192,86509,1,8,0:0:0:0:
448,192,87211,1,8,0:0:0:0:
192,192,87562,1,8,0:0:0:0:
320,192,88088,1,8,0:0:0:0:
448,192,88088,1,0,0:0:0:0:
