osu file format v14

[General]
AudioFilename: Ignite.mp3
AudioLeadIn: 1500
PreviewTime: 53353
Countdown: 0
SampleSet: Soft
StackLeniency: 0.7
Mode: 0
LetterboxInBreaks: 0
WidescreenStoryboard: 1

[Editor]
Bookmarks: 17210,33526
DistanceSpacing: 1.2
BeatDivisor: 4
GridSize: 4
TimelineZoom: 2.4

[Metadata]
Title:IGNITE (TV Size)
TitleUnicode:IGNITE (TV Size)
Artist:Aoi Eir
ArtistUnicode:藍井エイル
Creator:Lasoki
Version:Normal
Source:Sword Art Online II
Tags:SAO, Sword Art Online 2, Lavaeater12, Opening, Kirito, Kirigaya Kazuto, Shinon, Asada Shino
BeatmapID:501174
BeatmapSetID:191519

[Difficulty]
HPDrainRate:4
CircleSize:2.5
OverallDifficulty:4
ApproachRate:4
SliderMultiplier:1.1
SliderTickRate:1

[Events]
//Background and Video events
0,0,"953129045_1393647769.jpg",0,0
Video,0,"Ignite Video.avi"
//Break Periods
//Storyboard Layer 0 (Background)
//Storyboard Layer 1 (Fail)
//Storyboard Layer 2 (Pass)
//Storyboard Layer 3 (Foreground)
//Storyboard Sound Samples

[TimingPoints]
-155,350.877192982456,4,2,1,40,1,0
9757,-100,4,2,1,50,0,0
11774,-100,4,2,2,50,0,0
17388,-100,4,2,2,80,0,0
18090,-100,4,2,1,50,0,0
29318,-100,4,2,2,70,0,0
54581,-100,4,2,2,80,0,1
57652,-100,4,2,3,80,0,1
57827,-100,4,2,2,80,0,1
88090,-100,4,2,0,80,0,0

[Colours]
Combo1 : 89,165,221
Combo2 : 0,128,128
Combo3 : 0,128,192
Combo4 : 105,180,97

[HitObjects]
220,72,20,6,0,P|328:116|380:268,1,275
256,264,1248,2,0,P|178:303|152:296,1,110,6|0,1:2|0:0,0:0:0:0:
167,167,1950,2,0,P|114:172|72:207,1,110
160,300,2652,5,0,0:0:0:0:
288,324,3002,2,0,P|256:212|160:168,1,220
32,164,4055,1,2,1:2:0:0:
32,164,4406,1,0,0:0:0:0:
112,56,4757,2,0,L|228:56,1,110
296,168,5459,1,0,0:0:0:0:
296,168,5809,1,0,0:0:0:0:
428,168,6160,2,0,L|432:282,1,110
316,340,6862,6,0,B|245:340|207:242,1,110,2|0,1:2|0:0,0:0:0:0:
336,208,7564,1,0,0:0:0:0:
120,360,8266,2,0,B|92:309|116:253,1,110
240,304,8967,1,0,0:0:0:0:
356,68,9669,5,2,1:2:0:0:
356,68,9844,1,0,0:0:0:0:
352,200,10195,2,0,L|472:200,2,110,2|0|0,0:0|0:0|0:0,0:0:0:0:
260,108,11248,2,0,L|315:108,2,55,2|0|0,0:0|0:0|0:0,0:0:0:0:
236,172,11774,2,0,L|181:172,1,55,8|8,0:0|0:0,0:0:0:0:
288,340,12476,6,0,L|160:340,1,110,6|8,0:0|0:0,0:0:0:0:
84,248,13178,2,0,L|142:248,1,55
204,248,13529,2,0,L|260:248,1,55,8|0,0:0|0:0,0:0:0:0:
456,244,14230,1,8,0:0:0:0:
344,312,14581,1,0,0:0:0:0:
260,212,14932,1,8,0:0:0:0:
144,148,15283,6,0,P|124:232|148:268,1,110,6|8,0:0|0:0,0:0:0:0:
260,212,15985,1,0,0:0:0:0:
324,196,16160,2,0,L|396:248,1,55,0|8,0:0|0:0,0:0:0:0:
396,288,16511,1,4,0:0:0:0:
132,316,17213,2,0,L|132:248,1,55,2|8,0:0|0:0,0:0:0:0:
260,228,17739,2,0,L|260:296,2,55,0|0|6,0:0|0:0|0:1,0:0:0:0:
312,108,18441,6,0,P|260:92|204:112,1,110
108,192,19143,1,0,0:0:0:0:
108,192,19494,1,0,0:0:0:0:
20,288,19844,2,0,P|62:321|116:324,1,110
228,316,20546,1,0,0:0:0:0:
280,276,20722,2,0,L|340:228,1,55,2|2,0:1|0:1,0:0:0:0:
424,156,21248,1,0,0:0:0:0:
420,288,21599,2,0,P|320:248|292:148,1,220
188,68,22652,5,0,0:0:0:0:
188,68,23002,1,0,0:0:0:0:
208,200,23353,2,0,L|160:256,2,55,0|0|2,0:0|0:0|0:1,0:0:0:0:
252,148,23880,1,0,0:0:0:0:
372,92,24230,1,0,0:0:0:0:
320,212,24581,1,0,0:0:0:0:
132,160,24932,2,0,L|92:208,1,55,2|2,0:1|0:1,0:0:0:0:
24,312,25459,1,0,0:0:0:0:
24,312,25809,1,0,0:0:0:0:
156,320,26160,1,0,0:0:0:0:
208,276,26336,2,0,L|260:224,1,55,2|2,0:1|0:1,0:0:0:0:
344,148,26862,6,0,L|384:108,1,55
428,64,27213,1,0,0:0:0:0:
296,68,27564,1,0,0:0:0:0:
212,172,27915,2,0,P|240:232|240:296,1,110
180,300,28441,2,0,L|112:292,1,55
104,164,28967,2,0,P|52:146|18:104,1,110,0|6,0:0|0:0,0:0:0:0:
136,24,29669,5,2,0:0:0:0:
196,140,30020,1,2,0:0:0:0:
256,272,30371,2,0,P|304:244|332:184,2,110,8|2|2,0:0|0:0|0:0,0:0:0:0:
360,356,31423,1,2,0:0:0:0:
476,296,31774,1,8,0:0:0:0:
492,164,32125,5,2,0:0:0:0:
392,76,32476,1,0,0:0:0:0:
392,76,32827,2,0,L|280:76,1,110,2|8,0:0|0:0,0:0:0:0:
356,184,33529,1,2,0:0:0:0:
224,180,33880,1,0,0:0:0:0:
224,180,34230,2,0,L|112:180,1,110,2|8,0:0|0:0,0:0:0:0:
176,296,34932,5,2,0:0:0:0:
176,296,35283,1,2,0:0:0:0:
296,348,35634,2,0,L|296:228,1,110,2|8,0:0|0:0,0:0:0:0:
348,116,36336,2,0,P|300:100|232:124,1,110,2|2,0:0|0:0,0:0:0:0:
120,164,37037,1,2,0:0:0:0:
120,164,37388,1,8,0:0:0:0:
228,236,37739,6,0,L|280:196,1,55,6|0,0:0|0:0,0:0:0:0:
280,136,38090,2,0,L|280:81,1,55,8|2,0:0|0:0,0:0:0:0:
280,280,38792,2,0,L|332:240,1,55,12|0,0:0|0:0,0:0:0:0:
344,184,39143,2,0,L|344:129,1,55,2|8,0:0|0:0,0:0:0:0:
464,188,39669,1,2,0:0:0:0:
464,188,39844,2,0,L|464:243,2,55,8|2|8,0:0|0:0|0:0,0:0:0:0:
420,132,40371,1,0,0:0:0:0:
392,68,40546,6,0,L|316:68,1,55,12|8,0:0|0:0,0:0:0:0:
204,68,41073,2,0,L|148:68,1,55,8|8,0:0|0:0,0:0:0:0:
116,196,41599,2,0,L|188:196,1,55,8|0,0:0|0:0,0:0:0:0:
304,200,42125,2,0,L|372:200,1,55,8|2,0:0|0:0,0:0:0:0:
488,236,42652,1,8,0:0:0:0:
488,236,43002,1,8,0:0:0:0:
396,332,43353,6,0,L|396:276,1,55,12|8,0:0|0:0,0:0:0:0:
308,176,43880,2,0,L|308:256,1,55,8|8,0:0|0:0,0:0:0:0:
220,332,44406,2,0,L|220:277,1,55,10|8,0:0|0:0,0:0:0:0:
140,172,44932,2,0,L|140:227,1,55,8|0,0:0|0:0,0:0:0:0:
124,360,45459,1,8,0:0:0:0:
32,264,45809,1,8,0:0:0:0:
40,132,46160,6,0,P|67:51|100:18,1,110,6|0,0:0|0:0,0:0:0:0:
176,128,46862,1,8,0:0:0:0:
280,200,47213,2,0,L|332:236,2,55,8|0|2,0:0|0:0|0:0,0:0:0:0:
220,168,47739,1,8,0:0:0:0:
108,96,48090,1,2,0:0:0:0:
164,60,48266,2,0,P|224:48|280:64,1,110,2|8,0:0|0:0,0:0:0:0:
372,144,48967,5,2,0:0:0:0:
340,272,49318,2,0,L|395:272,2,55,0|2|0,0:0|0:0|0:0,0:0:0:0:
208,280,50020,2,0,P|212:184|232:168,1,110,8|8,0:0|0:0,0:0:0:0:
192,48,50722,1,0,0:0:0:0:
128,48,50897,2,0,P|76:80|52:136,1,110
28,184,51423,1,8,0:0:0:0:
148,236,51774,5,8,0:0:0:0:
120,296,51950,2,0,L|96:356,2,55
188,292,52476,2,0,L|212:344,2,55,0|0|8,0:0|0:0|0:0,0:0:0:0:
224,236,53002,1,4,0:0:0:0:
352,208,53353,6,0,P|380:132|372:92,1,110
308,104,53880,2,0,L|356:40,2,55
208,192,54581,5,6,0:0:0:0:
208,192,54932,1,8,0:0:0:0:
120,292,55283,1,2,0:0:0:0:
120,292,55634,1,8,0:0:0:0:
164,168,55985,2,0,P|100:160|44:180,1,110,2|2,0:0|0:0,0:0:0:0:
120,292,56687,1,2,0:0:0:0:
120,292,57037,1,8,0:0:0:0:
244,336,57388,6,0,B|276:276|276:276|260:192|320:136,1,220,6|2,0:0|0:0,0:0:0:0:
404,240,58441,1,8,0:0:0:0:
408,108,58792,2,0,P|476:128|516:164,2,110,2|8|2,0:0|0:0|0:0,0:0:0:0:
280,136,59844,1,8,0:0:0:0:
220,164,60020,2,0,L|160:196,1,55,0|6,0:0|0:0,0:0:0:0:
40,208,60546,6,0,P|68:280|128:308,1,110,8|2,0:0|0:0,0:0:0:0:
224,272,61248,1,8,0:0:0:0:
224,272,61599,1,2,0:0:0:0:
356,256,61950,2,0,P|328:184|268:156,1,110,8|2,0:0|0:0,0:0:0:0:
204,80,62652,1,8,0:0:0:0:
76,60,63002,2,0,L|40:112,1,55,6|0,0:0|0:0,0:0:0:0:
24,236,63529,2,0,P|28:284|60:340,1,110,8|2,0:0|0:0,0:0:0:0:
156,248,64230,2,0,P|183:295|189:349,1,110,6|2,0:0|0:0,0:0:0:0:
256,348,64757,5,8,0:0:0:0:
440,316,65108,2,0,L|440:256,1,55,2|0,0:0|0:0,0:0:0:0:
468,200,65459,2,0,L|404:200,2,55,8|8|6,0:0|0:0|0:0,0:0:0:0:
364,120,66160,1,8,0:0:0:0:
308,240,66511,2,0,P|260:272|240:324,1,110,2|8,0:0|0:0,0:0:0:0:
180,292,67037,2,0,L|144:232,1,55
92,128,67564,6,0,P|104:72|148:24,1,110,8|2,0:0|0:0,0:0:0:0:
268,40,68266,1,8,0:0:0:0:
400,40,68616,2,0,P|388:96|344:144,1,110,6|8,0:0|0:0,0:0:0:0:
484,168,69318,1,2,0:0:0:0:
372,240,69669,2,0,P|351:189|357:135,1,110,8|2,0:0|0:0,0:0:0:0:
272,236,70371,6,0,L|205:240,2,55,8|8|2,0:0|0:0|0:0,0:0:0:0:
304,108,71073,2,8,P|264:80|188:84,1,110,8|10,0:0|0:0,0:0:0:0:
108,164,71774,2,0,P|96:228|112:276,2,110,8|2|8,0:0|0:0|0:0,0:0:0:0:
232,116,72827,2,0,P|240:172|230:224,1,110,8|2,0:0|0:0,0:0:0:0:
364,232,73529,2,0,P|348:292|312:340,1,110,8|2,0:0|0:0,0:0:0:0:
188,340,74230,2,0,L|133:340,2,55,2|0|6,0:0|0:0|0:0,0:0:0:0:
248,220,74932,5,2,0:0:0:0:
248,220,75283,1,8,0:0:0:0:
360,292,75634,2,0,L|436:292,2,55,2|0|2,0:0|0:0|0:0,0:0:0:0:
296,300,76160,2,0,B|324:352,2,55,0|8|2,0:0|0:0|0:0,0:0:0:0:
228,300,76687,2,0,B|235:354,2,55,8|8|4,0:0|0:0|0:0,0:0:0:0:
128,340,77388,5,8,0:0:0:0:
96,276,77564,2,0,P|76:216|88:148,1,110
164,68,78266,1,0,0:0:0:0:
272,144,78616,1,0,0:0:0:0:
308,88,78792,2,0,L|344:40,2,55,8|0|2,0:0|0:0|0:0,0:0:0:0:
304,232,79494,1,8,0:0:0:0:
304,232,79669,1,0,0:0:0:0:
304,304,79844,6,0,L|304:368,2,55,6|0|8,0:0|0:0|0:0,0:0:0:0:
236,276,80371,2,0,P|192:308|138:307,1,110
56,216,81073,2,0,P|99:184|153:184,2,110,0|0|8,0:0|0:0|0:0,0:0:0:0:
36,76,82125,2,0,L|36:21,2,55,2|8|2,0:0|0:0|0:0,0:0:0:0:
256,192,82652,12,8,84406,0:0:0:0:
244,112,85108,5,8,0:0:0:0:
256,192,85195,12,4,88090,0:0:0:0:
