osu file format v14

[General]
AudioFilename: Ignite.mp3
AudioLeadIn: 1500
PreviewTime: 53353
Countdown: 0
SampleSet: Soft
StackLeniency: 0.7
Mode: 0
LetterboxInBreaks: 0
WidescreenStoryboard: 1

[Editor]
Bookmarks: 17210,33526
DistanceSpacing: 1.5
BeatDivisor: 4
GridSize: 4
TimelineZoom: 1.8

[Metadata]
Title:IGNITE (TV Size)
TitleUnicode:IGNITE (TV Size)
Artist:Aoi Eir
ArtistUnicode:藍井エイル
Creator:Lasoki
Version:Insane
Source:Sword Art Online II
Tags:SAO, Sword Art Online 2, Lavaeater12, Opening, Kirito, Kirigaya Kazuto, Shinon, Asada Shino
BeatmapID:456940
BeatmapSetID:191519

[Difficulty]
HPDrainRate:7
CircleSize:4
OverallDifficulty:7
ApproachRate:9
SliderMultiplier:1.5
SliderTickRate:1

[Events]
//Background and Video events
0,0,"953129045_1393647769.jpg",0,0
Video,0,"Ignite Video.avi"
//Break Periods
//Storyboard Layer 0 (Background)
//Storyboard Layer 1 (Fail)
//Storyboard Layer 2 (Pass)
//Storyboard Layer 3 (Foreground)
//Storyboard Sound Samples

[TimingPoints]
-155,350.877192982456,4,2,1,40,1,0
9757,-100,4,2,1,50,0,0
11774,-100,4,2,2,50,0,0
15546,-100,4,2,3,50,0,0
15722,-100,4,2,2,50,0,0
17388,-100,4,2,2,80,0,0
18090,-100,4,2,1,50,0,0
28266,-100,4,2,1,20,0,0
28529,-100,4,2,1,5,0,0
28704,-100,4,2,1,90,0,0
29318,-100,4,2,2,90,0,0
54581,-100,4,2,2,100,0,1
88090,-100,4,2,0,100,0,0

[Colours]
Combo1 : 89,165,221
Combo2 : 0,128,128
Combo3 : 0,128,192
Combo4 : 105,180,97

[HitObjects]
240,180,20,6,0,B|240:124|220:96,2,75
196,268,546,1,0,0:0:0:0:
104,216,722,1,0,0:0:0:0:
164,312,897,1,0,0:0:0:0:
68,252,1073,1,0,0:0:0:0:
256,192,1248,12,2,2651,0:0:0:0:
256,192,2827,6,0,B|324:132,1,75
404,80,3178,1,0,0:0:0:0:
396,192,3353,1,0,0:0:0:0:
444,52,3529,1,0,0:0:0:0:
440,192,3704,1,0,0:0:0:0:
344,132,3880,1,0,0:0:0:0:
344,132,4055,2,0,B|308:88|308:88|268:124|268:124|232:108|232:108|152:108,1,225,2|0,1:2|0:0,0:0:0:0:
120,220,4757,2,0,B|140:312|112:344|112:344|172:336|172:336|216:340,1,225
236,228,5459,1,0,0:0:0:0:
316,152,5634,1,0,0:0:0:0:
316,152,5722,1,0,0:0:0:0:
316,152,5809,1,0,0:0:0:0:
456,328,5985,1,0,0:0:0:0:
408,228,6160,1,0,0:0:0:0:
184,224,6511,5,0,0:0:0:0:
408,228,6862,2,0,P|408:140|372:88,1,150,2|0,1:2|0:0,0:0:0:0:
304,180,7388,1,0,0:0:0:0:
260,76,7564,1,0,0:0:0:0:
280,300,7915,1,0,0:0:0:0:
172,272,8090,1,0,0:0:0:0:
108,364,8266,2,0,P|64:296|80:208,1,150
172,272,8792,1,0,0:0:0:0:
156,160,8967,1,0,0:0:0:0:
156,160,9669,5,2,1:2:0:0:
156,160,9844,1,0,0:0:0:0:
368,92,10195,2,0,P|392:168|396:192,2,75
280,164,10722,1,0,0:0:0:0:
312,272,10897,2,0,L|284:184,1,75
204,212,11248,5,0,0:0:0:0:
32,216,11423,1,0,0:0:0:0:
188,324,11599,1,0,0:0:0:0:
124,140,11774,1,8,0:0:0:0:
64,320,11950,1,8,0:0:0:0:
84,96,12301,5,0,0:0:0:0:
140,84,12388,1,0,0:0:0:0:
180,124,12476,1,6,0:0:0:0:
252,36,12652,2,0,P|288:88|288:128,1,75,0|8,0:0|0:0,0:0:0:0:
308,208,13002,1,0,0:0:0:0:
368,112,13178,1,0,0:0:0:0:
336,244,13353,1,0,0:0:0:0:
316,116,13529,1,8,0:0:0:0:
196,160,13704,2,0,P|184:220|200:260,1,75,0|2,0:0|0:0,0:0:0:0:
224,108,14055,5,0,0:0:0:0:
324,112,14230,1,8,0:0:0:0:
408,36,14406,2,0,B|392:88|344:108,1,75
280,172,14757,1,0,0:0:0:0:
348,260,14932,1,8,0:0:0:0:
392,156,15108,1,0,0:0:0:0:
280,172,15283,2,0,B|216:120|216:120|188:168|188:168|120:128|20:176,1,300,6|0,0:0|0:0,0:0:0:0:
0,280,16160,5,0,0:0:0:0:
44,316,16248,1,0,0:0:0:0:
96,336,16336,1,8,0:0:0:0:
208,332,16512,2,0,P|188:272|172:256,2,75,4|2|2,0:0|0:0|0:0,0:0:0:0:
324,96,17037,5,2,0:0:0:0:
400,260,17213,1,0,0:0:0:0:
304,204,17388,2,0,L|388:252,1,75,8|0,0:0|0:0,0:0:0:0:
432,324,17739,1,2,0:0:0:0:
456,212,17915,1,0,0:0:0:0:
472,100,18090,5,6,0:1:0:0:
252,96,18441,1,2,0:0:0:0:
152,48,18616,1,0,0:0:0:0:
60,112,18792,1,0,0:0:0:0:
56,336,19143,5,0,0:0:0:0:
152,276,19318,1,0,0:0:0:0:
256,316,19494,1,0,0:0:0:0:
228,208,19669,2,0,L|276:140,1,75
236,40,20020,2,0,P|280:28|316:44,1,75,0|2,0:0|0:0,0:0:0:0:
200,80,20371,1,0,0:0:0:0:
396,192,20722,1,2,0:1:0:0:
304,128,20897,1,2,0:1:0:0:
80,128,21248,1,2,0:0:0:0:
172,192,21423,1,2,0:0:0:0:
260,232,21599,1,0,0:0:0:0:
332,52,21950,1,0,0:0:0:0:
136,40,22301,1,0,0:0:0:0:
16,196,22652,1,0,0:0:0:0:
16,196,23002,6,0,L|112:196,1,75
204,196,23353,2,0,L|128:196,1,75
96,88,23704,1,2,0:1:0:0:
196,36,23880,1,0,0:0:0:0:
120,136,24055,1,2,0:0:0:0:
236,60,24230,1,2,0:0:0:0:
144,176,24406,1,0,0:0:0:0:
280,92,24581,6,0,L|280:180,1,75
340,260,24932,1,2,0:1:0:0:
384,156,25108,1,2,0:1:0:0:
384,156,25459,2,0,L|296:180,1,75,2|2,0:0|0:0,0:0:0:0:
244,264,25809,1,0,0:0:0:0:
148,208,25985,1,0,0:0:0:0:
80,320,26160,1,0,0:0:0:0:
176,168,26336,1,2,0:1:0:0:
112,260,26511,2,0,L|48:212,1,75,2|0,0:1|0:0,0:0:0:0:
104,116,26862,1,2,0:0:0:0:
52,216,27037,1,2,0:0:0:0:
124,84,27213,1,0,0:0:0:0:
256,192,27388,12,0,28441,0:0:0:0:
256,192,28616,5,2,0:0:0:0:
32,196,28967,1,0,0:0:0:0:
144,192,29143,1,0,0:0:0:0:
0,192,29318,1,6,0:0:0:0:
112,192,29494,2,0,P|128:144|160:128,1,75,0|2,0:0|0:0,0:0:0:0:
204,36,29844,5,0,0:0:0:0:
260,124,30020,1,2,0:0:0:0:
344,200,30195,2,0,P|300:232|272:236,1,75,0|8,0:0|0:0,0:0:0:0:
212,328,30546,1,0,0:0:0:0:
188,276,30634,1,0,0:0:0:0:
164,224,30722,1,2,0:0:0:0:
128,116,30897,2,0,P|152:84|200:72,1,75,0|2,0:0|0:0,0:0:0:0:
288,28,31248,5,0,0:0:0:0:
320,124,31423,1,2,0:0:0:0:
208,136,31599,1,0,0:0:0:0:
320,124,31774,1,8,0:0:0:0:
432,148,31950,1,0,0:0:0:0:
364,232,32125,1,2,0:0:0:0:
252,240,32301,2,0,P|264:284|296:320,2,75,0|2|0,0:0|0:0|0:0,0:0:0:0:
296,344,32827,5,2,0:0:0:0:
188,316,33002,1,0,0:0:0:0:
80,284,33178,1,8,0:0:0:0:
4,200,33353,1,0,0:0:0:0:
60,188,33441,1,0,0:0:0:0:
116,176,33529,1,2,0:0:0:0:
192,96,33704,2,0,P|224:140|228:176,1,75,0|2,0:0|0:0,0:0:0:0:
160,68,34055,1,2,0:0:0:0:
88,152,34230,6,0,P|99:116|124:88,1,75,2|0,0:0|0:0,0:0:0:0:
196,176,34581,1,8,0:0:0:0:
408,256,34932,1,2,0:0:0:0:
300,216,35108,1,0,0:0:0:0:
392,300,35283,1,2,0:0:0:0:
284,260,35459,1,0,0:0:0:0:
376,344,35634,1,2,0:0:0:0:
264,304,35809,1,0,0:0:0:0:
360,384,35985,1,8,0:0:0:0:
248,380,36160,5,0,0:0:0:0:
200,348,36248,1,0,0:0:0:0:
152,316,36336,1,2,0:0:0:0:
200,96,36687,2,0,L|120:72,1,75,2|0,0:0|0:0,0:0:0:0:
28,124,37037,1,2,0:0:0:0:
128,180,37213,1,0,0:0:0:0:
28,232,37388,1,12,0:0:0:0:
252,220,37739,5,6,0:0:0:0:
248,108,37915,1,0,0:0:0:0:
136,112,38090,1,8,0:0:0:0:
136,224,38266,2,0,B|144:300|144:300|212:356,1,150,2|2,0:0|0:0,0:0:0:0:
312,336,38792,5,12,0:0:0:0:
276,240,38967,1,0,0:0:0:0:
236,344,39143,1,2,0:0:0:0:
180,248,39318,1,8,0:0:0:0:
396,188,39669,5,2,0:0:0:0:
316,108,39844,1,8,0:0:0:0:
276,212,40020,1,2,0:0:0:0:
232,180,40108,1,2,0:0:0:0:
204,132,40195,1,8,0:0:0:0:
236,24,40371,1,0,0:0:0:0:
132,64,40546,5,12,0:0:0:0:
80,164,40722,1,8,0:0:0:0:
164,96,40897,1,2,0:0:0:0:
36,164,41073,1,8,0:0:0:0:
148,156,41248,2,0,P|140:200|104:232,1,75,2|2,0:0|0:0,0:0:0:0:
52,312,41599,1,8,0:0:0:0:
164,308,41774,1,8,0:0:0:0:
52,272,41950,1,2,0:0:0:0:
164,360,42125,1,2,0:0:0:0:
276,360,42301,2,0,L|201:360,1,75,0|2,0:0|0:0,0:0:0:0:
204,248,42652,6,0,B|228:168,2,75,8|2|8,0:0|0:0|0:0,0:0:0:0:
204,248,43353,5,12,0:0:0:0:
312,288,43529,1,8,0:0:0:0:
200,288,43704,1,2,0:0:0:0:
320,248,43880,1,8,0:0:0:0:
392,164,44055,2,0,L|324:124,1,75,8|2,0:0|0:0,0:0:0:0:
228,72,44406,1,8,0:0:0:0:
224,184,44581,1,0,0:0:0:0:
184,72,44757,1,2,0:0:0:0:
184,216,44932,1,8,0:0:0:0:
88,160,45108,6,0,L|172:140,1,75,8|2,0:0|0:0,0:0:0:0:
216,132,45371,1,2,0:0:0:0:
272,120,45459,1,2,0:0:0:0:
296,228,45634,1,0,0:0:0:0:
316,108,45809,1,8,0:0:0:0:
344,248,45985,1,2,0:0:0:0:
372,96,46160,2,0,L|372:200,1,75,6|0,0:0|0:0,0:0:0:0:
412,304,46511,5,0,0:0:0:0:
300,304,46687,1,2,0:0:0:0:
192,332,46862,2,0,P|120:284|108:212,1,150,8|0,0:0|0:0,0:0:0:0:
152,128,47388,1,0,0:0:0:0:
264,136,47564,1,2,0:0:0:0:
152,128,47739,1,8,0:0:0:0:
52,68,47915,5,0,0:0:0:0:
164,64,48090,1,2,0:0:0:0:
276,64,48266,1,8,0:0:0:0:
292,176,48441,6,0,L|192:176,1,75,2|8,0:0|0:0,0:0:0:0:
100,156,48792,1,0,0:0:0:0:
100,212,48880,1,0,0:0:0:0:
128,260,48967,1,2,0:0:0:0:
208,340,49143,2,0,L|152:284,1,75,2|0,0:0|0:0,0:0:0:0:
268,296,49494,1,2,0:0:0:0:
184,220,49669,1,8,0:0:0:0:
296,240,49844,2,0,B|241:190,1,75,2|8,0:0|0:0,0:0:0:0:
276,76,50195,5,2,0:0:0:0:
220,76,50283,1,0,0:0:0:0:
168,100,50371,1,0,0:0:0:0:
76,161,50546,2,0,P|57:129|56:92,1,75,2|2,0:0|0:0,0:0:0:0:
108,192,50897,1,0,0:0:0:0:
196,260,51073,1,2,0:0:0:0:
108,192,51248,1,0,0:0:0:0:
68,296,51423,1,8,0:0:0:0:
164,352,51599,2,0,L|244:352,1,75,0|8,0:0|0:0,0:0:0:0:
352,356,51950,5,0,0:0:0:0:
408,356,52037,1,0,0:0:0:0:
468,356,52125,1,0,0:0:0:0:
376,292,52301,5,0,0:0:0:0:
412,248,52388,1,0,0:0:0:0:
400,192,52476,1,0,0:0:0:0:
432,144,52564,1,0,0:0:0:0:
400,100,52652,1,0,0:0:0:0:
432,56,52739,1,0,0:0:0:0:
400,8,52827,1,8,0:0:0:0:
300,60,53002,5,4,0:0:0:0:
76,88,53353,6,0,P|96:188|144:224,1,150
216,144,53880,1,0,0:0:0:0:
288,296,54055,1,0,0:0:0:0:
168,308,54230,1,0,0:0:0:0:
312,192,54406,1,0,0:0:0:0:
344,84,54581,2,0,P|404:128|424:200,1,150,6|8,0:0|0:0,0:0:0:0:
280,128,55108,1,0,0:0:0:0:
244,232,55283,2,0,L|184:184,1,75,2|0,0:0|0:0,0:0:0:0:
164,76,55634,2,0,L|256:52,1,75,8|0,0:0|0:0,0:0:0:0:
344,84,55985,1,2,0:0:0:0:
416,192,56160,6,0,L|332:192,1,75,0|2,0:0|0:0,0:0:0:0:
341,192,56511,1,0,0:0:0:0:
256,116,56687,1,2,0:0:0:0:
180,272,56862,1,0,0:0:0:0:
292,288,57037,1,8,0:0:0:0:
160,164,57213,1,0,0:0:0:0:
224,72,57388,2,0,L|291:105,1,75,6|0,0:0|0:0,0:0:0:0:
388,164,57739,1,8,0:0:0:0:
360,272,57915,1,0,0:0:0:0:
444,348,58090,6,0,P|464:280|444:200,1,150,2|8,0:0|0:0,0:0:0:0:
324,212,58616,1,0,0:0:0:0:
212,204,58792,2,0,P|194:131|214:60,1,150,2|8,0:0|0:0,0:0:0:0:
304,132,59318,1,0,0:0:0:0:
404,84,59494,1,2,0:0:0:0:
360,188,59669,2,0,L|392:120,1,75,0|8,0:0|0:0,0:0:0:0:
352,228,60020,5,0,0:0:0:0:
400,256,60108,1,0,0:0:0:0:
440,220,60195,1,6,0:0:0:0:
360,300,60371,2,0,L|292:356,2,75,0|8|0,0:0|0:0|0:0,0:0:0:0:
360,188,60897,6,0,L|432:140,1,75,2|0,0:0|0:0,0:0:0:0:
328,208,61248,1,8,0:0:0:0:
124,88,61599,6,0,L|64:168,1,75,2|0,0:0|0:0,0:0:0:0:
152,64,61950,1,8,0:0:0:0:
252,112,62125,1,0,0:0:0:0:
160,176,62301,5,2,0:0:0:0:
152,64,62476,2,0,P|188:48|236:56,1,75,0|8,0:0|0:0,0:0:0:0:
324,96,62827,5,0,0:0:0:0:
352,144,62915,1,8,0:0:0:0:
360,200,63002,1,6,0:0:0:0:
236,252,63178,2,0,B|200:245|184:201,1,75,0|8,0:0|0:0,0:0:0:0:
132,100,63529,2,0,B|96:106|80:150,1,75,2|0,0:0|0:0,0:0:0:0:
128,252,63880,1,0,0:0:0:0:
20,228,64055,1,2,0:0:0:0:
20,116,64230,1,12,0:0:0:0:
132,100,64406,2,0,L|48:100,1,75,2|0,0:0|0:0,0:0:0:0:
156,156,64757,5,8,0:0:0:0:
212,156,64844,1,8,0:0:0:0:
268,156,64932,1,0,0:0:0:0:
368,104,65108,1,2,0:0:0:0:
360,216,65283,1,0,0:0:0:0:
464,280,65459,5,8,0:0:0:0:
448,332,65546,1,8,0:0:0:0:
396,352,65634,1,8,0:0:0:0:
348,340,65722,1,8,0:0:0:0:
288,352,65809,1,6,0:0:0:0:
180,324,65985,2,0,L|232:256,1,75,0|8,0:0|0:0,0:0:0:0:
164,352,66336,1,0,0:0:0:0:
64,304,66511,1,2,0:0:0:0:
120,204,66687,1,0,0:0:0:0:
172,104,66862,1,8,0:0:0:0:
120,204,67037,1,0,0:0:0:0:
172,104,67213,2,0,P|228:168|220:256,1,150,2|8,0:0|0:0,0:0:0:0:
300,140,67739,5,0,0:0:0:0:
312,196,67827,1,8,0:0:0:0:
308,252,67915,1,2,0:0:0:0:
296,364,68090,2,0,L|304:276,1,75,0|8,0:0|0:0,0:0:0:0:
192,264,68441,1,0,0:0:0:0:
128,252,68529,1,8,0:0:0:0:
64,240,68616,1,6,0:0:0:0:
92,132,68792,2,0,L|192:152,2,75,0|8|0,0:0|0:0|0:0,0:0:0:0:
204,152,69318,1,2,0:0:0:0:
316,160,69494,1,0,0:0:0:0:
436,156,69669,1,8,0:0:0:0:
328,216,69844,5,0,0:0:0:0:
316,160,69932,1,8,0:0:0:0:
336,108,70020,1,2,0:0:0:0:
436,156,70195,2,0,L|472:240,1,75,0|8,0:0|0:0,0:0:0:0:
372,164,70546,1,8,0:0:0:0:
268,204,70722,1,2,0:0:0:0:
164,240,70897,2,0,L|248:212,1,75,0|8,0:0|0:0,0:0:0:0:
136,160,71248,5,8,0:0:0:0:
92,196,71336,1,8,0:0:0:0:
80,252,71423,1,6,0:0:0:0:
4,336,71599,2,0,L|100:336,1,75,0|8,0:0|0:0,0:0:0:0:
192,336,71950,2,0,B|92:336,1,75,0|2,0:0|0:0,0:0:0:0:
96,224,72301,2,0,L|96:312,1,75,0|8,0:0|0:0,0:0:0:0:
176,220,72652,5,0,0:0:0:0:
156,180,72739,1,0,0:0:0:0:
120,152,72827,1,2,0:0:0:0:
208,172,73002,2,0,B|288:172,1,75,0|8,0:0|0:0,0:0:0:0:
340,80,73353,1,0,0:0:0:0:
344,216,73529,1,8,0:0:0:0:
384,80,73704,1,0,0:0:0:0:
388,240,73880,1,2,0:0:0:0:
340,268,73967,1,8,0:0:0:0:
296,232,74055,1,0,0:0:0:0:
312,180,74143,1,0,0:0:0:0:
368,180,74230,5,6,0:0:0:0:
480,176,74406,2,0,B|404:200,1,75,0|8,0:0|0:0,0:0:0:0:
504,256,74757,1,0,0:0:0:0:
452,276,74844,1,0,0:0:0:0:
400,296,74932,1,2,0:0:0:0:
292,324,75108,2,0,L|208:324,2,75,0|8|0,0:0|0:0|0:0,0:0:0:0:
216,240,75634,1,2,0:0:0:0:
328,236,75809,1,0,0:0:0:0:
216,188,75985,2,0,L|308:188,1,75,2|0,0:0|0:0,0:0:0:0:
392,240,76336,5,8,0:0:0:0:
372,188,76423,1,8,0:0:0:0:
372,132,76511,1,8,0:0:0:0:
320,116,76599,1,8,0:0:0:0:
280,76,76687,1,2,0:0:0:0:
228,96,76774,1,2,0:0:0:0:
176,72,76862,1,2,0:0:0:0:
132,108,76950,1,2,0:0:0:0:
92,148,77037,6,0,L|-8:148,1,75,12|0,0:0|0:0,0:0:0:0:
72,248,77388,1,8,0:0:0:0:
168,308,77564,1,0,0:0:0:0:
196,260,77652,1,2,0:0:0:0:
180,208,77739,1,0,0:0:0:0:
132,108,77915,6,0,L|176:192,1,75,0|8,0:0|0:0,0:0:0:0:
280,168,78266,1,0,0:0:0:0:
392,168,78441,1,2,0:0:0:0:
280,216,78616,1,0,0:0:0:0:
392,120,78792,1,8,0:0:0:0:
280,100,78967,1,0,0:0:0:0:
228,120,79055,1,2,0:0:0:0:
208,172,79143,1,2,0:0:0:0:
108,224,79318,6,0,P|136:264|180:280,1,75,0|8,0:0|0:0,0:0:0:0:
320,272,79669,1,0,0:0:0:0:
184,360,79844,1,6,0:0:0:0:
300,360,80020,1,0,0:0:0:0:
248,204,80195,1,8,0:0:0:0:
136,192,80371,5,0,0:0:0:0:
144,248,80459,1,2,0:0:0:0:
180,292,80546,1,2,0:0:0:0:
288,268,80722,2,0,L|244:200,1,75,0|8,0:0|0:0,0:0:0:0:
232,92,81073,1,0,0:0:0:0:
292,192,81248,1,2,0:0:0:0:
192,112,81423,1,0,0:0:0:0:
96,172,81599,2,0,L|172:128,1,75,8|8,0:0|0:0,0:0:0:0:
52,108,81950,5,0,0:0:0:0:
24,156,82037,1,2,0:0:0:0:
32,212,82125,1,2,0:0:0:0:
80,316,82301,1,8,0:0:0:0:
148,224,82476,1,0,0:0:0:0:
256,192,82652,12,2,84055,0:0:0:0:
472,192,84406,5,8,0:0:0:0:
64,192,84757,1,2,0:0:0:0:
256,192,85108,12,8,87915,0:0:0:0:
256,192,88090,5,4,0:0:0:0:
