osu file format v14

[General]
AudioFilename: ignite dnb remix xd.mp3
AudioLeadIn: 0
PreviewTime: 59106
Countdown: 0
SampleSet: Soft
StackLeniency: 0.7
Mode: 0
LetterboxInBreaks: 0
WidescreenStoryboard: 0

[Editor]
Bookmarks: 6311,24825,93397
DistanceSpacing: 0.9
BeatDivisor: 4
GridSize: 4
TimelineZoom: 2.2

[Metadata]
Title:IGNITE (Shanditus Remix)
TitleUnicode:IGNITE (Shanditus Remix)
Artist:Aoi Eir
ArtistUnicode:藍井 エイル
Creator:Secretpipe
Version:Normal
Source:ソードアート・オンライン ll
Tags:cut version sword art online dnb drum and bass remix u natsu -kevincela- galvenize
BeatmapID:766081
BeatmapSetID:347009

[Difficulty]
HPDrainRate:4
CircleSize:3
OverallDifficulty:4
ApproachRate:4
SliderMultiplier:1.1
SliderTickRate:1

[Events]
//Background and Video events
0,0,"new bg (2).jpg",0,0
//Break Periods
2,13877,23500
//Storyboard Layer 0 (Background)
//Storyboard Layer 1 (Fail)
//Storyboard Layer 2 (Pass)
//Storyboard Layer 3 (Foreground)
//Storyboard Sound Samples

[TimingPoints]
135,342.857142857143,4,2,0,40,1,0
2877,-100,4,2,0,40,0,0
24820,-100,4,2,0,60,0,0
60477,-100,4,2,0,70,0,1
93392,-100,4,2,0,40,0,0

[Colours]
Combo1 : 97,119,186
Combo2 : 205,250,233
Combo3 : 56,84,216
Combo4 : 136,247,236

[HitObjects]
281,308,2877,6,0,P|340:312|395:299,1,110,4|0,0:0|0:0,0:0:0:0:
472,247,3563,2,0,L|473:135,1,110,0|0,0:0|0:0,0:0:0:0:
430,47,4249,1,2,0:0:0:0:
331,33,4592,1,0,0:0:0:0:
361,127,4935,2,0,B|251:162|254:102|145:133,1,220,0|2,0:0|0:0,0:0:0:0:
14,285,6306,2,0,B|124:320|121:260|230:291,1,220,0|2,0:0|0:0,0:0:0:0:
378,303,7506,2,0,L|373:231,1,55
387,50,8363,6,0,B|320:38|271:53|271:53|292:113|260:159,1,220,2|0,0:0|0:0,0:0:0:0:
188,335,9735,1,2,0:0:0:0:
34,210,10420,1,0,0:0:0:0:
139,42,11106,2,0,L|215:49,1,55,2|0,0:0|0:0,0:0:0:0:
228,139,11620,2,0,L|119:128,2,110,0|0|0,0:0|0:0|0:0,0:0:0:0:
276,148,12477,5,2,0:0:0:0:
371,175,12820,1,0,0:0:0:0:
400,80,13163,1,0,0:0:0:0:
305,49,13506,2,0,L|319:13,2,27.5
68,101,24820,6,0,P|128:94|190:107,1,110,6|8,0:0|0:0,0:0:0:0:
266,144,25506,2,0,P|320:152|374:145,1,110,0|8,0:0|0:0,0:0:0:0:
457,90,26192,2,0,P|457:156|460:223,1,110,0|8,0:0|0:0,0:0:0:0:
448,298,26877,1,0,0:0:0:0:
368,238,27220,1,8,0:0:0:0:
345,333,27563,6,0,P|285:343|221:327,1,110,2|8,0:0|0:0,0:0:0:0:
151,283,28249,2,0,P|144:231|151:168,1,110,0|8,0:0|0:0,0:0:0:0:
172,77,28935,1,0,0:0:0:0:
259,32,29277,1,8,0:0:0:0:
349,72,29620,2,0,P|346:137|356:190,1,110,0|8,0:0|0:0,0:0:0:0:
348,280,30306,6,0,B|288:294|250:248|250:248|214:294|136:281,1,220,6|0,0:0|0:0,0:0:0:0:
50,280,31335,1,8,0:0:0:0:
107,199,31677,2,0,P|117:149|108:69,1,110,2|8,0:0|0:0,0:0:0:0:
201,45,32363,2,0,P|197:99|207:153,1,110,0|8,0:0|0:0,0:0:0:0:
303,176,33049,2,0,P|308:94|293:13,2,165,6|2|8,0:0|0:0|0:0,0:0:0:0:
266,268,34420,2,0,P|211:277|151:269,1,110,0|8,0:0|0:0,0:0:0:0:
70,222,35106,2,0,L|74:96,1,110,0|8,0:0|0:0,0:0:0:0:
144,42,35792,6,0,B|225:50|225:50|277:38|277:38|367:42,1,220,2|0,0:0|0:0,0:0:0:0:
461,46,36820,1,8,0:0:0:0:
405,127,37163,2,0,P|388:182|392:242,1,110,2|8,0:0|0:0,0:0:0:0:
324,308,37849,2,0,P|284:293|194:299,1,110,0|8,0:0|0:0,0:0:0:0:
127,333,38535,6,0,B|132:245|132:245|121:195|121:195|128:109,1,220,2|0,0:0|0:0,0:0:0:0:
182,31,39563,1,8,0:0:0:0:
252,101,39906,2,0,P|258:160|250:218,1,110,0|8,0:0|0:0,0:0:0:0:
208,299,40592,1,0,0:0:0:0:
305,316,40935,1,8,0:0:0:0:
349,227,41277,6,0,P|355:172|348:117,1,110,6|0,0:0|0:0,0:0:0:0:
270,57,41963,2,0,L|141:60,1,110,0|8,0:0|0:0,0:0:0:0:
62,78,42649,1,2,0:0:0:0:
121,159,42992,1,8,0:0:0:0:
66,241,43335,2,0,L|5:243,2,55,0|0|8,0:0|0:0|0:0,0:0:0:0:
164,252,44020,6,0,P|280:276|380:224,1,220,2|0,0:0|0:0,0:0:0:0:
445,172,45049,2,0,P|466:222|453:289,2,110,8|0|8,0:0|0:0|0:0,0:0:0:0:
367,110,46077,1,0,0:0:0:0:
283,163,46420,1,8,0:0:0:0:
202,105,46763,5,0,0:0:0:0:
115,152,47106,2,0,P|105:217|113:276,1,110,8|0,0:0|0:0,0:0:0:0:
132,357,47792,1,8,0:0:0:0:
202,287,48135,2,0,L|330:283,1,110,2|8,0:0|0:0,0:0:0:0:
409,266,48820,2,0,P|416:213|394:148,1,110,0|8,0:0|0:0,0:0:0:0:
335,84,49506,5,0,0:0:0:0:
254,141,49849,2,0,P|194:149|146:138,1,110,8|0,0:0|0:0,0:0:0:0:
67,197,50535,2,0,P|65:256|45:302,2,110,8|2|8,0:0|0:0|0:0,0:0:0:0:
51,99,51563,1,0,0:0:0:0:
129,38,51906,1,8,0:0:0:0:
146,138,52249,5,0,0:0:0:0:
220,73,52592,2,0,P|272:67|343:70,1,110,8|0,0:0|0:0,0:0:0:0:
351,165,53277,2,0,P|296:171|241:169,1,110,8|0,0:0|0:0,0:0:0:0:
146,138,53963,2,0,P|143:171|150:206,2,55,8|0|0,0:0|0:0|0:0,0:0:0:0:
129,38,54649,1,8,0:0:0:0:
51,99,54992,6,0,P|40:150|50:219,1,110,6|8,0:0|0:0,0:0:0:0:
111,281,55677,2,0,P|162:292|231:282,1,110,0|8,0:0|0:0,0:0:0:0:
312,252,56363,2,0,P|365:240|420:247,1,110,2|8,0:0|0:0,0:0:0:0:
504,300,57049,1,0,0:0:0:0:
506,200,57392,1,8,0:0:0:0:
256,192,57735,12,4,59106,0:0:0:0:
221,349,59792,6,0,L|344:344,1,110,0|0,0:0|0:0,0:0:0:0:
426,310,60477,6,0,P|434:259|421:187,1,110,6|8,0:0|0:0,0:0:0:0:
355,131,61163,2,0,P|304:123|232:136,1,110,0|8,0:0|0:0,0:0:0:0:
151,160,61849,1,2,0:0:0:0:
86,88,62192,1,8,0:0:0:0:
47,179,62535,2,0,L|53:293,1,110,0|8,0:0|0:0,0:0:0:0:
133,346,63220,6,0,P|190:357|243:330,1,110,6|0,0:0|0:0,0:0:0:0:
296,257,63906,1,0,0:0:0:0:
261,163,64249,1,8,0:0:0:0:
312,78,64592,2,0,P|367:67|426:75,1,110,2|0,0:0|0:0,0:0:0:0:
507,124,65277,2,0,L|507:252,1,110,0|8,0:0|0:0,0:0:0:0:
452,316,65963,6,0,B|401:298|368:321|368:321|326:301|326:301|291:329|233:309,1,220,6|0,0:0|0:0,0:0:0:0:
145,302,66992,1,8,0:0:0:0:
85,222,67335,2,0,P|77:168|86:108,1,110,2|0,0:0|0:0,0:0:0:0:
165,57,68020,2,0,L|300:55,1,110,0|8,0:0|0:0,0:0:0:0:
329,138,68706,2,0,L|162:140,2,165,6|2|8,0:0|0:0|0:0,0:0:0:0:
411,192,70077,2,0,P|423:139|408:76,2,110,2|8|0,0:0|0:0|0:0,0:0:0:0:
336,258,71106,1,8,0:0:0:0:
240,285,71449,6,0,P|187:278|113:288,1,110,6|0,0:0|0:0,0:0:0:0:
40,324,72135,2,0,L|37:204,1,110,0|8,0:0|0:0,0:0:0:0:
57,117,72820,1,0,0:0:0:0:
137,175,73163,1,8,0:0:0:0:
155,77,73506,2,0,P|209:68|269:78,1,110,0|8,0:0|0:0,0:0:0:0:
345,132,74192,6,0,B|334:187|346:243|346:243|299:219|229:243,1,220,6|0,0:0|0:0,0:0:0:0:
145,267,75220,1,8,0:0:0:0:
52,231,75563,2,0,P|39:177|48:123,1,110,2|0,0:0|0:0,0:0:0:0:
82,31,76249,2,0,P|55:24|18:30,2,55,0|0|8,0:0|0:0|0:0,0:0:0:0:
179,51,76935,6,0,P|234:57|289:46,1,110,6|0,0:0|0:0,0:0:0:0:
361,112,77620,2,0,P|341:163|337:217,1,110,0|8,0:0|0:0,0:0:0:0:
338,317,78306,1,2,0:0:0:0:
438,324,78649,1,0,0:0:0:0:
438,225,78992,1,0,0:0:0:0:
337,217,79335,1,8,0:0:0:0:
253,269,79677,6,0,P|146:301|86:224,1,220,6|0,0:0|0:0,0:0:0:0:
55,132,80706,1,8,0:0:0:0:
132,70,81049,2,0,P|185:59|257:78,1,110,2|0,0:0|0:0,0:0:0:0:
336,87,81735,2,0,L|344:24,2,55,0|0|8,0:0|0:0|0:0,0:0:0:0:
314,183,82420,6,0,P|311:246|334:304,1,110,6|0,0:0|0:0,0:0:0:0:
421,263,83106,2,0,P|424:200|401:142,1,110,0|8,0:0|0:0,0:0:0:0:
336,87,83792,1,2,0:0:0:0:
242,119,84135,1,8,0:0:0:0:
161,61,84477,2,0,P|147:117|160:178,1,110,0|8,0:0|0:0,0:0:0:0:
204,254,85163,6,0,B|255:236|288:259|288:259|330:239|330:239|365:267|423:247,1,220,2|0,0:0|0:0,0:0:0:0:
500,204,86192,2,0,P|503:147|484:89,1,110,8|0,0:0|0:0,0:0:0:0:
405,41,86877,2,0,P|354:29|288:43,1,110,8|0,0:0|0:0,0:0:0:0:
206,76,87563,1,8,0:0:0:0:
126,134,87906,6,0,P|110:197|125:254,1,110,2|8,0:0|0:0,0:0:0:0:
190,309,88592,2,0,L|323:307,1,110,0|8,0:0|0:0,0:0:0:0:
396,283,89277,1,2,0:0:0:0:
412,186,89620,1,8,0:0:0:0:
323,140,89963,1,0,0:0:0:0:
253,210,90306,1,8,0:0:0:0:
256,192,90649,12,2,93392,0:0:0:0:
