osu file format v13

[General]
AudioFilename: 01. IGNITE.mp3
AudioLeadIn: 0
PreviewTime: 135388
Countdown: 0
SampleSet: Soft
StackLeniency: 0.7
Mode: 0
LetterboxInBreaks: 0
WidescreenStoryboard: 1

[Editor]
Bookmarks: 58195,133107,175914,176002
DistanceSpacing: 0.8
BeatDivisor: 4
GridSize: 4
TimelineZoom: 1.3

[Metadata]
Title:IGNITE
TitleUnicode:IGNITE
Artist:Aoi Eir
ArtistUnicode:藍井エイル
Creator:NightNine
Version:Death
Source:Sword Art Online II
Tags:ソードアート・オンライン 2 Gun Gale SAO ALO GGO zatteiy Shion Kirito
BeatmapID:499463
BeatmapSetID:212421

[Difficulty]
HPDrainRate:7.5
CircleSize:4
OverallDifficulty:8
ApproachRate:9.2
SliderMultiplier:2
SliderTickRate:2

[Events]
//Background and Video events
0,0,"bg.jpg",0,0
//Break Periods
2,170676,172713
2,173483,175344
2,176290,178151
2,179097,180958
//Storyboard Layer 0 (Background)
//Storyboard Layer 1 (Fail)
//Storyboard Layer 2 (Pass)
//Storyboard Layer 3 (Foreground)
//Storyboard Sound Samples
//Background Colour Transformations
3,100,163,162,255

[TimingPoints]
2055,350.877192982456,4,2,0,65,1,0
2756,-133.333333333333,4,2,2,65,0,0
12054,-133.333333333333,4,2,1,75,0,0
12581,-133.333333333333,4,2,1,90,0,0
13107,-100,4,2,1,80,0,0
16440,-80,4,2,1,80,0,0
16967,-100,4,2,1,80,0,0
21704,-100,4,2,2,80,0,0
21879,-100,4,2,1,80,0,0
24511,-133.333333333333,4,2,2,50,0,0
27142,-133.333333333333,4,2,1,50,0,0
27669,-133.333333333333,4,2,2,50,0,0
27844,-133.333333333333,4,2,1,50,0,0
28370,-133.333333333333,4,2,2,50,0,0
29949,-133.333333333333,4,2,1,50,0,0
30476,-133.333333333333,4,2,2,50,0,0
31353,-133.333333333333,4,2,1,50,0,0
31879,-133.333333333333,4,2,2,50,0,0
34335,-133.333333333333,4,2,1,50,0,0
35212,-125,4,2,1,50,0,0
35388,-117.647058823529,4,2,1,50,0,0
35563,-111.111111111111,4,2,1,50,0,0
35739,-100,4,2,1,70,0,0
36791,-111.111111111111,4,2,1,70,0,0
44160,-80,4,2,1,70,0,0
46967,-111.111111111111,4,2,1,70,0,0
49072,-111.111111111111,4,2,2,70,0,0
49598,-111.111111111111,4,2,1,70,0,0
49774,-100,4,2,1,80,0,0
54160,-100,4,2,2,80,0,0
54511,-100,4,2,1,80,0,0
58107,-100,4,2,2,80,0,0
58370,-100,4,2,1,80,0,0
59774,-100,4,2,1,70,0,0
60300,-100,4,2,1,85,0,0
61002,-100,4,2,1,90,0,1
75037,-100,4,2,1,70,0,1
75212,-100,4,2,1,90,0,1
77844,-100,4,2,1,70,0,1
78019,-100,4,2,1,90,0,1
83107,-100,4,2,1,70,0,1
83458,-100,4,2,1,90,0,1
94511,-100,4,2,2,80,0,1
94686,-100,4,2,1,80,0,0
95388,-100,4,2,2,80,0,0
95739,-100,4,2,1,80,0,0
99774,-133.333333333333,4,2,1,90,0,0
100300,-133.333333333333,4,2,1,75,0,0
105563,-133.333333333333,4,2,1,55,0,0
105739,-133.333333333333,4,2,1,75,0,0
108721,-133.333333333333,4,2,1,55,0,0
108897,-133.333333333333,4,2,1,75,0,0
111879,-100,4,2,1,80,0,0
115476,-100,4,2,1,60,0,0
115563,-100,4,2,1,70,0,0
115651,-100,4,2,1,80,0,0
115739,-100,4,2,1,80,0,0
117142,-100,4,2,1,60,0,0
117493,-100,4,2,3,80,0,0
117669,-100,4,2,1,80,0,0
118370,-100,4,2,1,70,0,0
118633,-100,4,2,1,80,0,0
119949,-80,4,2,1,80,0,0
121704,-100,4,2,1,80,0,0
125212,-100,4,2,1,66,0,0
125388,-100,4,2,1,80,0,0
128019,-100,4,2,1,66,0,0
128195,-100,4,2,1,80,0,0
129072,-100,4,2,1,70,0,0
131177,-100,4,2,1,80,0,0
136791,-100,4,2,1,90,0,1
140651,-100,4,2,1,80,0,1
156090,-100,4,2,2,75,0,1
156265,-100,4,2,1,75,0,1
158546,-100,4,2,1,85,0,1
167669,-100,4,2,1,70,0,1
168195,-100,4,2,1,80,0,1
168721,-100,4,2,1,90,0,1
170476,-100,4,2,1,40,0,0
181704,-111.111111111111,4,2,1,70,0,0
190125,-111.111111111111,4,2,1,65,0,0
190476,-111.111111111111,4,2,1,70,0,0
190826,-111.111111111111,4,2,1,75,0,0
191177,-111.111111111111,4,2,1,80,0,0
192932,-100,4,2,1,65,0,0
192932,-100,4,2,1,80,0,0
198897,-100,4,2,1,75,0,0
200914,-100,4,2,3,75,0,0
201090,-100,4,2,1,75,0,0
202054,-100,4,2,1,85,0,0
211879,-125,4,2,1,80,0,0
212230,-111.111111111111,4,2,1,65,0,0
212581,-100,4,2,1,70,0,0
212932,-86.9565217391304,4,2,1,70,0,0
213283,-86.9565217391304,4,2,1,30,0,0
213458,-86.9565217391304,4,2,1,40,0,0
213633,-86.9565217391304,4,2,1,45,0,0
213809,-86.9565217391304,4,2,1,50,0,0
213984,-86.9565217391304,4,2,1,60,0,0
214160,-86.9565217391304,4,2,1,70,0,0
214335,-86.9565217391304,4,2,1,80,0,0
214511,-86.9565217391304,4,2,1,90,0,0
214686,-86.9565217391304,4,2,1,100,0,0
215212,-200,4,2,1,30,0,0
216090,-200,4,2,1,90,0,0
217493,-100,4,2,1,90,0,1
239774,-100,4,2,1,100,0,0

[Colours]
Combo1 : 0,11,210
Combo2 : 53,255,245
Combo3 : 255,255,255
Combo4 : 142,255,68

[HitObjects]
152,116,2054,5,2,0:0:0:0:
344,168,2230,1,0,0:0:0:0:
276,248,2405,1,0,0:0:0:0:
244,152,2581,1,0,0:0:0:0:
312,70,2756,2,0,P|352:58|396:74,1,75.0000028610231,2|0,0:0|0:0,0:0:0:0:
496,240,3107,2,0,P|452:240|360:172,1,150.000005722046,0|2,0:0|0:0,0:0:0:0:
288,20,3633,5,0,0:0:0:0:
156,120,3809,2,0,P|100:132|56:124,1,75.0000028610231,0|0,0:0|0:0,0:0:0:0:
68,36,4160,1,2,0:0:0:0:
32,192,4335,1,0,0:0:0:0:
156,120,4511,1,0,0:0:0:0:
188,312,4686,1,0,0:0:0:0:
348,152,4862,6,0,P|288:128|212:172,1,150.000005722046,2|0,0:0|0:0,0:0:0:0:
84,352,5388,1,0,0:0:0:0:
288,212,5563,2,0,P|316:276|268:340,1,150.000005722046,2|0,0:0|0:0,0:0:0:0:
28,84,6090,1,0,0:0:0:0:
28,84,6265,2,0,L|16:0,1,75.0000028610231,2|0,0:0|0:0,0:0:0:0:
112,132,6616,2,0,L|122:206,1,75.0000028610231,0|0,0:0|0:0,0:0:0:0:
60,320,6967,1,2,0:0:0:0:
60,320,7054,1,0,0:0:0:0:
60,320,7142,1,0,0:0:0:0:
236,200,7318,2,0,P|232:252|212:284,1,75.0000028610231,0|0,0:0|0:0,0:0:0:0:
436,208,7669,6,0,P|464:280|480:360,1,150.000005722046,2|0,0:0|0:0,0:0:0:0:
356,296,8195,1,0,0:0:0:0:
356,296,8370,2,0,P|288:272|208:304,1,150.000005722046,2|0,0:0|0:0,0:0:0:0:
68,152,9072,6,0,L|152:160,1,75.0000028610231,2|0,0:0|0:0,0:0:0:0:
244,116,9423,2,0,L|344:104,1,75.0000028610231
512,224,9774,2,0,P|448:208|368:220,1,112.500004291535,2|0,0:0|0:0,0:0:0:0:
368,232,10125,2,0,P|300:240|264:244,1,75.0000028610231
80,280,10476,6,0,P|117:283|151:298,2,75.0000028610231,2|0|0,0:0|0:0|0:0,0:0:0:0:
336,344,11002,2,0,L|320:244,1,75.0000028610231,2|0,0:0|0:0,0:0:0:0:
176,32,11353,2,0,L|187:106,1,75.0000028610231,2|2,0:0|0:0,0:0:0:0:
308,200,11704,1,2,0:0:0:0:
136,192,11879,1,2,0:0:0:0:
344,104,12054,1,2,0:0:0:0:
236,312,12230,1,2,0:0:0:0:
188,108,12405,1,2,0:0:0:0:
352,280,12581,1,8,0:0:0:0:
60,328,12756,1,8,0:0:0:0:
96,80,13107,5,0,0:0:0:0:
96,80,13195,1,0,0:0:0:0:
96,80,13283,2,0,P|184:104|192:112,1,100,6|0,0:0|0:0,0:0:0:0:
124,188,13633,1,8,0:0:0:0:
264,72,13809,1,0,0:0:0:0:
303,199,13984,2,0,P|253:203|208:184,1,100,2|0,0:0|0:0,0:0:0:0:
424,144,14335,6,0,L|408:252,1,100,8|0,0:0|0:0,0:0:0:0:
456,340,14686,1,2,0:0:0:0:
328,256,14862,1,0,0:0:0:0:
180,284,15037,1,8,0:0:0:0:
264,352,15212,1,0,0:0:0:0:
264,352,15300,1,0,0:0:0:0:
264,352,15388,2,0,P|288:284|292:232,1,100,2|0,0:0|0:0,0:0:0:0:
196,60,15739,2,0,L|212:184,1,100,8|0,0:0|0:0,0:0:0:0:
352,180,16090,5,6,0:0:0:0:
208,160,16265,1,0,0:0:0:0:
400,88,16440,1,8,0:0:0:0:
452,316,16616,2,0,P|396:276|280:288,1,187.5,0|2,0:0|0:0,0:0:0:0:
256,304,16967,2,0,P|196:320|132:304,1,100,0|8,0:0|0:0,0:0:0:0:
84,112,17318,1,0,0:0:0:0:
216,88,17493,1,2,0:0:0:0:
84,112,17669,6,0,L|68:224,2,100,2|8|0,0:0|0:0|0:0,0:0:0:0:
240,20,18195,1,0,0:0:0:0:
276,148,18370,1,10,0:0:0:0:
299,180,18458,1,10,0:0:0:0:
335,195,18546,1,8,0:0:0:0:
376,196,18633,1,8,0:0:0:0:
412,188,18721,1,8,0:0:0:0:
444,176,18809,1,8,0:0:0:0:
476,164,18897,6,0,P|468:112|488:64,1,100,12|0,0:0|0:0,0:0:0:0:
444,268,19247,2,0,P|392:276|320:268,1,100,8|0,0:0|0:0,0:0:0:0:
136,216,19598,1,0,0:0:0:0:
252,184,19774,1,0,0:0:0:0:
296,348,19949,1,8,0:0:0:0:
192,288,20125,6,0,P|188:196|192:148,1,100,0|0,0:0|0:0,0:0:0:0:
256,88,20476,1,0,0:0:0:0:
357,151,20651,1,8,0:0:0:0:
298,255,20826,1,0,0:0:0:0:
358,66,21002,6,0,P|440:107|407:200,1,200,0|8,0:0|0:0,0:0:0:0:
278,154,21528,1,0,0:0:0:0:
370,340,21704,1,4,0:0:0:0:
280,277,21879,1,0,0:0:0:0:
260,288,21967,1,0,0:0:0:0:
240,300,22054,2,0,P|184:320|124:320,1,100,8|0,0:0|0:0,0:0:0:0:
25,180,22405,1,2,0:0:0:0:
164,167,22581,6,0,P|248:108|264:77,2,100,8|8|4,0:0|0:0|0:0,0:0:0:0:
314,234,23107,1,8,0:0:0:0:
314,234,23195,1,0,0:0:0:0:
314,234,23283,1,0,0:0:0:0:
73,122,23458,1,4,0:3:0:0:
365,58,23633,1,4,0:3:0:0:
228,299,23809,1,8,0:0:0:0:
215,91,23984,1,8,0:0:0:0:
441,191,24160,1,2,0:0:0:0:
441,191,24511,6,0,P|369:179|303:230,1,150.000005722046,4|2,0:0|0:0,0:0:0:0:
237,350,25037,1,0,0:0:0:0:
97,135,25212,2,0,L|189:172,1,75.0000028610231,0|0,3:0|0:0,0:0:0:0:
8,260,25563,2,0,L|87:238,1,75.0000028610231,0|0,0:0|0:0,0:0:0:0:
191,211,25914,1,0,3:0:0:0:
182,57,26090,2,0,P|140:44|80:44,2,75.0000028610231,0|2|0,0:0|0:0|0:0,0:0:0:0:
284,132,26616,1,0,3:0:0:0:
276,336,26791,2,0,L|282:190,1,112.500004291535
312,188,27142,6,0,L|322:112,1,75.0000028610231,2|2,0:0|0:0,0:0:0:0:
491,286,27669,2,0,L|481:362,1,75.0000028610231,2|2,0:0|0:0,0:0:0:0:
481,360,28019,1,2,0:0:0:0:
390,156,28370,2,0,L|400:82,1,75.0000028610231,0|0,0:0|0:0,0:0:0:0:
482,149,28721,5,0,3:0:0:0:
482,149,28897,1,0,0:0:0:0:
315,210,29072,1,0,0:0:0:0:
315,210,29247,1,0,0:0:0:0:
231,296,29423,2,0,P|182:315|133:313,1,75.0000028610231,0|0,3:0|0:0,0:0:0:0:
16,184,29774,2,0,P|60:190|115:218,1,75.0000028610231,2|2,0:0|0:0,0:0:0:0:
253,261,30125,6,0,P|286:202|285:114,1,150.000005722046,0|0,0:0|3:0,0:0:0:0:
184,168,30651,1,2,0:0:0:0:
96,97,30826,1,0,0:0:0:0:
182,181,31002,1,0,0:0:0:0:
121,284,31177,2,0,P|34:302|17:296,1,75.0000028610231,0|2,3:0|0:0,0:0:0:0:
239,338,31528,6,0,B|260:329|281:326|281:326|337:354|396:343,1,150.000005722046,2|0,0:0|3:0,0:0:0:0:
480,286,32054,1,0,0:0:0:0:
401,204,32230,1,0,0:0:0:0:
299,252,32405,1,0,0:0:0:0:
489,211,32581,2,0,L|477:304,1,75.0000028610231,0|0,3:0|0:0,0:0:0:0:
386,281,32932,6,0,P|392:210|408:131,1,150.000005722046,0|0,0:0|3:0,0:0:0:0:
437,18,33458,1,2,0:0:0:0:
437,18,33633,1,0,0:0:0:0:
276,93,33984,2,0,P|265:136|259:180,1,75.0000028610231,0|0,3:0|0:0,0:0:0:0:
356,63,34335,1,4,0:3:0:0:
179,32,34511,1,8,0:0:0:0:
60,131,34686,5,0,0:0:0:0:
65,160,34774,1,0,0:0:0:0:
71,189,34862,1,0,0:0:0:0:
77,218,34949,1,0,0:0:0:0:
85,247,35037,2,0,P|94:277|116:307,1,37.5000014305115,10|8,0:0|0:0,0:0:0:0:
158,189,35212,2,0,P|164:162|176:127,1,40,8|0,0:0|0:0,0:0:0:0:
219,279,35388,2,0,P|236:298|276:321,1,42.5000008106232,2|0,0:0|0:0,0:0:0:0:
310,223,35563,2,0,P|340:215|367:201,1,44.999998626709,2|2,0:0|0:0,0:0:0:0:
456,152,35739,6,0,P|411:105|267:113,1,200,4|8,0:0|0:0,0:0:0:0:
132,188,36265,1,0,0:0:0:0:
204,108,36440,2,0,P|196:60|200:8,1,100
132,188,36791,2,0,L|136:292,1,89.9999972534181,8|0,0:0|0:0,0:0:0:0:
248,308,37142,6,0,P|320:356|400:324,1,179.999994506836,0|8,0:0|0:0,0:0:0:0:
264,76,37669,2,0,P|192:28|112:60,1,179.999994506836
240,172,38195,2,0,L|332:160,1,89.9999972534181,8|0,0:0|0:0,0:0:0:0:
412,324,38546,1,0,0:0:0:0:
416,176,38721,1,0,0:0:0:0:
272,248,38897,2,0,P|272:304|304:340,1,89.9999972534181,8|0,0:0|0:0,0:0:0:0:
360,128,39247,1,0,0:0:0:0:
368,100,39335,1,0,0:0:0:0:
376,72,39423,1,2,0:0:0:0:
444,240,39598,6,0,L|348:212,1,89.9999972534181,8|0,0:0|0:0,0:0:0:0:
98,198,39949,1,2,0:0:0:0:
295,146,40125,1,2,0:0:0:0:
168,304,40300,1,8,0:0:0:0:
178,101,40476,1,0,0:0:0:0:
289,272,40651,1,8,0:3:0:0:
289,272,40739,1,0,0:0:0:0:
289,272,40826,1,0,0:0:0:0:
204,200,41002,6,0,P|224:116|224:88,1,89.9999972534181,8|0,0:0|0:0,0:0:0:0:
28,16,41353,2,0,P|36:92|48:136,1,89.9999972534181
72,268,41704,1,8,0:0:0:0:
296,80,41879,2,0,P|208:124|132:96,1,179.999994506836
296,80,42405,1,8,0:0:0:0:
492,184,42581,6,0,P|464:136|432:104,1,89.9999972534181
244,232,42932,2,0,P|312:208|340:188,1,89.9999972534181,0|8,0:0|0:0,0:0:0:0:
364,40,43283,1,0,0:0:0:0:
416,252,43458,1,2,0:0:0:0:
272,148,43633,1,2,0:0:0:0:
476,192,43809,2,0,P|492:288|452:340,1,134.999995880127,8|0,0:0|0:0,0:0:0:0:
408,344,44160,6,0,P|336:328|348:120,1,312.5,4|0,0:0|0:0,0:0:0:0:
432,84,44686,2,0,B|372:136|296:124|296:124|264:68|184:80,1,250,4|0,0:0|0:0,0:0:0:0:
36,312,45212,6,0,P|148:192|296:240,1,312.5,4|0,0:0|0:0,0:0:0:0:
272,308,45739,2,8,B|212:296|184:248|184:248|272:192|216:88,1,250,4|0,0:0|0:0,0:3:0:0:
64,40,46265,1,8,0:3:0:0:
120,240,46440,1,8,0:3:0:0:
448,40,46616,1,4,3:0:0:0:
392,240,46791,1,4,3:0:0:0:
272,188,46967,5,8,0:0:0:0:
272,188,47142,2,2,P|244:116|248:76,1,89.9999972534181,8|2,0:0|0:0,0:0:0:0:
476,212,47493,1,8,0:0:0:0:
476,212,47669,2,0,P|456:272|432:304,1,89.9999972534181,8|2,0:0|0:0,0:0:0:0:
196,280,48019,2,0,P|296:268|316:252,1,89.9999972534181,8|8,0:0|0:0,0:0:0:0:
384,136,48370,1,2,0:0:0:0:
376,352,48546,2,0,P|396:276|392:236,1,89.9999972534181,8|8,0:0|0:0,0:0:0:0:
296,88,48897,1,2,0:0:0:0:
88,177,49072,5,2,0:0:0:0:
91,212,49160,1,2,0:0:0:0:
94,247,49247,1,2,0:0:0:0:
99,286,49335,1,0,0:0:0:0:
116,320,49423,1,0,0:0:0:0:
148,348,49511,1,0,0:0:0:0:
188,352,49598,1,2,0:0:0:0:
224,336,49686,1,2,0:0:0:0:
248,304,49774,6,8,L|272:200,1,100,8|8,0:0|0:0,0:0:0:0:
298,100,50125,1,2,0:0:0:0:
440,240,50300,2,0,L|336:256,1,100,8|8,0:3|0:3,0:0:0:0:
180,272,50651,1,2,0:0:0:0:
372,164,50826,1,8,0:0:0:0:
120,116,51002,1,0,0:0:0:0:
288,180,51177,1,0,0:0:0:0:
252,340,51353,6,0,P|256:284|240:220,1,100,8|0,0:0|0:0,0:0:0:0:
36,156,51704,1,0,0:0:0:0:
60,180,51791,1,0,0:0:0:0:
92,192,51879,1,8,0:3:0:0:
260,112,52054,1,8,0:3:0:0:
136,240,52230,2,0,P|89:251|32:264,1,100,2|2,0:0|0:0,0:0:0:0:
260,112,52581,6,0,P|352:88|452:128,1,200,14|0,0:0|0:0,0:0:0:0:
480,296,53107,1,0,0:0:0:0:
480,296,53195,1,0,0:0:0:0:
480,296,53283,2,0,L|384:256,1,100,8|0,0:0|0:0,0:0:0:0:
240,324,53633,1,0,0:0:0:0:
340,220,53809,6,0,L|324:132,1,50,2|0,0:0|0:0,0:0:0:0:
236,84,53984,2,0,L|248:168,1,50,10|0,0:0|0:0,0:0:0:0:
216,260,54160,2,0,B|240:240|252:252|284:236,1,50,2|0,0:0|0:0,0:0:0:0:
152,176,54335,2,0,P|124:164|68:160,1,50,0|0,0:0|0:0,0:0:0:0:
32,288,54511,6,0,P|80:296|164:264,1,100,2|8,0:0|0:0,0:0:0:0:
336,208,54862,1,0,0:0:0:0:
216,324,55037,1,0,0:0:0:0:
296,108,55212,1,0,0:0:0:0:
225,224,55388,2,0,L|216:324,1,100,12|0,0:0|0:0,0:0:0:0:
404,272,55739,1,0,0:0:0:0:
225,224,55914,1,0,0:0:0:0:
388,104,56090,2,0,P|412:160|424:228,1,100,8|0,0:0|0:0,0:0:0:0:
104,336,56440,2,0,P|116:287|136:242,1,100,8|2,0:0|0:0,0:0:0:0:
236,123,56791,5,6,0:0:0:0:
272,316,56967,1,2,0:0:0:0:
64,214,57142,1,8,0:3:0:0:
339,241,57318,1,2,0:0:0:0:
176,301,57493,1,2,0:0:0:0:
404,155,57669,1,8,0:3:0:0:
428,344,57844,2,0,P|372:352|308:328,1,100,12|0,0:0|0:0,0:0:0:0:
300,308,58107,1,0,0:0:0:0:
303,259,58195,1,2,0:0:0:0:
334,227,58283,1,2,0:0:0:0:
378,225,58370,6,0,L|453:239,1,50,8|8,0:0|0:0,0:0:0:0:
334,103,58546,2,0,L|268:90,1,50,8|0,0:0|0:0,0:0:0:0:
229,214,58721,2,0,L|144:221,1,50
57,309,58897,6,0,L|149:298,1,50,8|0,0:0|0:0,0:0:0:0:
143,134,59072,2,0,L|210:147,1,50,8|0,0:3|0:0,0:0:0:0:
297,281,59247,2,0,L|354:292,1,50,8|0,0:0|0:0,0:0:0:0:
484,200,59423,1,4,0:3:0:0:
385,82,59774,5,0,0:0:0:0:
406,268,59949,1,0,0:0:0:0:
283,141,60125,1,0,0:0:0:0:
478,95,60300,1,4,0:3:0:0:
368,344,60476,1,4,0:3:0:0:
157,129,60651,1,8,0:3:0:0:
512,232,60826,1,0,0:0:0:0:
272,352,61002,6,0,P|224:296|224:208,1,150,4|0,0:0|0:0,0:0:0:0:
248,176,61353,2,0,P|276:116|272:80,1,100,8|2,0:0|0:0,0:0:0:0:
112,212,61704,1,0,0:0:0:0:
312,212,61879,1,0,0:0:0:0:
120,328,62054,2,0,P|68:344|0:344,1,100,8|0,0:0|0:0,0:0:0:0:
0,32,62405,5,2,0:0:0:0:
188,160,62581,2,0,P|200:240|168:280,1,100,0|8,0:0|0:0,0:0:0:0:
76,88,62932,1,0,0:0:0:0:
272,36,63107,1,2,0:0:0:0:
216,280,63283,1,2,0:0:0:0:
368,120,63458,6,0,L|272:156,1,100,8|0,0:0|0:0,0:0:0:0:
131,286,63809,2,0,B|156:260|204:256|204:256|243:271|243:271|287:262|340:256,1,200,4|8,0:0|0:0,0:0:0:0:
452,140,64335,1,2,0:0:0:0:
424,300,64511,1,8,0:0:0:0:
384,312,64598,1,0,0:0:0:0:
344,324,64686,1,8,0:3:0:0:
148,180,64862,6,0,P|208:180|256:196,1,100,8|0,0:0|0:0,0:0:0:0:
343,325,65212,1,8,3:0:0:0:
347,290,65300,1,0,3:0:0:0:
352,256,65388,1,0,3:0:0:0:
355,221,65476,1,0,3:0:0:0:
359,185,65563,1,8,0:0:0:0:
376,40,65739,1,0,0:0:0:0:
252,96,65914,2,0,L|272:208,1,100,0|0,0:0|0:0,0:0:0:0:
269,194,66177,1,0,3:0:0:0:
269,194,66265,1,8,3:0:0:0:
456,320,66440,5,0,0:0:0:0:
492,144,66616,2,0,P|396:188|364:188,1,100
168,132,66967,2,0,P|224:136|296:168,1,100,8|0,0:0|0:0,0:0:0:0:
396,340,67318,2,0,P|444:296|456:224,1,100
236,192,67669,1,8,0:0:0:0:
248,340,67844,1,0,0:0:0:0:
376,216,68019,6,0,P|376:148|348:88,1,100
144,188,68370,1,8,0:0:0:0:
288,236,68546,1,0,0:0:0:0:
460,92,68721,2,0,B|432:52|380:28|380:28|320:36,1,150
304,68,69072,1,8,0:0:0:0:
264,92,69160,1,8,0:0:0:0:
220,104,69247,1,8,0:0:0:0:
176,96,69335,1,0,3:3:0:0:
140,64,69423,5,12,0:0:0:0:
152,268,69598,2,0,P|136:324|104:360,1,100,0|8,0:0|0:0,0:0:0:0:
0,200,69949,1,0,0:0:0:0:
152,268,70125,1,2,0:0:0:0:
224,32,70300,1,12,0:3:0:0:
56,100,70476,2,0,P|104:156|144:168,1,100,8|0,0:0|0:0,0:0:0:0:
160,172,70739,1,0,0:0:0:0:
196,168,70826,1,0,0:0:0:0:
357,140,71002,5,0,0:0:0:0:
137,80,71177,1,4,0:3:0:0:
197,303,71353,1,2,0:0:0:0:
432,208,71528,1,2,0:0:0:0:
440,168,71616,1,2,0:0:0:0:
449,128,71704,1,8,0:3:0:0:
453,83,71791,1,8,0:3:0:0:
432,42,71879,1,0,0:0:0:0:
388,20,71967,1,8,0:0:0:0:
344,23,72054,1,8,0:0:0:0:
307,49,72142,1,0,0:0:0:0:
290,101,72230,6,0,L|306:213,1,100,4|0,0:0|0:0,0:0:0:0:
84,364,72581,2,0,L|100:256,1,100,8|2,0:0|0:0,0:0:0:0:
349,137,72932,2,0,L|333:245,1,100,0|0,0:0|0:0,0:0:0:0:
52,372,73283,2,0,L|68:264,1,100,8|0,0:0|0:0,0:0:0:0:
212,84,73633,1,2,0:0:0:0:
304,276,73809,1,0,0:0:0:0:
140,228,73984,1,8,0:0:0:0:
360,204,74160,1,0,0:0:0:0:
208,352,74335,5,2,0:0:0:0:
208,352,74423,1,2,0:0:0:0:
208,352,74511,1,2,0:0:0:0:
72,160,74686,1,8,0:0:0:0:
284,200,74862,1,8,0:0:0:0:
184,284,75037,2,0,P|84:292|44:280,1,100,4|0,0:0|0:0,0:0:0:0:
16,72,75388,1,8,0:0:0:0:
56,184,75563,1,0,0:0:0:0:
328,100,75739,6,0,P|428:92|468:104,1,100
496,312,76090,1,8,0:0:0:0:
455,200,76265,1,0,0:0:0:0:
488,80,76440,5,2,0:0:0:0:
368,252,76616,1,2,0:1:0:0:
348,276,76704,1,2,3:1:0:0:
328,300,76791,2,0,L|304:228,1,50,8|0,0:0|0:0,0:0:0:0:
240,224,76967,2,0,L|272:160,1,50,8|0,0:0|0:0,0:0:0:0:
300,112,77142,1,2,0:0:0:0:
152,164,77318,1,4,0:3:0:0:
344,240,77493,2,0,P|392:256|448:260,1,100,8|8,0:0|0:3,0:0:0:0:
496,204,77756,1,8,0:0:0:0:
496,204,77844,6,0,L|488:96,1,100,4|0,0:0|0:0,0:0:0:0:
322,152,78195,1,8,0:0:0:0:
488,104,78370,1,0,0:0:0:0:
416,248,78546,2,0,P|400:304|396:364,1,100,2|0,0:0|0:0,0:0:0:0:
296,224,78897,2,8,P|276:160|272:84,1,100,0|2,0:0|0:0,0:0:0:0:
376,32,79247,5,0,0:0:0:0:
472,208,79423,1,0,0:0:0:0:
296,303,79598,1,4,3:0:0:0:
196,132,79774,1,8,3:0:0:0:
392,212,79949,2,0,P|396:284|376:320,1,100,8|2,0:0|0:1,0:1:0:0:
364,336,80212,1,2,0:1:0:0:
332,352,80300,1,8,0:0:0:0:
296,352,80388,1,8,0:0:0:0:
264,340,80476,1,8,0:0:0:0:
104,112,80651,6,0,L|120:220,2,100,4|0|8,0:0|0:0|0:0,0:0:0:0:
88,24,81177,1,0,0:0:0:0:
232,200,81353,1,0,0:0:0:0:
32,240,81528,1,0,0:0:0:0:
196,120,81704,1,2,0:3:0:0:
308,288,81879,1,4,0:3:0:0:
287,163,82054,1,12,0:0:0:0:
282,133,82142,1,8,0:0:0:0:
278,103,82230,1,8,0:0:0:0:
276,64,82318,1,2,0:0:0:0:
294,31,82405,1,2,0:0:0:0:
333,14,82493,1,2,0:0:0:0:
372,16,82581,5,2,0:0:0:0:
408,32,82669,1,2,0:0:0:0:
432,64,82756,1,8,0:3:0:0:
236,80,82932,1,8,0:3:0:0:
216,216,83107,1,12,0:0:0:0:
207,252,83195,1,0,0:1:0:0:
201,290,83283,1,2,0:1:0:0:
195,327,83370,1,0,0:0:0:0:
186,367,83458,5,0,0:0:0:0:
72,286,83633,2,0,L|58:188,2,100,0|8|0,0:0|0:0|0:0,0:0:0:0:
139,159,84160,1,0,0:0:0:0:
0,124,84335,1,0,0:0:0:0:
74,288,84511,1,8,0:0:0:0:
221,125,84686,6,0,P|211:71|211:11,1,100
444,184,85037,2,0,P|442:250|423:315,1,100,0|8,0:0|0:0,0:0:0:0:
229,245,85388,1,2,0:0:0:0:
229,245,85476,1,0,0:0:0:0:
229,245,85563,2,0,P|291:213|374:240,1,150,0|0,0:0|0:0,0:0:0:0:
368,276,85914,5,12,0:0:0:0:
464,368,86090,1,2,0:0:0:0:
488,220,86265,2,0,L|504:94,2,100,0|0|8,0:0|0:0|0:0,0:0:0:0:
368,276,86791,1,0,0:0:0:0:
488,216,86967,1,0,0:0:0:0:
276,168,87142,1,2,0:0:0:0:
512,96,87318,1,8,0:0:0:0:
282,252,87493,6,0,P|295:304|300:359,1,100
44,213,87844,2,0,P|42:162|50:104,1,100,0|8,0:0|0:0,0:0:0:0:
229,177,88195,1,2,0:0:0:0:
229,177,88283,1,0,0:0:0:0:
229,177,88370,1,0,0:0:0:0:
170,282,88546,5,0,0:0:0:0:
256,365,88721,1,8,0:0:0:0:
316,181,88897,1,0,0:0:0:0:
170,282,89072,2,0,P|100:284|56:271,1,100,6|0,0:0|0:0,0:0:0:0:
48,153,89423,1,8,0:0:0:0:
48,153,89598,1,0,0:0:0:0:
244,249,89774,5,0,0:0:0:0:
248,224,89862,1,0,0:0:0:0:
252,200,89949,1,0,0:0:0:0:
268,72,90125,1,8,0:0:0:0:
268,72,90300,1,0,0:0:0:0:
380,236,90476,1,2,0:0:0:0:
224,332,90651,1,2,0:0:0:0:
320,152,90826,1,8,0:0:0:0:
424,328,91002,1,4,0:3:0:0:
160,256,91177,6,0,L|48:260,1,100,2|0,0:0|0:0,0:0:0:0:
44,152,91528,1,8,0:0:0:0:
160,256,91704,1,0,0:0:0:0:
16,360,91879,1,4,0:0:0:0:
244,288,92054,2,0,B|248:240|248:240|232:176,1,100,2|8,0:0|0:0,0:0:0:0:
104,76,92405,5,4,0:0:0:0:
332,100,92581,2,2,B|328:148|328:148|344:212,1,100,0|8,0:0|0:0,0:0:0:0:
396,352,92932,1,4,0:0:0:0:
440,172,93107,1,8,0:0:0:0:
264,248,93283,5,8,0:0:0:0:
512,304,93458,1,2,0:0:0:0:
468,32,93633,1,8,0:0:0:0:
200,172,93809,1,8,0:0:0:0:
400,179,93984,2,0,L|504:183,1,100,4|4,0:3|0:0,0:0:0:0:
292,36,94511,5,2,0:0:0:0:
292,36,94598,1,2,0:0:0:0:
292,36,94686,2,0,B|260:76|296:136|296:136|300:188|260:232,1,200,0|8,0:0|0:0,0:0:0:0:
160,240,95212,1,0,0:0:0:0:
84,160,95388,2,0,P|88:100|112:52,1,100,0|0,0:0|0:0,0:0:0:0:
216,128,95739,1,8,0:0:0:0:
80,232,95914,1,0,0:0:0:0:
232,312,96090,2,8,B|252:276|252:276|320:248|384:276,1,150,2|0,0:0|0:0,0:0:0:0:
384,292,96440,5,8,0:0:0:0:
248,232,96616,1,0,3:0:0:0:
148,304,96791,2,0,B|96:336|28:328,1,100,2|0,0:0|0:0,0:0:0:0:
260,196,97142,2,0,P|256:260|220:312,1,100,8|0,0:0|0:0,0:0:0:0:
128,88,97493,5,0,0:0:0:0:
184,232,97669,1,0,0:0:0:0:
296,120,97844,1,8,0:0:0:0:
232,296,98019,1,0,0:0:0:0:
200,140,98195,1,0,0:0:0:0:
96,300,98370,5,0,0:0:0:0:
96,300,98458,1,0,0:0:0:0:
96,300,98546,2,0,P|144:280|216:280,1,100,8|4,0:0|0:3,0:0:0:0:
456,112,99072,1,2,0:0:0:0:
356,196,99247,1,4,0:3:0:0:
380,304,99423,1,12,0:3:0:0:
464,336,99598,5,8,0:0:0:0:
476,252,99774,2,0,L|488:152,2,75.0000028610231,0|0|0,0:0|0:0|0:0,0:0:0:0:
308,352,100300,1,4,0:0:0:0:
176,196,100651,6,0,L|256:208,1,75.0000028610231,2|0,0:0|0:0,0:0:0:0:
380,172,101002,1,8,0:0:0:0:
88,52,101353,2,0,P|72:120|108:204,1,150.000005722046,2|0,0:0|0:0,0:0:0:0:
192,288,101879,1,8,0:0:0:0:
192,288,102230,6,0,P|152:300|100:304,1,75.0000028610231,2|8,0:0|0:0,0:0:0:0:
20,176,102581,2,0,P|68:172|108:184,1,75.0000028610231,0|0,0:0|0:0,0:0:0:0:
32,312,102932,1,2,0:0:0:0:
92,180,103107,2,0,P|172:132|232:148,1,150.000005722046
276,352,103633,1,2,0:0:0:0:
376,216,103809,2,0,P|388:120|340:64,1,150.000005722046,8|0,0:0|0:0,0:0:0:0:
228,196,104335,5,0,0:0:0:0:
376,216,104511,1,0,0:0:0:0:
292,276,104686,1,8,0:0:0:0:
452,260,104862,1,0,0:0:0:0:
380,328,105037,1,2,0:0:0:0:
448,144,105212,6,0,B|408:128|408:128|344:136|296:176,1,150.000005722046,8|4,0:0|0:0,0:0:0:0:
80,340,105914,2,0,B|40:324|32:272|32:272|128:284|152:188,1,225.000008583069,4|2,0:3|0:0,0:0:0:0:
60,64,106616,1,8,0:0:0:0:
76,180,106791,1,0,0:0:0:0:
220,256,106967,2,0,P|232:199|223:164,1,75.0000028610231,0|0,0:0|0:0,0:0:0:0:
204,336,107318,6,0,P|244:352|336:308,1,150.000005722046,0|2,0:0|0:0,0:0:0:0:
360,200,107844,1,0,0:0:0:0:
200,164,108019,1,8,0:0:0:0:
324,220,108195,1,0,0:0:0:0:
440,156,108370,1,4,3:0:0:0:
412,24,108546,1,4,3:0:0:0:
152,44,108721,6,0,L|56:32,2,75.0000028610231,4|0|0,0:0|0:0|0:0,0:0:0:0:
248,256,109247,2,0,L|140:276,1,75.0000028610231,2|8,0:0|0:0,0:0:0:0:
40,160,109774,6,2,P|60:216|52:248,1,75.0000028610231,2|10,0:0|0:0,0:0:0:0:
352,344,110125,2,0,P|332:293|341:248,1,75.0000028610231,8|8,3:0|0:0,0:0:0:0:
348,120,110476,1,4,0:3:0:0:
384,200,110651,5,4,0:1:0:0:
256,192,110826,12,0,111528,0:0:0:0:
116,84,111879,6,0,P|136:192|120:240,1,150,8|2,0:0|0:1,0:0:0:0:
88,268,112230,2,0,P|148:256|200:216,1,100,2|0,0:1|0:0,0:0:0:0:
304,40,112581,2,0,P|360:48|408:72,1,100,8|2,0:0|0:1,0:0:0:0:
420,96,112844,1,2,0:1:0:0:
424,132,112932,2,0,L|396:260,1,100,2|0,0:1|0:0,0:0:0:0:
268,304,113283,1,8,0:0:0:0:
436,276,113458,6,0,L|457:178,1,100,2|2,0:1|0:0,0:0:0:0:
288,112,113809,1,0,0:0:0:0:
456,176,113984,1,8,0:0:0:0:
256,204,114160,1,0,0:0:0:0:
412,64,114335,2,0,P|372:68|252:32,1,150,2|0,0:1|0:1,0:0:0:0:
248,12,114686,6,0,L|128:28,1,100,8|0,0:0|0:0,0:0:0:0:
64,148,115037,1,2,0:1:0:0:
64,148,115125,2,0,P|48:120|36:80,1,50,0|0,0:0|0:1,0:0:0:0:
228,112,115388,1,8,0:0:0:0:
236,144,115476,1,2,0:1:0:0:
232,180,115563,1,2,0:1:0:0:
216,212,115651,1,2,0:1:0:0:
184,248,115739,6,0,P|180:304|192:352,1,100,2|0,0:1|0:0,0:0:0:0:
416,256,116090,1,8,0:0:0:0:
272,168,116265,1,0,0:0:0:0:
380,344,116440,2,0,P|460:336|512:328,1,100,2|0,0:1|0:0,0:0:0:0:
512,152,116791,2,0,P|432:184|380:192,1,100,4|8,0:3|0:3,0:0:0:0:
252,64,117142,6,0,P|352:88|312:244,1,300,4|0,0:0|0:0,0:0:0:0:
104,184,117844,2,0,P|200:136|216:112,1,100
40,44,118195,1,8,0:0:0:0:
40,240,118370,1,2,0:1:0:0:
40,240,118458,1,2,0:1:0:0:
40,240,118546,6,0,P|92:272|136:264,1,100,0|0,0:1|0:0,0:0:0:0:
280,112,118897,2,0,P|228:148|208:188,1,100,8|0,0:0|0:0,0:0:0:0:
304,348,119247,2,0,P|312:280|284:236,1,100
208,68,119598,1,8,0:0:0:0:
184,252,119774,1,4,0:3:0:0:
367,47,119949,6,0,B|410:23|452:24|487:48|487:48|473:134|363:172|274:117,1,375,4|0,0:0|0:0,0:0:0:0:
144,332,120651,1,2,0:0:0:0:
288,124,120826,1,8,0:0:0:0:
143,333,121002,2,0,B|100:357|58:356|23:332|23:332|37:246|147:208|236:263,1,375,4|0,0:0|0:0,0:0:0:0:
468,344,121704,2,0,P|444:272|456:212,1,100,0|2,0:0|0:0,0:0:0:0:
472,64,122054,1,8,0:0:0:0:
232,256,122230,1,2,0:0:0:0:
240,32,122405,1,4,0:3:0:0:
460,232,122581,1,8,3:0:0:0:
244,136,122756,6,0,L|128:168,1,100,8|0,0:0|0:0,0:0:0:0:
44,304,123107,1,0,0:0:0:0:
44,304,123283,2,0,L|164:328,1,100,8|0,0:0|0:0,0:0:0:0:
328,132,123633,1,0,0:0:0:0:
104,204,123809,2,0,L|-20:176,1,100,8|4,0:3|0:3,0:0:0:0:
6,181,124160,1,0,0:0:0:0:
328,132,124335,2,4,L|452:88,1,100,4|4,0:3|0:3,0:0:0:0:
422,98,124686,1,2,0:0:0:0:
336,208,124862,5,4,0:3:0:0:
492,132,125037,1,2,0:0:0:0:
344,40,125212,2,0,P|272:44|200:28,1,100,8|0,0:0|0:3,0:0:0:0:
212,32,125476,1,2,0:0:0:0:
180,24,125563,5,12,0:0:0:0:
240,224,125739,1,8,0:0:0:0:
184,132,125914,2,0,P|124:112|68:108,1,100,2|4,0:0|0:3,0:0:0:0:
60,324,126265,1,2,0:0:0:0:
152,240,126440,1,4,0:3:0:0:
40,88,126616,6,0,P|48:184|72:216,1,100,8|2,0:0|0:0,0:0:0:0:
344,332,126967,2,0,L|356:204,1,100,8|0,0:0|0:0,0:0:0:0:
244,32,127318,2,8,L|264:164,1,100,8|2,0:3|0:1,0:3:0:0:
258,130,127581,1,2,0:1:0:0:
258,130,127669,1,2,0:1:0:0:
200,236,127844,1,0,0:0:0:0:
444,236,128019,2,4,P|432:160|408:120,1,100,12|0,0:0|0:0,0:0:0:0:
64,283,128370,6,0,P|148:332|244:312,1,200,4|0,0:0|0:0,0:0:0:0:
124,80,128897,1,2,0:0:0:0:
368,196,129072,2,0,P|388:288|324:376,1,200,4|0,0:0|0:0,0:0:0:0:
196,220,129598,5,8,0:0:0:0:
224,224,129686,1,2,0:3:0:0:
256,228,129774,2,0,L|228:144,1,50,12|0,0:0|0:0,0:0:0:0:
300,140,129949,2,0,L|316:76,1,50,2|0,0:0|0:0,0:0:0:0:
384,100,130125,2,0,L|428:64,1,50,4|0,0:3|0:0,0:0:0:0:
460,132,130300,2,0,L|520:120,1,50,8|0,0:3|0:3,0:0:0:0:
504,200,130476,1,8,0:0:0:0:
360,304,130651,1,2,0:0:0:0:
408,200,130826,1,0,0:0:0:0:
480,348,131002,1,8,0:0:0:0:
480,348,131090,1,2,0:3:0:0:
480,348,131177,6,0,B|436:372|436:372|352:360,1,100,12|0,0:0|0:0,0:0:0:0:
232,244,131528,2,0,B|276:220|276:220|360:232,1,100,8|0,0:0|0:0,0:0:0:0:
264,328,131879,1,0,0:0:0:0:
244,160,132054,1,0,0:0:0:0:
168,356,132230,1,8,0:0:0:0:
332,280,132405,1,0,0:0:0:0:
140,136,132581,5,12,0:0:0:0:
348,192,132756,1,4,0:3:0:0:
208,284,132932,1,2,0:0:0:0:
184,60,133107,2,0,P|228:152|208:176,1,100,12|0,0:0|0:0,0:0:0:0:
128,232,133458,1,2,0:0:0:0:
316,76,133633,5,12,0:0:0:0:
292,312,133809,1,4,0:3:0:0:
56,156,133984,1,8,0:3:0:0:
272,204,134160,1,8,0:0:0:0:
272,204,134247,1,8,0:0:0:0:
272,204,134335,6,0,L|348:180,1,50,8|0,0:0|0:0,0:0:0:0:
460,112,134511,2,0,L|376:96,1,50,8|0,0:0|0:0,0:0:0:0:
299,67,134686,5,8,0:0:0:0:
299,67,134774,1,8,0:0:0:0:
299,67,134862,2,0,P|307:105|323:144,1,50,0|8,0:0|0:0,0:0:0:0:
432,228,135037,2,0,P|434:261|430:300,1,50,4|0,0:3|0:0,0:0:0:0:
268,360,135212,1,4,0:3:0:0:
124,56,135563,5,0,0:0:0:0:
432,116,135739,1,0,0:0:0:0:
204,256,135914,1,0,0:0:0:0:
336,36,136090,1,4,3:0:0:0:
420,340,136265,1,8,0:3:0:0:
184,156,136440,1,8,0:3:0:0:
492,40,136616,1,0,0:0:0:0:
312,280,136791,6,0,P|288:176|276:68,1,200,4|8,0:0|0:0,0:0:0:0:
444,136,137318,1,0,0:0:0:0:
400,264,137493,2,0,P|396:312|396:364,1,100,0|2,0:0|0:0,0:0:0:0:
472,216,137844,1,8,0:0:0:0:
352,112,138019,1,0,0:0:0:0:
132,200,138195,6,0,P|184:184|260:152,1,100,2|2,0:0|0:1,0:0:0:0:
240,132,138458,1,2,0:1:0:0:
252,100,138546,1,8,0:0:0:0:
248,256,138721,1,0,0:0:0:0:
120,124,138897,1,0,0:0:0:0:
308,172,139072,1,2,0:0:0:0:
168,296,139247,6,0,P|108:288|68:292,1,100,8|0,0:0|0:0,0:0:0:0:
264,336,139598,1,0,0:0:0:0:
80,368,139774,1,0,0:0:0:0:
200,208,139949,1,8,0:0:0:0:
160,352,140125,1,0,0:0:0:0:
44,140,140300,1,0,0:0:0:0:
92,280,140476,1,0,0:0:0:0:
268,248,140651,1,0,0:0:0:0:
280,215,140739,1,0,0:0:0:0:
280,176,140826,1,8,0:0:0:0:
268,144,140914,1,8,0:0:0:0:
250,116,141002,2,0,P|177:90|140:92,1,100,8|0,0:0|0:0,0:0:0:0:
6,249,141353,2,0,P|72:243|124:227,1,100,8|0,0:0|0:0,0:0:0:0:
241,179,141704,5,0,0:0:0:0:
104,234,141879,1,0,0:0:0:0:
207,338,142054,1,8,0:0:0:0:
351,191,142230,1,8,0:0:0:0:
319,175,142318,1,8,0:0:0:0:
282,180,142405,5,8,0:0:0:0:
299,320,142581,1,0,0:0:0:0:
428,222,142756,2,0,P|440:151|427:88,1,100,8|0,0:0|0:0,0:0:0:0:
413,24,143107,1,0,0:0:0:0:
351,157,143283,1,0,0:0:0:0:
510,131,143458,1,8,0:0:0:0:
329,64,143633,1,0,0:0:0:0:
503,220,143809,6,0,P|495:282|452:327,1,100,0|2,0:0|0:1,0:0:0:0:
442,327,144072,1,2,0:1:0:0:
407,335,144160,1,2,0:1:0:0:
230,243,144335,1,0,0:0:0:0:
345,123,144511,2,0,L|365:244,1,100
176,360,144862,5,4,0:3:0:0:
191,329,144949,1,8,0:0:0:0:
200,295,145037,1,8,0:0:0:0:
202,259,145125,1,8,0:0:0:0:
192,225,145212,1,12,0:0:0:0:
35,111,145388,2,0,P|115:108|159:84,1,100,0|8,0:0|0:0,0:0:0:0:
64,24,145739,5,4,0:3:0:0:
108,225,145914,1,2,0:0:0:0:
320,84,146090,1,2,0:0:0:0:
122,122,146265,1,8,0:0:0:0:
361,231,146440,1,8,0:0:0:0:
464,76,146616,5,8,0:0:0:0:
431,48,146704,1,2,0:1:0:0:
388,33,146791,1,2,0:1:0:0:
343,29,146879,1,8,0:3:0:0:
299,42,146967,1,4,0:3:0:0:
267,73,147054,1,8,0:0:0:0:
260,112,147142,1,8,0:0:0:0:
252,152,147230,1,8,0:0:0:0:
244,192,147318,5,8,0:0:0:0:
364,136,147493,1,2,0:0:0:0:
144,100,147669,2,0,P|136:48|116:-44,1,100,4|8,0:3|0:0,0:0:0:0:
20,232,148019,2,0,P|28:300|148:348,1,200,4|8,0:0|0:0,0:0:0:0:
296,272,148546,1,0,0:0:0:0:
136,248,148721,1,0,0:0:0:0:
312,352,148897,1,0,0:0:0:0:
256,188,149072,2,0,P|264:128|272:84,1,100,8|0,0:0|0:0,0:0:0:0:
368,160,149423,1,0,0:0:0:0:
248,272,149598,1,0,0:0:0:0:
208,88,149774,5,8,0:0:0:0:
172,216,149949,1,0,0:0:0:0:
364,356,150125,1,0,0:0:0:0:
328,228,150300,1,0,0:0:0:0:
168,300,150476,2,0,L|280:256,1,100,8|0,0:0|0:0,0:0:0:0:
328,228,150739,1,0,0:0:0:0:
328,228,150826,6,0,P|352:120|332:52,1,150
323,44,151177,2,0,P|268:32|195:32,1,100,8|0,0:0|0:0,0:0:0:0:
7,165,151528,2,0,P|119:185|175:177,1,150
196,198,151879,2,0,P|248:170|311:153,1,100,8|0,0:0|0:0,0:0:0:0:
145,286,152230,1,0,0:0:0:0:
196,112,152405,1,0,0:0:0:0:
326,257,152581,5,8,0:0:0:0:
359,268,152669,1,2,0:1:0:0:
391,280,152756,1,2,0:1:0:0:
424,290,152844,1,2,0:1:0:0:
456,303,152932,2,0,L|452:241,1,50,2|0,0:1|0:0,0:0:0:0:
396,133,153107,2,8,L|401:190,1,50,8|0,0:0|0:0,0:0:0:0:
360,327,153283,2,0,P|364:302|378:256,1,50,8|0,0:0|0:0,0:0:0:0:
488,110,153458,6,0,P|485:136|472:179,1,50,8|8,0:0|0:0,0:0:0:0:
410,228,153633,2,0,P|319:247|278:232,1,100,8|0,0:0|0:0,0:0:0:0:
144,72,153984,2,0,P|208:88|248:112,1,100,8|0,0:0|0:0,0:0:0:0:
232,348,154335,2,0,P|220:284|244:196,1,150
286,152,154686,2,0,P|306:96|306:44,1,100,8|0,0:0|0:0,0:0:0:0:
123,147,155037,5,0,0:0:0:0:
245,278,155212,1,0,0:0:0:0:
382,161,155388,1,8,0:0:0:0:
268,22,155563,1,0,0:0:0:0:
86,45,155739,1,2,0:1:0:0:
72,82,155826,1,2,0:1:0:0:
72,122,155914,1,2,0:1:0:0:
303,249,156090,1,2,0:0:0:0:
312,215,156177,1,2,0:0:0:0:
315,180,156265,1,8,0:0:0:0:
304,146,156353,1,8,0:0:0:0:
288,115,156440,1,8,0:0:0:0:
153,223,156616,6,0,P|91:256|29:250,1,100,0|8,0:0|0:0,0:0:0:0:
203,105,156967,1,8,0:0:0:0:
390,190,157142,1,2,0:0:0:0:
224,303,157318,1,0,0:0:0:0:
287,145,157493,1,2,0:0:0:0:
80,180,157669,1,8,0:0:0:0:
297,286,157844,1,0,0:0:0:0:
325,295,157932,1,0,0:0:0:0:
353,304,158019,1,8,0:0:0:0:
381,312,158107,1,0,0:0:0:0:
408,320,158195,5,8,0:0:0:0:
444,300,158283,1,0,0:0:0:0:
470,270,158370,1,8,0:0:0:0:
478,230,158458,1,8,0:0:0:0:
474,185,158546,1,8,0:0:0:0:
450,146,158633,1,8,0:0:0:0:
411,122,158721,1,8,0:0:0:0:
365,122,158809,1,8,0:0:0:0:
324,141,158897,1,2,0:0:0:0:
301,179,158984,1,2,0:0:0:0:
300,224,159072,1,4,0:3:0:0:
311,267,159160,1,8,0:3:0:0:
327,308,159247,6,0,P|267:358|164:313,1,200,8|8,0:3|0:0,0:0:0:0:
143,102,159774,1,0,0:0:0:0:
248,196,159949,1,0,0:0:0:0:
34,251,160125,2,0,L|26:138,1,100,0|8,0:0|0:0,0:0:0:0:
235,22,160476,2,0,P|233:82|223:129,1,100
73,90,160826,1,0,0:0:0:0:
340,44,161002,1,8,0:0:0:0:
413,304,161177,1,2,0:1:0:0:
413,304,161265,1,2,0:1:0:0:
413,304,161353,2,0,B|353:308|316:287|316:287|302:207,1,150,2|0,0:1|0:0,0:0:0:0:
308,168,161704,6,0,P|257:109|155:166,1,200,8|0,0:0|0:0,0:0:0:0:
235,288,162230,1,0,0:0:0:0:
90,252,162405,1,8,0:0:0:0:
238,177,162581,1,0,0:0:0:0:
162,340,162756,1,0,0:0:0:0:
77,131,162932,1,0,0:0:0:0:
164,234,163107,1,8,0:0:0:0:
160,44,163283,6,0,P|109:28|29:26,1,100
352,340,163633,2,0,P|403:356|483:358,1,100,0|8,0:0|0:0,0:0:0:0:
471,88,163984,1,2,0:1:0:0:
471,88,164072,1,2,0:1:0:0:
471,88,164160,1,2,0:1:0:0:
278,189,164335,6,0,L|296:306,1,100,0|8,0:0|0:0,0:0:0:0:
416,212,164686,1,0,0:0:0:0:
136,221,164862,1,0,0:0:0:0:
279,189,165037,2,8,L|327:87,1,100
363,304,165388,1,2,0:1:0:0:
363,304,165476,1,2,0:1:0:0:
363,304,165563,1,2,0:1:0:0:
206,207,165739,1,0,0:0:0:0:
390,122,165914,1,8,0:0:0:0:
275,31,166090,5,2,0:1:0:0:
275,31,166177,1,2,0:1:0:0:
275,31,166265,1,4,0:3:0:0:
328,176,166440,1,0,0:0:0:0:
150,189,166616,2,0,P|92:195|35:197,1,100,8|0,0:0|0:0,0:0:0:0:
21,55,166967,5,0,0:0:0:0:
240,128,167142,1,0,0:0:0:0:
0,224,167318,1,8,0:0:0:0:
192,48,167493,1,0,0:0:0:0:
116,352,167669,1,12,0:0:0:0:
264,328,167844,1,2,0:0:0:0:
264,328,168019,1,4,0:3:0:0:
508,72,168195,1,12,0:0:0:0:
360,44,168370,1,2,0:0:0:0:
360,44,168546,1,4,0:3:0:0:
216,144,168721,5,12,0:0:0:0:
432,148,168897,1,0,0:0:0:0:
348,320,169072,1,0,0:0:0:0:
304,88,169247,1,8,0:0:0:0:
496,228,169423,1,2,0:0:0:0:
172,264,169598,1,0,0:0:0:0:
140,28,169774,5,8,0:3:0:0:
373,228,169949,1,4,0:3:0:0:
26,192,170125,1,4,0:3:0:0:
416,56,170300,1,8,0:3:0:0:
296,364,170476,1,4,0:0:0:0:
112,72,173283,5,6,0:0:0:0:
416,216,175914,5,2,0:0:0:0:
416,216,176002,1,2,0:0:0:0:
416,216,176090,1,6,0:0:0:0:
190,328,178721,5,8,3:0:0:0:
200,295,178897,1,12,3:2:0:0:
385,89,181528,5,2,0:0:0:0:
385,89,181616,1,2,0:0:0:0:
385,89,181704,2,0,P|397:177|426:281,1,179.999994506836,2|0,0:0|0:0,0:0:0:0:
475,171,182230,1,0,0:0:0:0:
291,111,182405,1,4,0:3:0:0:
291,111,182581,1,0,0:0:0:0:
288,200,182756,2,0,P|268:263|252:279,1,89.9999972534181,8|0,0:0|0:0,0:0:0:0:
180,349,183107,2,0,P|159:302|162:243,1,89.9999972534181,2|0,0:0|0:0,0:0:0:0:
158,173,183458,1,0,0:0:0:0:
209,99,183633,1,0,0:0:0:0:
391,234,183809,6,0,P|346:263|302:271,1,89.9999972534181
289,276,184072,1,0,0:0:0:0:
266,278,184160,1,8,0:0:0:0:
176,269,184335,1,0,0:0:0:0:
225,193,184511,1,0,0:0:0:0:
276,354,184686,1,0,0:0:0:0:
101,243,184862,2,4,L|126:138,1,89.9999972534181,4|0,0:3|0:0,0:0:0:0:
142,68,185212,5,2,0:0:0:0:
56,97,185388,1,0,0:0:0:0:
123,156,185563,1,8,0:0:0:0:
209,131,185739,1,0,0:0:0:0:
78,11,185914,2,0,L|48:126,1,89.9999972534181,4|2,0:3|0:0,0:0:0:0:
169,254,186265,2,0,L|141:128,1,89.9999972534181,4|2,0:3|0:0,0:0:0:0:
134,330,186616,2,0,P|186:335|238:296,1,89.9999972534181,4|2,0:3|0:0,0:0:0:0:
356,168,186967,1,8,0:0:0:0:
304,332,187142,5,2,0:1:0:0:
304,332,187230,1,2,0:1:0:0:
304,332,187318,2,4,P|288:236|256:152,1,179.999994506836,4|0,0:0|0:0,0:0:0:0:
184,208,187844,1,0,0:0:0:0:
112,156,188019,1,4,0:3:0:0:
176,288,188195,1,0,0:0:0:0:
272,172,188370,2,0,L|300:56,1,89.9999972534181,8|0,0:0|0:0,0:0:0:0:
356,164,188721,6,0,P|376:232|360:280,1,89.9999972534181,4|0,0:3|0:0,0:0:0:0:
212,276,189072,2,2,P|192:208|208:160,1,89.9999972534181,0|0,0:0|0:0,0:0:0:0:
212,164,189335,1,2,0:1:0:0:
232,140,189423,2,0,P|256:72|184:4,1,179.999994506836,0|8,0:1|0:0,0:0:0:0:
40,152,189949,1,0,0:0:0:0:
100,236,190125,6,0,L|208:216,1,89.9999972534181,4|2,0:3|0:0,0:0:0:0:
320,300,190476,2,0,L|223:308,1,89.9999972534181,4|2,0:3|0:0,0:0:0:0:
280,184,190826,2,0,L|388:164,1,89.9999972534181,4|2,0:3|0:0,0:0:0:0:
500,312,191177,2,0,L|404:320,1,89.9999972534181,0|4,0:3|0:1,0:0:0:0:
256,192,191528,12,0,192581,0:0:0:0:
320,76,192932,5,0,0:0:0:0:
320,76,193107,2,0,L|288:200,2,100,0|0|8,0:0|0:0|0:0,0:0:0:0:
120,124,193633,1,8,0:0:0:0:
216,244,193809,1,0,0:0:0:0:
216,244,193984,2,0,L|228:372,1,100,8|0,0:0|0:0,0:0:0:0:
312,240,194335,6,0,P|264:176|144:196,1,200,8|0,0:0|0:0,0:0:0:0:
24,360,194862,2,0,P|20:315|30:260,1,100,8|0,0:0|0:0,0:0:0:0:
144,88,195212,2,8,L|156:188,2,100,8|8|0,0:0|0:0|0:0,0:0:0:0:
152,76,195651,1,0,0:0:0:0:
160,64,195739,5,2,0:1:0:0:
308,48,195914,1,0,0:0:0:0:
416,152,196090,1,8,0:0:0:0:
368,292,196265,1,0,0:0:0:0:
268,179,196440,5,0,0:0:0:0:
448,145,196616,1,8,0:0:0:0:
390,316,196791,1,0,0:0:0:0:
207,342,196967,1,0,0:0:0:0:
72,52,197318,5,8,0:0:0:0:
444,200,197669,1,8,0:0:0:0:
444,200,197844,1,0,0:0:0:0:
232,264,198019,1,0,0:0:0:0:
284,136,198195,1,8,0:0:0:0:
388,280,198370,5,2,0:1:0:0:
368,308,198458,1,0,0:1:0:0:
336,328,198546,2,0,P|272:344|196:336,1,100,0|0,0:0|0:0,0:0:0:0:
40,232,198897,1,8,0:0:0:0:
40,232,199072,2,0,P|116:220|160:224,1,100
200,76,199423,1,8,0:0:0:0:
200,76,199598,2,0,P|258:125|284:161,1,100
224,272,199949,6,0,P|196:200|224:152,2,100,8|0|0,0:0|0:0|0:0,0:0:0:0:
420,188,200476,2,0,P|348:180|288:208,1,100,8|0,0:0|0:0,0:0:0:0:
48,320,200826,2,0,P|108:336|252:312,1,200,8|8,0:0|0:0,0:0:0:0:
328,128,201353,1,8,0:0:0:0:
301,92,201440,1,8,0:0:0:0:
263,66,201528,1,8,0:0:0:0:
219,54,201616,1,8,0:0:0:0:
172,60,201704,1,8,0:0:0:0:
133,78,201791,1,8,0:0:0:0:
102,111,201879,1,8,0:0:0:0:
81,151,201967,1,8,0:0:0:0:
76,196,202054,5,8,0:0:0:0:
264,344,202230,1,10,0:0:0:0:
408,156,202405,1,10,0:0:0:0:
224,120,202581,1,8,0:0:0:0:
224,120,202669,1,8,0:0:0:0:
224,120,202756,1,8,0:0:0:0:
224,120,202844,1,8,0:0:0:0:
183,159,202932,5,2,0:1:0:0:
180,176,203019,1,2,0:1:0:0:
180,192,203107,2,0,P|181:233|200:280,1,50,4|4,0:3|0:3,0:0:0:0:
272,320,203283,2,0,L|236:240,1,50,4|0,0:3|0:0,0:0:0:0:
108,204,203458,2,0,L|80:140,1,50,8|0,0:3|0:0,0:0:0:0:
212,24,203633,2,0,L|200:108,1,50,4|0,0:3|0:0,0:3:0:0:
256,212,203809,2,0,L|244:296,1,50,8|0,0:3|0:0,0:0:0:0:
92,280,203984,5,4,0:3:0:0:
256,212,204160,1,2,0:0:0:0:
32,120,204335,1,8,0:0:0:0:
292,24,204511,1,8,0:0:0:0:
284,68,205563,6,0,L|264:168,1,100,4|8,0:3|0:3,0:0:0:0:
256,192,206265,5,4,0:0:0:0:
256,192,206440,12,0,208019,0:0:0:0:
388,220,208721,5,4,0:3:0:0:
292,320,208897,1,8,0:3:0:0:
152,300,209072,1,4,0:0:0:0:
256,192,209247,12,8,210476,0:0:0:0:
172,48,211002,5,4,0:3:0:0:
372,144,211177,1,8,0:0:0:0:
366,188,211265,1,8,0:0:0:0:
360,232,211353,1,8,0:0:0:0:
204,320,211528,1,8,0:0:0:0:
204,320,211704,1,4,0:3:0:0:
28,284,211879,6,0,P|84:268|120:276,1,80,2|2,0:0|0:0,0:0:0:0:
100,136,212230,2,0,P|156:153|184:189,1,89.9999972534181,2|2,0:0|0:0,0:0:0:0:
284,88,212581,2,0,P|317:136|315:185,1,100,2|2,0:0|0:0,0:0:0:0:
480,156,212932,2,0,P|475:215|440:256,1,115.000002193451,2|2,0:0|0:0,0:0:0:0:
256,328,213283,5,8,0:0:0:0:
256,316,213370,1,8,0:0:0:0:
256,304,213458,1,8,0:0:0:0:
256,292,213546,1,8,0:0:0:0:
256,280,213633,1,8,0:0:0:0:
256,268,213721,1,8,0:0:0:0:
256,256,213809,1,8,0:0:0:0:
256,244,213897,1,8,0:0:0:0:
256,228,213984,1,8,0:0:0:0:
256,212,214072,1,8,0:0:0:0:
256,196,214160,1,8,0:0:0:0:
256,180,214247,1,8,0:0:0:0:
256,156,214335,1,8,0:0:0:0:
256,128,214423,1,8,0:0:0:0:
256,92,214511,1,8,0:0:0:0:
256,56,214598,1,8,0:0:0:0:
256,16,214686,5,8,0:0:0:0:
256,16,214862,1,8,0:0:0:0:
132,128,215212,2,8,B|108:136|92:156|92:156|64:140|25:148,2,100,0|0|0,0:0|0:0|0:0,0:0:0:0:
72,48,216090,5,4,0:3:0:0:
152,220,216265,1,12,0:0:0:0:
152,220,216353,1,8,0:0:0:0:
384,168,216528,1,8,0:0:0:0:
384,168,216616,1,8,0:0:0:0:
252,48,216791,1,12,0:0:0:0:
252,48,216879,1,8,0:0:0:0:
252,48,216967,1,8,0:0:0:0:
312,296,217142,1,8,0:3:0:0:
312,296,217230,1,8,0:0:0:0:
312,296,217318,1,8,0:0:0:0:
312,296,217405,1,8,0:0:0:0:
312,296,217493,6,0,B|268:248|268:248|280:192|280:192|232:104,1,200,4|8,0:0|0:0,0:0:0:0:
52,48,218019,1,0,0:0:0:0:
190,198,218195,2,0,P|167:288|142:313,1,100
48,308,218546,1,8,0:0:0:0:
228,356,218721,1,0,0:0:0:0:
116,236,218897,1,0,0:0:0:0:
300,192,219072,1,0,0:0:0:0:
216,276,219247,6,0,L|204:160,1,100,8|0,0:0|0:0,0:0:0:0:
411,168,219598,1,0,0:0:0:0:
255,113,219774,1,0,0:0:0:0:
368,240,219949,1,2,0:1:0:0:
381,272,220037,1,2,0:1:0:0:
378,307,220125,1,8,0:0:0:0:
359,336,220212,1,8,0:0:0:0:
328,354,220300,2,0,B|282:375|222:341|222:341|172:326|125:351,1,200,12|8,0:0|0:0,0:0:0:0:
134,344,220826,1,0,0:0:0:0:
78,128,221002,6,0,L|107:240,1,100
231,6,221353,2,0,P|211:59|178:122,1,100,8|0,0:0|0:0,0:0:0:0:
51,353,221704,2,0,P|35:277|48:222,1,100
50,217,221967,1,8,0:0:0:0:
77,188,222054,1,0,0:0:0:0:
214,233,222230,1,8,0:0:0:0:
72,41,222405,1,4,0:3:0:0:
105,28,222493,1,4,0:3:0:0:
139,23,222581,1,2,0:0:0:0:
172,24,222669,1,2,0:0:0:0:
206,36,222756,1,8,0:0:0:0:
236,53,222844,1,8,0:0:0:0:
268,67,222932,1,8,0:0:0:0:
301,75,223019,1,8,0:0:0:0:
335,78,223107,6,0,P|395:76|461:29,1,100,12|0,0:0|0:0,0:0:0:0:
223,18,223458,2,0,P|181:62|164:103,1,100,8|0,0:0|0:0,0:0:0:0:
286,313,223809,1,0,0:0:0:0:
223,206,223984,1,0,0:0:0:0:
160,97,224160,2,0,L|106:-3,1,100,8|0,0:0|0:0,0:0:0:0:
173,350,224511,1,0,0:0:0:0:
223,206,224686,1,0,0:0:0:0:
266,55,224862,2,0,B|323:35|379:40|379:40|387:66|366:94,1,150,8|0,0:0|0:0,0:0:0:0:
328,128,225212,2,0,P|326:221|344:247,1,100,4|8,0:3|0:0,0:0:0:0:
354,259,225476,1,8,0:0:0:0:
391,272,225563,1,8,0:0:0:0:
465,48,225739,1,2,0:0:0:0:
243,146,225914,6,0,P|178:137|117:97,1,100,4|0,0:0|0:0,0:0:0:0:
24,25,226265,1,8,0:0:0:0:
180,0,226440,1,0,0:0:0:0:
28,169,226616,1,0,0:0:0:0:
107,38,226791,1,2,0:0:0:0:
214,218,226967,1,8,0:0:0:0:
59,283,227142,1,0,0:0:0:0:
177,105,227318,1,4,0:3:0:0:
340,196,227493,5,2,0:0:0:0:
356,240,227581,1,2,0:0:0:0:
352,284,227669,1,8,0:0:0:0:
328,320,227756,1,8,0:0:0:0:
284,336,227844,1,8,0:0:0:0:
240,328,227932,1,8,0:0:0:0:
204,300,228019,1,2,0:0:0:0:
193,256,228107,1,2,0:0:0:0:
200,212,228195,1,8,0:0:0:0:
212,168,228283,1,8,0:0:0:0:
220,124,228370,2,0,P|220:48|208:16,1,100,8|8,0:0|0:0,0:0:0:0:
144,0,228633,5,2,0:0:0:0:
144,0,228721,2,0,B|120:40|140:96|140:96|76:108|52:172,1,200,6|0,0:0|0:0,0:0:0:0:
100,380,229247,2,0,P|89:289|156:192,1,200,2|8,0:0|0:0,0:0:0:0:
304,256,229774,1,8,0:0:0:0:
168,308,229949,1,2,0:1:0:0:
168,308,230037,1,2,0:1:0:0:
168,308,230125,1,2,0:1:0:0:
392,200,230300,1,0,0:0:0:0:
256,368,230476,1,8,0:0:0:0:
188,156,230651,1,0,0:0:0:0:
308,204,230826,1,0,0:0:0:0:
396,108,231002,1,0,0:0:0:0:
216,35,231177,6,0,P|206:66|186:89,1,50,8|0,0:0|0:0,0:0:0:0:
50,113,231353,2,0,P|76:99|106:96,1,50,8|0,0:0|0:0,0:0:0:0:
299,95,231528,2,0,P|359:135|359:255,1,200,4|8,0:0|0:0,0:0:0:0:
148,317,232054,1,0,0:0:0:0:
222,112,232230,1,0,0:0:0:0:
383,331,232405,1,0,0:0:0:0:
218,227,232581,1,8,0:0:0:0:
464,151,232756,1,0,0:0:0:0:
294,296,232932,2,4,P|297:269|313:234,1,50,2|4,0:0|0:3,0:3:0:0:
352,158,233107,2,0,P|365:82|353:19,1,100,4|8,0:3|0:0,0:0:0:0:
239,148,233458,5,2,0:0:0:0:
198,167,233546,1,2,0:0:0:0:
154,175,233633,1,8,0:0:0:0:
108,172,233721,1,8,0:0:0:0:
68,150,233809,2,2,L|66:247,1,50,8|0,0:0|0:0,0:0:0:0:
60,324,233984,2,0,P|109:283|169:278,1,100,8|0,0:0|0:0,0:0:0:0:
353,230,234335,6,0,L|333:349,1,100,6|0,0:0|0:0,0:0:0:0:
196,282,234686,1,8,0:0:0:0:
354,230,234862,1,0,0:0:0:0:
180,93,235037,1,2,0:0:0:0:
271,228,235212,1,2,0:0:0:0:
431,128,235388,1,8,0:0:0:0:
263,328,235563,1,2,0:0:0:0:
284,116,235739,6,0,L|292:28,1,50,2|2,0:0|0:0,0:0:0:0:
228,176,235914,2,0,P|172:188|128:172,2,100,2|8|0,0:0|0:0|0:0,0:0:0:0:
504,44,236440,2,0,P|444:32|400:44,1,100,8|0,0:3|0:0,0:3:0:0:
344,240,236791,1,2,0:0:0:0:
336,56,236967,1,4,0:3:0:0:
468,228,237142,6,0,L|444:356,1,100,12|8,0:0|0:0,0:0:0:0:
449,326,237405,1,8,0:0:0:0:
449,326,237493,1,8,0:0:0:0:
44,156,237669,2,0,L|68:28,1,100,12|8,0:0|0:0,0:0:0:0:
63,58,237932,1,8,0:0:0:0:
63,58,238019,1,8,0:0:0:0:
208,284,238195,5,12,0:0:0:0:
8,320,238370,1,8,0:0:0:0:
8,320,238458,1,8,0:0:0:0:
8,320,238546,1,8,0:0:0:0:
256,140,238721,1,12,0:0:0:0:
332,332,238897,1,8,0:0:0:0:
332,332,238984,1,8,0:0:0:0:
332,332,239072,1,8,0:0:0:0:
332,332,239160,1,8,0:0:0:0:
332,332,239247,5,8,0:3:0:0:
486,131,239423,1,0,0:3:0:0:
222,340,239598,1,0,0:3:0:0:
132,14,239774,1,8,0:0:0:0:
