osu file format v13

[General]
AudioFilename: 01 IGNITE.mp3
AudioLeadIn: 2000
PreviewTime: 204805
Countdown: 0
SampleSet: Soft
StackLeniency: 0.7
Mode: 0
LetterboxInBreaks: 0
WidescreenStoryboard: 0

[Editor]
DistanceSpacing: 1
BeatDivisor: 4
GridSize: 8
TimelineZoom: 1.6

[Metadata]
Title:IGNITE
TitleUnicode:IGNITE
Artist:Aoi Eir
ArtistUnicode:藍井エイル
Creator:Frostmourne
Version:Normal
Source:Sword Art Online II
Tags:Full Version Opening SAO Kirito Asuna Sinon Asada Shino Shinon Death Gun Gale Online Phantom Bullet ソードアート・オンラインⅡ
BeatmapID:492865
BeatmapSetID:209170

[Difficulty]
HPDrainRate:4
CircleSize:3.5
OverallDifficulty:4
ApproachRate:4.6
SliderMultiplier:0.9
SliderTickRate:1

[Events]
//Background and Video events
0,0,"bg.jpg",0,0
//Break Periods
2,100531,110312
2,170707,180487
//Storyboard Layer 0 (Background)
//Storyboard Layer 1 (Fail)
//Storyboard Layer 2 (Pass)
//Storyboard Layer 3 (Foreground)
//Storyboard Sound Samples
//Background Colour Transformations
3,100,163,162,255

[TimingPoints]
683,350.877192982456,4,2,2,30,1,0
12612,-100,4,2,1,60,0,0
13314,-100,4,2,1,75,0,0
24542,-100,4,2,1,30,0,0
35770,-100,4,2,1,75,0,0
52612,-100,4,2,1,75,0,0
56823,-100,4,2,1,75,0,0
57174,-100,4,2,1,55,0,0
57875,-100,4,2,1,65,0,0
58314,-100,4,2,1,45,0,0
58928,-100,4,2,1,60,0,0
59454,-100,4,2,2,75,0,0
59542,-100,4,2,1,40,0,0
60332,-100,4,2,1,60,0,0
61033,-100,4,2,1,95,0,1
94718,-100,4,2,1,95,0,0
94805,-100,4,2,1,80,0,0
100332,-100,4,2,1,60,0,0
110858,-100,4,2,1,60,0,0
111560,-100,4,2,1,75,0,0
128402,-100,4,2,1,75,0,0
132612,-100,4,2,1,75,0,0
132963,-100,4,2,1,55,0,0
133665,-100,4,2,1,65,0,0
134104,-100,4,2,1,45,0,0
134718,-100,4,2,1,60,0,0
135244,-100,4,2,2,60,0,0
135332,-100,4,2,1,40,0,0
136121,-100,4,2,1,60,0,0
136823,-100,4,2,1,95,0,1
170507,-100,4,2,1,95,0,0
205068,-100,4,2,1,30,0,0
205595,-100,4,2,1,60,0,0
206297,350.877192982456,4,2,1,75,1,0
212086,-100,4,2,1,35,0,0
212612,-100,4,2,1,45,0,0
213314,-100,4,2,1,65,0,0
213489,-100,4,2,1,45,0,0
214016,-100,4,2,1,55,0,0
214367,-100,4,2,1,65,0,0
214718,-100,4,2,1,75,0,0
215068,-100,4,2,1,55,0,0
216033,-100,4,2,1,80,0,0
217525,-100,4,2,1,95,0,1
239805,-100,4,2,1,95,0,0

[Colours]
Combo1 : 180,180,180
Combo2 : 111,174,253
Combo3 : 163,113,255

[HitObjects]
356,368,2086,6,0,B|296:212|412:212|340:60,1,315,2|0,0:0|0:0,0:0:0:0:
254,80,3665,1,0,0:0:0:0:
212,92,3840,2,0,P|172:107|116:98,2,90,0|0|0,0:0|0:0|0:0,0:0:0:0:
244,124,4718,2,0,P|280:216|252:348,1,225,0|0,0:0|0:0,0:0:0:0:
168,324,5946,5,0,0:0:0:0:
80,344,6297,2,0,P|44:260|52:160,1,180,0|0,0:0|0:0,0:0:0:0:
132,140,7349,1,0,0:0:0:0:
208,192,7700,6,0,B|272:192|272:192|328:216|328:216|392:216,1,180,2|0,0:0|0:0,0:0:0:0:
456,164,8753,1,0,0:0:0:0:
392,100,9104,2,0,L|196:100,2,180,0|0|2,0:0|0:0|0:0,0:0:0:0:
420,68,10682,2,0,L|512:68,2,90,0|0|0,0:0|0:0|0:0,0:0:0:0:
456,152,11735,6,0,P|468:196|464:248,1,90,0|0,0:0|0:0,0:0:0:0:
440,276,12261,2,0,L|348:294,1,90,0|8,0:0|0:0,0:0:0:0:
312,276,12788,2,0,P|252:260|180:268,1,135,8|6,0:0|0:0,0:0:0:0:
104,316,13665,5,8,0:0:0:0:
32,260,14016,1,2,0:0:0:0:
32,168,14367,1,8,0:0:0:0:
120,144,14718,2,0,P|132:176|120:236,2,90,2|8|2,0:0|0:0|0:0,0:0:0:0:
72,68,15770,2,0,P|104:56|164:68,1,90,8|6,0:0|0:0,0:0:0:0:
244,88,16472,6,0,L|344:88,1,90,8|2,0:0|0:0,0:0:0:0:
408,36,17174,2,0,P|424:76|416:128,1,90,8|2,0:0|0:0,0:0:0:0:
484,184,17875,1,8,0:0:0:0:
484,184,18051,2,0,L|436:316,1,135,0|8,0:0|0:0,0:0:0:0:
352,335,18928,6,0,L|256:327,1,90,6|8,0:0|0:0,0:0:0:0:
218,331,19454,2,0,P|198:267|214:199,1,135,0|8,0:0|0:0,0:0:0:0:
236,164,20156,2,0,L|380:152,1,135,0|8,0:0|0:0,0:0:0:0:
336,72,21033,5,2,0:0:0:0:
248,80,21384,1,8,0:0:0:0:
160,84,21735,2,0,L|132:176,1,90,6|8,0:0|0:0,0:0:0:0:
48,144,22437,6,0,P|47:192|68:236,1,90,2|8,0:0|0:0,0:0:0:0:
96,264,22963,2,0,L|196:272,1,90,12|8,0:0|0:0,0:0:0:0:
232,272,23490,2,0,P|256:244|264:184,1,90,8|8,0:0|0:0,0:0:0:0:
256,148,24016,1,2,0:0:0:0:
152,60,24542,6,0,P|100:44|20:64,2,135,6|0|0,0:0|0:0|0:0,0:0:0:0:
232,100,25946,2,0,P|284:116|364:96,2,135,0|0|0,0:0|0:0|0:0,0:0:0:0:
156,152,27349,2,0,P|140:204|160:284,2,135,2|0|0,0:0|0:0|0:0,0:0:0:0:
248,148,28753,5,0,0:0:0:0:
336,172,29104,1,0,0:0:0:0:
413,124,29454,2,0,P|425:152|417:216,2,90,0|0|2,0:0|0:0|0:0,0:0:0:0:
380,93,30332,5,0,0:0:0:0:
296,60,30682,2,0,P|256:52|204:60,2,90,0|0|2,0:0|0:0|0:0,0:0:0:0:
296,108,31560,2,0,L|296:208,1,90,2|0,0:0|0:0,0:0:0:0:
264,284,32261,2,0,P|224:296|176:294,1,90
108,352,32963,6,0,P|84:300|96:224,1,135,2|0,0:0|0:0,0:0:0:0:
112,184,33665,2,0,L|256:172,1,135,0|2,0:0|0:0,0:0:0:0:
284,200,34367,2,0,L|296:56,1,135,2|0,0:0|0:0,0:0:0:0:
301,20,35068,1,0,0:0:0:0:
389,42,35419,2,0,P|413:40|435:32,2,45,0|0|6,0:0|0:0|0:0,0:0:0:0:
420,126,36121,5,2,0:0:0:0:
373,202,36472,1,2,0:0:0:0:
284,200,36823,1,8,0:0:0:0:
240,189,36998,1,0,0:0:0:0:
204,160,37174,6,0,L|195:54,1,90,2|2,0:0|0:0,0:0:0:0:
228,40,37700,1,0,0:0:0:0:
308,80,38051,1,0,0:0:0:0:
308,80,38226,2,0,L|404:80,2,90,8|2|2,0:0|0:0|0:0,0:0:0:0:
282,117,39104,1,0,0:0:0:0:
268,160,39279,6,0,P|260:204|268:252,1,90,2|8,0:0|0:0,0:0:0:0:
200,312,39981,2,0,P|128:324|60:296,2,135,2|8|8,0:0|3:0|0:0,0:0:0:0:
288,288,41384,5,2,0:0:0:0:
288,288,41560,2,0,L|392:288,1,90
372,200,42261,1,0,0:0:0:0:
372,200,42437,2,0,P|336:192|280:200,1,90,8|2,0:0|0:0,0:0:0:0:
204,244,43139,5,2,0:0:0:0:
170,327,43490,2,0,P|126:339|74:327,1,90,2|8,0:0|0:0,0:0:0:0:
12,276,44191,2,0,L|0:136,2,135,6|6|6,0:0|0:0|0:0,0:0:0:0:
132,216,45770,2,0,P|183:202|264:216,1,135,6|8,0:0|0:0,0:0:0:0:
344,256,46647,1,2,0:0:0:0:
436,256,46998,6,0,L|448:196,1,45,8|8,0:0|0:0,0:0:0:0:
364,168,47525,2,0,L|376:108,1,45,8|8,0:0|0:0,0:0:0:0:
288,96,48051,2,0,L|300:36,1,45,8|8,0:0|0:0,0:0:0:0:
212,28,48577,2,0,L|200:88,1,45,8|8,0:0|0:0,0:0:0:0:
156,152,49104,6,0,P|116:164|64:156,2,90,8|8|8,0:0|0:0|0:0,0:0:0:0:
200,156,49981,1,8,0:0:0:0:
276,200,50332,1,8,0:0:0:0:
276,200,50507,1,8,0:0:0:0:
212,264,50858,1,8,0:0:0:0:
212,264,51033,1,8,0:0:0:0:
280,320,51384,1,8,0:0:0:0:
280,320,51560,2,0,P|360:336|464:324,1,180,8|8,0:0|0:0,0:0:0:0:
480,240,52612,5,6,0:0:0:0:
392,228,52963,1,0,0:0:0:0:
304,240,53314,2,0,P|264:232|208:232,1,90,8|0,0:0|0:0,0:0:0:0:
172,244,53840,2,0,L|140:160,2,90,2|8|2,0:0|0:0|0:0,0:0:0:0:
140,276,54718,1,8,0:0:0:0:
56,304,55068,2,0,P|40:272|40:208,1,90,2|6,0:0|0:0,0:0:0:0:
40,128,55770,6,0,L|140:116,1,90,0|8,0:0|0:0,0:0:0:0:
220,104,56472,1,8,0:0:0:0:
304,132,56823,1,8,0:0:0:0:
304,132,56998,2,0,L|312:28,2,90,0|0|0,0:0|0:0|0:0,0:0:0:0:
300,176,57875,1,8,0:0:0:0:
256,192,58051,12,4,59454,1:2:0:0:
400,60,60332,6,0,L|392:108,1,45,2|2,0:0|0:0,0:0:0:0:
455,227,61033,6,0,L|424:320,1,90,6|8,0:0|0:0,0:0:0:0:
346,354,61735,1,2,0:0:0:0:
310,271,62086,1,8,0:0:0:0:
235,321,62437,1,2,0:0:0:0:
190,314,62612,1,0,0:0:0:0:
145,323,62788,2,0,L|53:302,1,90,8|2,0:0|0:0,0:0:0:0:
12,312,63314,2,0,P|1:264|12:216,1,90
42,195,63840,6,0,P|88:186|131:203,1,90,2|8,0:0|0:0,0:0:0:0:
213,227,64542,2,0,P|259:236|302:219,1,90,2|8,0:0|0:0,0:0:0:0:
380,259,65244,2,0,L|393:352,1,90,2|8,0:0|0:0,0:0:0:0:
482,337,65946,2,0,L|469:247,1,90,2|8,0:0|0:0,0:0:0:0:
456,160,66647,6,0,P|412:152|352:160,1,90,6|8,0:0|0:0,0:0:0:0:
278,171,67349,2,0,L|248:261,1,90,2|8,0:0|0:0,0:0:0:0:
212,340,68051,2,0,L|120:340,1,90,2|8,0:0|0:0,0:0:0:0:
34,322,68753,1,2,0:0:0:0:
16,233,69104,1,8,0:0:0:0:
104,212,69454,5,6,0:0:0:0:
104,212,69630,2,0,L|128:120,2,90,0|8|2,0:0|0:0|0:0,0:0:0:0:
184,256,70682,2,0,P|228:264|276:256,1,90,8|8,0:0|0:0,0:0:0:0:
308,232,71209,2,0,L|320:136,1,90,8|2,0:0|0:0,0:0:0:0:
316,96,71735,2,0,P|280:68|228:60,1,90,8|8,0:0|0:0,0:0:0:0:
200,84,72261,6,0,L|104:84,1,90,6|8,0:0|0:0,0:0:0:0:
84,172,72963,2,2,L|174:172,1,90,2|8,0:0|0:0,0:0:0:0:
264,172,73665,1,2,0:0:0:0:
308,182,73841,1,0,0:0:0:0:
352,176,74016,2,0,P|360:136|352:72,1,90,8|2,0:0|0:0,0:0:0:0:
343,51,74543,2,0,L|246:39,1,90,0|0,0:0|0:0,0:0:0:0:
208,48,75069,5,6,0:0:0:0:
148,116,75420,1,8,0:0:0:0:
96,44,75771,2,0,P|68:76|60:124,2,90,2|8|2,0:0|0:0|0:0,0:0:0:0:
148,116,76823,1,8,0:0:0:0:
236,104,77174,1,2,0:0:0:0:
325,89,77525,1,8,0:0:0:0:
344,176,77875,6,0,P|316:188|248:192,1,90,6|8,0:0|0:0,0:0:0:0:
168,172,78577,2,0,L|72:148,1,90,2|8,0:0|0:0,0:0:0:0:
32,228,79279,2,0,P|44:256|48:320,1,90,2|8,0:0|0:0,0:0:0:0:
120,368,79981,2,0,P|148:356|212:352,1,90,2|8,0:0|0:0,0:0:0:0:
268,284,80682,5,6,0:0:0:0:
268,284,80858,1,0,0:0:0:0:
188,240,81209,2,0,P|176:196|184:148,1,90,8|8,0:0|0:0,0:0:0:0:
272,140,81911,2,0,L|264:32,1,90,8|8,0:0|0:0,0:0:0:0:
224,36,82437,2,0,P|184:28|128:36,1,90,8|2,0:0|0:0,0:0:0:0:
48,54,83139,1,8,0:0:0:0:
24,140,83490,5,6,0:0:0:0:
108,172,83840,2,0,L|120:224,1,45,8|2,0:0|0:0,0:0:0:0:
52,276,84367,2,0,P|84:300|142:304,1,90,2|2,0:0|0:0,0:0:0:0:
224,308,85068,2,0,L|264:208,1,90,2|2,0:0|0:0,0:0:0:0:
348,240,85770,1,2,0:0:0:0:
348,240,85946,1,8,0:0:0:0:
436,260,86297,6,0,P|453:216|456:168,1,90,6|8,0:0|0:0,0:0:0:0:
420,148,86823,2,0,L|324:136,1,90,2|2,0:0|0:0,0:0:0:0:
244,160,87525,2,0,P|228:116|232:60,1,90,2|2,0:0|0:0,0:0:0:0:
312,40,88226,2,0,L|412:40,1,90,2|2,0:0|0:0,0:0:0:0:
464,112,88928,5,2,0:0:0:0:
464,112,89104,2,0,L|488:204,1,90,6|8,0:0|0:0,0:0:0:0:
408,240,89805,2,0,L|432:332,1,90,2|8,0:0|0:0,0:0:0:0:
344,344,90507,1,2,0:0:0:0:
256,320,90858,5,8,0:0:0:0:
172,352,91209,1,2,0:0:0:0:
84,324,91560,1,8,0:0:0:0:
256,192,91911,12,6,94718,0:0:0:0:
452,220,95419,6,0,L|355:206,1,90,2|8,0:0|0:0,0:0:0:0:
276,231,96121,2,0,P|264:179|270:141,1,90,2|8,0:0|0:0,0:0:0:0:
357,119,96823,2,0,P|369:67|356:26,1,90,2|8,0:0|0:0,0:0:0:0:
280,72,97525,6,0,L|184:72,1,90,6|8,0:0|0:0,0:0:0:0:
101,59,98226,1,2,0:0:0:0:
82,99,98402,1,0,0:0:0:0:
79,143,98577,1,8,0:0:0:0:
83,188,98753,6,0,L|124:280,1,90,6|2,0:0|0:0,0:0:0:0:
162,286,99279,2,0,L|261:286,1,90,2|8,0:0|0:0,0:0:0:0:
296,284,99805,2,0,P|308:216|288:144,1,135,2|6,0:0|0:0,0:0:0:0:
248,244,111560,6,0,L|260:340,2,90,6|8|2,0:0|0:0|0:0,0:0:0:0:
260,156,112612,1,8,0:0:0:0:
305,150,112788,1,0,0:0:0:0:
344,172,112963,2,0,P|391:165|440:144,1,90,2|8,0:0|0:0,0:0:0:0:
476,149,113490,2,0,P|489:192|482:247,1,90,0|0,0:0|0:0,0:0:0:0:
439,313,114191,6,0,L|385:308,1,45,0|2,0:0|0:0,0:0:0:0:
324,252,114718,1,8,0:0:0:0:
288,278,114893,1,0,0:0:0:0:
247,297,115068,2,0,P|235:256|245:206,1,90,2|8,0:0|0:0,0:0:0:0:
152,208,115770,2,0,P|161:166|193:126,1,90,2|8,0:0|0:0,0:0:0:0:
280,124,116472,6,0,L|372:144,1,90,2|8,0:0|0:0,0:0:0:0:
459,145,117174,1,2,0:0:0:0:
459,145,117349,2,0,P|478:187|482:231,2,90,0|0|0,0:0|0:0|0:0,0:0:0:0:
416,65,118402,2,0,P|352:41|276:41,1,135,0|8,0:0|0:0,0:0:0:0:
204,76,119279,1,2,0:0:0:0:
125,117,119630,2,0,P|82:117|35:92,1,90,8|6,0:0|0:0,0:0:0:0:
32,232,120507,6,0,P|92:248|180:240,2,135,6|6|12,0:0|0:0|0:0,0:0:0:0:
36,324,121911,1,2,0:0:0:0:
36,324,122086,2,0,L|136:356,1,90,8|2,0:0|0:0,0:0:0:0:
212,360,122788,6,0,L|200:300,1,45,8|8,0:0|0:0,0:0:0:0:
268,252,123314,2,0,L|256:192,1,45,8|8,0:0|0:0,0:0:0:0:
220,128,123840,2,0,L|208:68,1,45,8|8,3:0|3:0,0:0:0:0:
288,40,124367,2,0,L|300:100,1,45,8|8,0:0|0:0,0:0:0:0:
356,152,124893,6,0,P|396:164|448:156,2,90,8|8|8,0:0|0:0|0:0,0:0:0:0:
312,156,125770,1,8,0:0:0:0:
236,200,126121,1,8,3:0:0:0:
236,200,126297,1,8,3:0:0:0:
300,264,126647,1,8,0:0:0:0:
300,264,126823,1,8,0:0:0:0:
232,320,127174,1,8,3:0:0:0:
232,320,127349,2,0,P|152:336|48:324,1,180,8|8,3:0|0:0,0:0:0:0:
32,240,128402,5,6,0:0:0:0:
120,228,128753,1,0,0:0:0:0:
208,240,129104,2,0,P|248:232|304:232,1,90,8|0,0:0|0:0,0:0:0:0:
340,244,129630,2,0,L|372:160,2,90,2|8|2,0:0|0:0|0:0,0:0:0:0:
372,276,130507,1,8,0:0:0:0:
456,304,130858,2,0,P|472:272|472:208,1,90,2|6,0:0|0:0,0:0:0:0:
472,128,131560,6,0,L|372:116,1,90,8|8,0:0|0:0,0:0:0:0:
292,104,132261,1,8,0:0:0:0:
208,132,132612,1,8,0:0:0:0:
208,132,132788,2,0,L|200:28,2,90,0|0|0,0:0|0:0|0:0,0:0:0:0:
212,176,133665,1,8,0:0:0:0:
256,192,134016,12,4,135244,0:2:0:0:
112,60,136121,6,0,L|120:108,1,45,2|2,0:0|0:0,0:0:0:0:
57,227,136823,6,0,L|88:320,1,90,6|8,0:0|0:0,0:0:0:0:
166,354,137525,1,2,0:0:0:0:
202,271,137875,1,8,0:0:0:0:
277,321,138226,1,2,0:0:0:0:
320,334,138402,1,0,0:0:0:0:
365,340,138577,2,0,L|400:251,1,90,8|2,0:0|0:0,0:0:0:0:
414,213,139104,2,0,P|423:164|412:111,1,90
376,108,139630,6,0,L|287:116,1,90,6|8,0:0|0:0,0:0:0:0:
251,199,140332,2,0,P|205:208|162:191,1,90,2|8,0:0|0:0,0:0:0:0:
112,264,141033,2,0,L|99:357,1,90,2|8,0:0|0:0,0:0:0:0:
12,332,141735,2,0,L|25:242,1,90,2|8,0:0|0:0,0:0:0:0:
56,160,142437,6,0,P|100:152|160:160,1,90,6|8,0:0|0:0,0:0:0:0:
234,171,143139,2,0,L|264:261,1,90,2|8,0:0|0:0,0:0:0:0:
300,340,143841,2,0,L|392:340,1,90,2|8,0:0|0:0,0:0:0:0:
478,322,144543,1,2,0:0:0:0:
496,233,144894,1,8,0:0:0:0:
408,212,145244,5,6,0:0:0:0:
408,212,145419,2,0,L|384:120,2,90,0|8|0,0:0|0:0|0:0,0:0:0:0:
328,256,146472,2,0,P|284:264|236:256,1,90,8|8,0:0|0:0,0:0:0:0:
204,232,146998,2,0,L|192:136,1,90,8|2,0:0|0:0,0:0:0:0:
196,96,147525,2,0,P|232:68|284:60,1,90,8|8,0:0|0:0,0:0:0:0:
312,84,148051,6,0,L|408:84,1,90,6|8,0:0|0:0,0:0:0:0:
428,172,148753,2,0,L|338:172,1,90,2|8,0:0|0:0,0:0:0:0:
248,172,149454,1,2,0:0:0:0:
204,182,149630,1,0,0:0:0:0:
160,176,149805,2,0,P|152:136|160:72,1,90,8|2,0:0|0:0,0:0:0:0:
169,51,150332,2,0,L|266:39,1,90,0|0,0:0|0:0,0:0:0:0:
304,48,150858,5,6,0:0:0:0:
364,116,151209,1,8,0:0:0:0:
416,44,151560,2,0,P|444:76|452:124,2,90,2|8|2,0:0|0:0|0:0,0:0:0:0:
364,116,152612,1,8,0:0:0:0:
276,104,152963,1,2,0:0:0:0:
187,89,153314,1,8,0:0:0:0:
168,176,153665,6,0,P|196:188|264:192,1,90,6|8,0:0|0:0,0:0:0:0:
343,174,154367,2,0,L|439:150,1,90,2|8,0:0|0:0,0:0:0:0:
480,228,155068,2,0,P|468:256|464:320,1,90,2|8,0:0|0:0,0:0:0:0:
392,368,155770,2,0,P|364:356|300:352,1,90,2|8,0:0|0:0,0:0:0:0:
244,284,156472,5,6,0:0:0:0:
244,284,156647,1,0,0:0:0:0:
159,251,156998,2,0,P|147:207|155:159,1,90,8|8,0:0|0:0,0:0:0:0:
240,140,157700,2,0,L|248:32,1,90,8|8,0:0|0:0,0:0:0:0:
288,36,158226,2,0,P|364:28|480:60,1,180,8|2,0:0|0:0,0:0:0:0:
488,140,159279,5,6,0:0:0:0:
404,172,159630,2,0,L|392:224,1,45,8|2,0:0|0:0,0:0:0:0:
460,276,160156,2,0,P|428:300|370:304,1,90,2|2,0:0|0:0,0:0:0:0:
288,308,160858,2,0,L|248:208,1,90,2|2,0:0|0:0,0:0:0:0:
164,240,161560,1,2,0:0:0:0:
164,240,161735,1,8,0:0:0:0:
76,260,162086,6,0,P|59:216|56:168,1,90,6|8,0:0|0:0,0:0:0:0:
92,148,162612,2,0,L|188:136,1,90,2|2,0:0|0:0,0:0:0:0:
268,160,163314,2,0,P|284:116|280:60,1,90,2|2,0:0|0:0,0:0:0:0:
200,40,164016,2,0,L|100:40,1,90,2|2,0:0|0:0,0:0:0:0:
48,112,164717,5,2,0:0:0:0:
48,112,164893,2,0,L|24:204,1,90,6|8,0:0|0:0,0:0:0:0:
104,240,165595,2,0,L|80:332,1,90,2|8,0:0|0:0,0:0:0:0:
168,344,166296,1,2,0:0:0:0:
256,320,166647,5,8,0:0:0:0:
340,352,166998,1,2,0:0:0:0:
428,324,167349,1,8,0:0:0:0:
256,192,167700,12,6,170507,0:0:0:0:
440,128,181735,6,0,P|460:200|436:312,1,180,6|2,0:0|0:0,0:0:0:0:
352,288,182788,1,8,0:0:0:0:
264,312,183139,1,2,0:0:0:0:
192,256,183490,2,0,L|173:164,2,90,2|2|8,0:0|0:0|0:0,0:0:0:0:
160,336,184542,6,0,P|128:352|72:352,2,90,2|2|2,0:0|0:0|0:0,0:0:0:0:
192,256,185595,1,8,0:0:0:0:
280,268,185946,2,0,L|376:268,1,90,2|2,0:0|0:0,0:0:0:0:
440,212,186647,2,0,P|436:168|408:120,1,90,2|8,0:0|0:0,0:0:0:0:
472,60,187349,6,0,P|388:28|292:40,1,180,6|2,0:0|0:0,0:0:0:0:
256,116,188402,1,8,0:0:0:0:
232,204,188753,2,0,L|216:348,2,135,2|0|8,0:0|0:0|0:0,0:0:0:0:
256,192,190156,12,2,191911,0:0:0:0:
262,337,192612,6,0,L|270:232,1,90,8|6,0:0|0:0,0:0:0:0:
180,238,193314,5,2,0:0:0:0:
180,238,193490,2,0,P|168:192|171:140,1,90,8|2,0:0|0:0,0:0:0:0:
178,105,194016,1,8,0:0:0:0:
194,62,194191,2,0,L|292:49,1,90,0|8,0:0|3:0,0:0:0:0:
373,65,194893,2,0,P|384:39|388:16,2,45,2|8|2,0:0|0:0|0:0,0:0:0:0:
466,163,195770,6,0,P|424:164|376:186,1,90,2|0,0:0|0:0,0:0:0:0:
344,210,196297,1,8,3:0:0:0:
315,243,196472,2,0,P|272:252|219:240,1,90,0|8,0:0|0:0,0:0:0:0:
189,266,196998,2,0,L|204:363,1,90,0|8,0:0|0:0,0:0:0:0:
293,360,197700,2,0,P|338:363|390:344,1,90,2|2,0:0|0:0,0:0:0:0:
410,315,198226,2,0,P|446:294|502:279,1,90,8|2,0:0|0:0,0:0:0:0:
492,192,198928,5,2,0:0:0:0:
492,192,199104,2,0,L|500:100,1,90,8|2,0:0|0:0,0:0:0:0:
484,60,199630,2,0,P|440:48|388:60,1,90,8|2,0:0|0:0,0:0:0:0:
360,80,200156,2,0,P|316:92|264:80,1,90,8|2,0:0|0:0,0:0:0:0:
248,120,200682,2,0,L|256:220,1,90,8|2,0:0|0:0,0:0:0:0:
260,256,201209,5,8,3:0:0:0:
234,293,201384,1,2,0:0:0:0:
192,308,201560,2,0,B|140:308|140:308|108:288|108:288|48:288,1,135,8|8,0:0|0:0,0:0:0:0:
256,192,202261,12,12,204542,0:0:0:0:
256,176,205595,6,0,L|256:232,1,45,2|2,0:0|0:0,0:0:0:0:
256,192,206297,12,8,208753,3:0:0:0:
256,192,209104,12,8,210507,0:0:0:0:
320,281,211209,6,0,L|228:297,1,90,8|8,3:0|0:0,0:0:0:0:
176,223,211911,2,0,P|148:144|172:40,1,180,12|2,0:0|0:0,0:0:0:0:
256,56,212963,1,2,0:0:0:0:
347,51,213314,2,0,P|365:138|336:223,1,180,2|2,0:0|0:0,0:0:0:0:
276,288,214367,6,0,L|312:376,1,90,8|2,0:0|0:0,0:0:0:0:
356,376,214893,2,0,P|401:365|432:334,1,90,2|0,0:0|0:0,0:0:0:0:
500,276,215595,2,0,P|496:228|476:188,1,90,0|0,0:0|0:0,0:0:0:0:
432,192,216121,2,0,L|288:192,2,135,12|12|12,0:0|0:0|0:0,0:0:0:0:
492,124,217525,6,0,P|492:84|464:32,1,90,6|8,0:0|0:0,0:0:0:0:
404,100,218226,1,2,0:0:0:0:
328,52,218577,1,8,0:0:0:0:
252,100,218928,1,2,0:0:0:0:
228,188,219279,1,8,0:0:0:0:
144,220,219630,2,0,L|149:274,2,45,2|0|8,0:0|0:0|0:0,0:0:0:0:
56,192,220332,5,6,0:0:0:0:
68,104,220682,1,8,0:0:0:0:
156,120,221033,2,0,P|196:124|252:108,1,90,2|8,0:0|0:0,0:0:0:0:
336,108,221735,2,0,L|328:200,1,90,2|8,0:0|0:0,0:0:0:0:
420,196,222437,2,0,L|412:288,1,90,2|8,0:0|0:0,0:0:0:0:
356,356,223139,6,0,P|316:368|264:352,1,90,6|8,0:0|0:0,0:0:0:0:
192,312,223840,2,0,P|152:300|100:316,1,90,2|8,0:0|0:0,0:0:0:0:
16,320,224542,2,0,L|4:224,1,90,2|8,0:0|0:0,0:0:0:0:
92,216,225244,1,8,0:0:0:0:
184,208,225595,2,0,P|172:168|128:132,1,90,8|6,0:0|0:0,0:0:0:0:
92,124,226121,6,0,L|84:31,2,90,0|2|2,0:0|0:0|0:0,0:0:0:0:
16,168,227174,2,0,B|-12:216|12:264|12:264,1,90,8|2,0:0|0:0,0:0:0:0:
44,280,227700,2,0,L|140:284,1,90,8|2,0:0|0:0,0:0:0:0:
180,276,228226,1,0,0:0:0:0:
224,272,228402,1,2,0:0:0:0:
268,280,228577,1,0,0:0:0:0:
312,284,228753,6,0,P|324:244|320:184,1,90,6|8,0:0|0:0,0:0:0:0:
284,176,229279,2,0,L|280:80,1,90,0|2,0:0|0:0,0:0:0:0:
239,65,229805,1,8,0:0:0:0:
196,80,229981,2,0,P|148:80|104:64,2,90,2|2|2,0:0|0:0|0:0,0:0:0:0:
84,156,231209,6,0,P|72:204|81:248,1,90,8|6,0:0|0:0,0:0:0:0:
156,292,231911,1,8,0:0:0:0:
156,292,232086,2,0,L|252:292,1,90,0|2,0:0|0:0,0:0:0:0:
288,304,232612,1,8,0:0:0:0:
320,336,232788,2,0,L|416:336,1,90,0|2,0:0|0:0,0:0:0:0:
456,336,233314,1,8,0:0:0:0:
496,316,233489,2,0,P|504:272|496:208,1,90,8|2,0:0|0:0,0:0:0:0:
420,188,234191,5,2,0:0:0:0:
420,188,234367,2,0,L|316:188,1,90,6|8,0:0|0:0,0:0:0:0:
248,224,235068,1,2,0:0:0:0:
248,224,235244,2,0,P|230:282|240:364,1,135,8|8,0:0|0:0,0:0:0:0:
148,360,236121,6,0,L|40:372,1,90,8|8,0:0|0:0,0:0:0:0:
12,292,236823,1,8,0:0:0:0:
64,220,237174,1,12,0:0:0:0:
256,192,237349,12,8,239805,0:0:0:0:
