osu file format v13

[General]
AudioFilename: 01 IGNITE.mp3
AudioLeadIn: 2000
PreviewTime: 204805
Countdown: 0
SampleSet: Soft
StackLeniency: 0.7
Mode: 0
LetterboxInBreaks: 0
WidescreenStoryboard: 0

[Editor]
DistanceSpacing: 1.1
BeatDivisor: 4
GridSize: 8
TimelineZoom: 3.799998

[Metadata]
Title:IGNITE
TitleUnicode:IGNITE
Artist:Aoi Eir
ArtistUnicode:藍井エイル
Creator:Frostmourne
Version:Hard
Source:Sword Art Online II
Tags:Full Version Opening SAO Kirito Asuna Sinon Asada Shino Shinon Death Gun Gale Online Phantom Bullet ソードアート・オンラインⅡ
BeatmapID:492864
BeatmapSetID:209170

[Difficulty]
HPDrainRate:5
CircleSize:4
OverallDifficulty:6
ApproachRate:7.5
SliderMultiplier:1.5
SliderTickRate:1

[Events]
//Background and Video events
0,0,"bg.jpg",0,0
//Break Periods
2,100532,109857
2,170707,180910
//Storyboard Layer 0 (Background)
//Storyboard Layer 1 (Fail)
//Storyboard Layer 2 (Pass)
//Storyboard Layer 3 (Foreground)
//Storyboard Sound Samples
//Background Colour Transformations
3,100,163,162,255

[TimingPoints]
683,350.877192982456,4,2,2,30,1,0
12612,-100,4,2,1,60,0,0
13314,-100,4,2,1,75,0,0
24542,-200,4,2,1,30,0,0
35770,-100,4,2,1,75,0,0
52612,-133.333333333333,4,2,1,75,0,0
56823,-100,4,2,1,75,0,0
57174,-100,4,2,1,55,0,0
57875,-100,4,2,1,65,0,0
58314,-100,4,2,1,45,0,0
58928,-100,4,2,1,60,0,0
59454,-100,4,2,2,75,0,0
59542,-100,4,2,1,40,0,0
60332,-100,4,2,1,60,0,0
61033,-100,4,2,1,95,0,1
94718,-100,4,2,1,95,0,0
94805,-100,4,2,1,80,0,0
100332,-133.333333333333,4,2,1,60,0,0
110858,-166.666666666667,4,2,1,60,0,0
111560,-100,4,2,1,75,0,0
128402,-133.333333333333,4,2,1,75,0,0
132612,-100,4,2,1,75,0,0
132963,-100,4,2,1,55,0,0
133665,-100,4,2,1,65,0,0
134104,-100,4,2,1,45,0,0
134718,-100,4,2,1,60,0,0
135244,-100,4,2,2,60,0,0
135332,-100,4,2,1,40,0,0
136121,-100,4,2,1,60,0,0
136823,-100,4,2,1,95,0,1
170507,-100,4,2,1,95,0,0
205068,-133.333333333333,4,2,1,30,0,0
205595,-133.333333333333,4,2,1,60,0,0
206297,350.877192982456,4,2,1,75,1,0
212086,-100,4,2,1,35,0,0
212612,-100,4,2,1,45,0,0
213314,-100,4,2,1,65,0,0
213489,-100,4,2,1,45,0,0
214016,-100,4,2,1,55,0,0
214367,-100,4,2,1,65,0,0
214718,-100,4,2,1,75,0,0
215068,-153.846153846153,4,2,1,55,0,0
216033,-153.846153846153,4,2,1,80,0,0
217525,-100,4,2,1,95,0,1
239805,-100,4,2,1,95,0,0

[Colours]
Combo1 : 180,180,180
Combo2 : 111,174,253
Combo3 : 163,113,255

[HitObjects]
392,332,858,6,0,L|377:258,1,75
300,232,1209,1,0,0:0:0:0:
224,264,1384,2,0,B|208:224|220:184,1,75
288,144,1735,1,0,0:0:0:0:
368,168,1911,1,0,0:0:0:0:
452,168,2086,6,0,B|492:100|456:24,2,150,2|0|0,0:0|0:0|0:0,0:0:0:0:
368,168,2963,2,0,B|328:236|364:312,1,150,0|0,0:0|0:0,0:0:0:0:
204,360,3665,5,0,0:0:0:0:
204,360,3840,2,0,B|244:292|208:216,1,150,0|0,0:0|0:0,0:0:0:0:
124,224,4367,1,0,0:0:0:0:
52,188,4542,1,0,0:0:0:0:
16,264,4718,1,0,0:0:0:0:
52,188,4893,6,0,B|70:113|70:113|52:24,1,150,2|0,0:0|0:0,0:0:0:0:
136,24,5419,1,0,0:0:0:0:
136,24,5595,2,0,L|176:176,1,150,0|0,0:0|0:0,0:0:0:0:
376,360,6297,2,0,L|336:208,1,150,0|0,0:0|0:0,0:0:0:0:
416,192,6823,1,0,0:0:0:0:
416,192,6998,2,0,B|436:266|436:266|495:335,1,150,0|0,0:0|0:0,0:0:0:0:
504,152,7700,6,0,P|448:104|368:108,1,150,2|0,0:0|0:0,0:0:0:0:
8,232,8402,2,0,P|64:280|144:276,1,150
200,224,8928,1,0,0:0:0:0:
200,224,9104,2,0,L|208:56,1,150
304,228,9805,2,0,L|296:396,1,150
148,304,10507,5,2,0:0:0:0:
148,304,10682,2,0,B|76:264|0:292|0:292,2,150,0|0|0,0:0|0:0|0:0,0:0:0:0:
224,272,11560,1,0,0:0:0:0:
296,312,11735,1,0,0:0:0:0:
368,268,11911,6,0,L|376:188,1,75
308,148,12261,1,0,0:0:0:0:
308,148,12437,1,0,0:0:0:0:
375,101,12612,1,8,0:0:0:0:
454,125,12788,1,8,0:0:0:0:
426,335,13139,6,0,P|422:357|410:375,2,37.5,0|0|6,0:0|0:0|0:0,0:0:0:0:
480,272,13490,1,0,0:0:0:0:
480,272,13665,2,0,L|452:116,1,150,8|2,0:0|0:0,0:0:0:0:
480,44,14191,1,0,0:0:0:0:
480,44,14367,1,8,0:0:0:0:
400,60,14542,2,0,P|378:92|373:129,1,75,0|2,0:0|0:0,0:0:0:0:
384,208,14893,5,0,0:0:0:0:
384,208,15068,2,0,B|344:288|259:284|259:284,1,150,8|2,0:0|0:0,0:0:0:0:
220,356,15595,1,0,0:0:0:0:
300,364,15770,2,0,L|464:364,1,150,8|6,0:0|0:0,0:0:0:0:
464,288,16297,5,0,0:0:0:0:
464,288,16472,1,8,0:0:0:0:
504,212,16647,2,0,P|508:176|496:124,1,75,0|2,0:0|0:0,0:0:0:0:
428,176,16998,2,0,P|409:145|368:111,1,75,0|8,0:0|0:0,0:0:0:0:
348,196,17349,2,0,P|344:232|356:284,1,75,0|2,0:0|0:0,0:0:0:0:
276,320,17700,5,0,0:0:0:0:
276,320,17875,1,8,0:0:0:0:
208,276,18051,2,0,B|136:244|48:268,1,150,0|2,0:0|0:0,0:0:0:0:
43,345,18577,2,0,B|75:273|51:185,1,150,8|6,0:0|0:0,0:0:0:0:
232,52,19279,5,8,0:0:0:0:
232,52,19454,2,0,L|240:140,1,75,0|2,0:0|0:0,0:0:0:0:
244,208,19805,1,0,0:0:0:0:
328,204,19981,1,8,0:0:0:0:
392,148,20156,2,0,P|359:126|310:122,2,75,0|2|0,0:0|0:0|0:0,0:0:0:0:
408,228,20682,6,0,L|396:316,1,75,8|0,0:0|0:0,0:0:0:0:
316,292,21033,2,0,L|260:352,1,75,2|0,0:0|0:0,0:0:0:0:
204,292,21384,2,0,P|128:304|48:292,2,150,8|6|8,0:0|0:0|0:0,0:0:0:0:
336,88,22437,5,2,0:0:0:0:
256,76,22612,1,0,0:0:0:0:
180,116,22788,1,8,0:0:0:0:
180,116,22963,2,0,B|140:192|56:188,1,150,12|2,0:0|0:0,0:0:0:0:
92,272,23490,1,2,0:0:0:0:
92,272,23665,1,2,0:0:0:0:
144,336,23840,2,0,B|212:288,1,75,8|2,0:0|0:0,0:0:0:0:
208,36,24542,6,0,B|168:108|208:184,1,150,6|0,0:0|0:0,0:0:0:0:
356,188,25595,2,0,L|408:184,1,37.5
452,136,25946,2,0,P|455:98|448:56,1,75
379,35,26472,2,0,P|376:73|383:115,2,75,0|0|2,0:0|0:0|0:0,0:0:0:0:
304,28,27349,6,0,B|268:112,1,75,2|0,0:0|0:0,0:0:0:0:
244,164,27875,1,0,0:0:0:0:
204,228,28051,2,0,B|104:240|112:136|0:152,1,225
84,24,29454,6,0,P|123:35|156:60,1,75
204,120,29981,1,2,0:0:0:0:
204,120,30156,2,0,L|200:164,1,37.5,2|0,0:0|0:0,0:0:0:0:
172,304,30682,6,0,B|136:316|88:296,2,75,0|0|2,0:0|0:0|0:0,0:0:0:0:
240,268,31560,2,0,B|276:256|324:276,2,75,2|0|0,0:0|0:0|0:0,0:0:0:0:
152,148,32612,2,0,L|143:70,2,75,0|2|0,0:0|0:0|0:0,0:0:0:0:
209,204,33490,5,0,0:0:0:0:
272,160,33665,2,0,P|323:149|383:158,1,112.5,0|2,0:0|0:0,0:0:0:0:
428,228,34367,1,2,0:0:0:0:
428,228,34542,2,0,L|412:301,1,75,0|0,0:0|0:0,0:0:0:0:
488,304,35068,2,0,L|472:380,1,75,0|0,0:0|0:0,0:0:0:0:
396,376,35595,5,0,0:0:0:0:
338,316,35770,2,0,B|294:316|294:316|238:332|238:332|186:332,1,150,6|2,0:0|0:0,0:0:0:0:
113,363,36297,1,0,0:0:0:0:
119,280,36472,1,2,0:0:0:0:
312,208,36823,5,8,0:0:0:0:
395,207,36998,1,0,0:0:0:0:
480,208,37174,2,0,P|500:136|480:60,1,150,2|2,0:0|0:0,0:0:0:0:
404,92,37700,2,0,P|332:112|256:92,1,150,0|0,0:0|0:0,0:0:0:0:
184,68,38226,2,0,L|164:144,1,75,8|0,0:0|0:0,0:0:0:0:
84,128,38577,6,0,B|40:196|68:272,1,150,2|2,0:0|0:0,0:0:0:0:
108,348,39104,1,0,0:0:0:0:
108,348,39279,2,0,B|160:348|160:348|204:336|204:336|264:336,1,150,2|8,0:0|0:0,0:0:0:0:
340,332,39805,5,0,0:0:0:0:
340,332,39981,2,0,B|356:296|340:256,1,75,2|0,0:0|0:0,0:0:0:0:
268,224,40332,1,2,0:0:0:0:
186,224,40507,1,8,3:0:0:0:
102,224,40682,2,0,B|66:152|90:76,1,150,2|8,0:0|0:0,0:0:0:0:
166,46,41209,1,0,0:0:0:0:
232,96,41384,5,2,0:0:0:0:
308,132,41560,2,0,P|318:92|307:54,1,75,0|2,0:0|0:0,0:0:0:0:
404,84,41911,2,0,P|393:123|405:162,1,75,0|2,0:0|0:0,0:0:0:0:
476,192,42261,2,0,P|486:152|475:114,1,75,0|8,0:0|0:0,0:0:0:0:
472,36,42612,1,0,0:0:0:0:
404,84,42788,6,0,B|348:84|348:84|312:64|312:64|240:64,1,150,2|2,0:0|0:0,0:0:0:0:
176,64,43314,1,8,0:0:0:0:
94,96,43490,2,0,B|79:55|98:24,1,75,2|2,0:0|0:0,0:0:0:0:
176,64,43840,2,0,B|191:105|172:136,1,75,8|0,0:0|0:0,0:0:0:0:
148,216,44191,6,0,B|64:232|8:176|8:176,1,150,6|8,0:0|0:0,0:0:0:0:
8,176,44718,2,0,L|36:338,1,150,6|8,0:0|0:0,0:0:0:0:
116,312,45244,2,0,B|200:296|256:352|256:352,1,150,6|8,0:0|0:0,0:0:0:0:
255,351,45770,2,0,L|227:189,1,150,6|2,0:0|0:0,0:0:0:0:
252,124,46297,5,8,0:0:0:0:
252,124,46472,2,0,P|286:113|328:116,1,75,0|2,0:0|0:0,0:0:0:0:
400,148,46823,1,0,0:0:0:0:
472,108,46998,5,8,0:0:0:0:
472,108,47174,1,8,0:0:0:0:
400,256,47525,1,8,0:0:0:0:
400,256,47700,1,8,0:0:0:0:
256,336,48051,1,8,0:0:0:0:
256,336,48226,1,8,0:0:0:0:
284,172,48577,5,8,0:0:0:0:
284,172,48753,2,0,L|272:252,1,75,8|0,0:0|0:0,0:0:0:0:
192,220,49104,2,0,L|203:145,1,75,8|2,0:0|0:0,0:0:0:0:
120,152,49454,2,0,L|131:77,1,75,8|2,0:0|0:0,0:0:0:0:
40,108,49805,5,8,0:0:0:0:
40,108,49981,1,8,0:0:0:0:
112,256,50332,1,8,0:0:0:0:
112,256,50507,1,8,0:0:0:0:
256,336,50858,1,8,0:0:0:0:
256,336,51033,1,8,0:0:0:0:
228,172,51384,5,8,0:0:0:0:
228,172,51560,2,0,L|240:252,1,75,2|0,0:0|0:0,0:0:0:0:
320,220,51911,2,0,L|308:145,1,75,8|0,0:0|0:0,0:0:0:0:
392,152,52261,2,0,L|380:77,1,75,8|0,0:0|0:0,0:0:0:0:
308,52,52612,6,0,P|264:76|190:66,1,112.500004291535,6|0,0:0|0:0,0:0:0:0:
128,44,53139,1,2,0:0:0:0:
52,24,53314,2,0,B|16:80|44:140,1,112.500004291535,8|0,0:0|0:0,0:0:0:0:
120,132,53840,2,0,B|186:124|227:175,1,112.500004291535,2|8,0:0|0:0,0:0:0:0:
280,232,54367,5,2,0:0:0:0:
280,232,54542,1,2,0:0:0:0:
308,156,54718,2,0,B|327:29,1,112.500004291535,8|0,0:0|0:0,0:0:0:0:
448,50,55419,6,2,B|431:162,1,112.500004291535,6|0,0:0|0:0,0:0:0:0:
431,161,55946,1,2,0:0:0:0:
409,239,56121,2,0,P|429:287|421:355,2,112.500004291535,8|8|12,0:0|0:0|0:0,0:0:0:0:
331,232,56998,6,0,L|291:308,1,75,0|2,0:0|0:0,0:0:0:0:
224,328,57349,2,0,P|184:336|148:325,2,75,0|8|8,0:0|0:0|0:0,0:0:0:0:
192,256,57875,1,8,0:0:0:0:
192,256,58051,1,8,0:0:0:0:
256,192,58226,12,4,59454,1:2:0:0:
136,168,59805,6,0,L|144:252,1,75
220,196,60156,1,0,0:0:0:0:
220,196,60332,2,0,L|228:280,1,75,2|2,0:0|0:0,0:0:0:0:
304,232,60682,1,0,0:0:0:0:
304,232,60858,2,0,P|307:187|296:152,1,75,0|6,0:0|0:0,0:0:0:0:
260,84,61209,5,0,0:0:0:0:
260,84,61384,2,0,B|212:84|212:84|164:96|164:96|100:96,2,150,8|2|8,0:0|0:0|0:0,0:0:0:0:
341,65,62261,1,0,0:0:0:0:
384,136,62437,1,2,0:0:0:0:
468,136,62612,5,0,0:0:0:0:
468,136,62788,2,0,P|476:96|468:56,2,75,8|0|2,0:0|0:0|0:0,0:0:0:0:
424,208,63314,2,0,P|416:248|424:288,2,75,0|8|0,0:0|0:0|0:0,0:0:0:0:
384,136,63840,6,0,B|304:140|272:228,1,150,2|8,0:0|0:0,0:0:0:0:
248,304,64367,1,0,0:0:0:0:
248,304,64542,2,0,L|84:336,1,150,2|8,0:0|0:0,0:0:0:0:
52,264,65068,1,0,0:0:0:0:
52,264,65244,2,0,B|4:196|36:116|36:116,1,150,2|8,0:0|0:0,0:0:0:0:
104,76,65770,1,0,0:0:0:0:
104,76,65946,2,0,B|152:144|120:224|120:224,1,150,2|8,0:0|0:0,0:0:0:0:
160,304,66472,5,8,0:0:0:0:
160,304,66560,1,8,0:0:0:0:
160,304,66647,2,0,B|238:328|302:278|302:278,1,150,6|8,0:0|0:0,0:0:0:0:
352,352,67174,1,0,0:0:0:0:
352,352,67349,2,0,B|425:314|435:233|435:233,1,150,2|8,0:0|0:0,0:0:0:0:
408,154,67875,5,0,0:0:0:0:
408,154,68051,2,0,B|328:176|264:120|264:120,1,150,2|8,0:0|0:0,0:0:0:0:
216,56,68577,1,0,0:0:0:0:
216,56,68753,2,0,L|64:56|64:56,1,150,2|8,0:0|0:0,0:0:0:0:
8,128,69279,5,8,0:0:0:0:
8,128,69367,1,8,0:0:0:0:
8,128,69454,2,0,P|4:172|20:220,1,75,6|0,0:0|0:0,0:0:0:0:
46,277,69805,1,8,0:0:0:0:
124,304,69981,2,0,B|138:264|112:224,1,75,0|2,0:0|0:0,0:0:0:0:
200,220,70332,2,0,B|240:234|280:208,1,75,0|8,0:0|0:0,0:0:0:0:
356,220,70682,6,0,L|332:380,1,150,8|0,0:0|0:0,0:0:0:0:
416,356,71209,2,0,L|440:196,1,150,8|2,0:0|0:0,0:0:0:0:
480,136,71735,2,0,P|480:112|466:85,2,37.5,8|8|8,0:0|0:0|0:0,0:0:0:0:
396,132,72086,5,8,0:0:0:0:
396,132,72174,1,8,0:0:0:0:
396,132,72261,2,0,B|316:156|252:112,2,150,6|8|2,0:0|0:0|0:0,0:0:0:0:
376,52,73139,2,0,L|284:40,1,75,0|8,0:0|0:0,0:0:0:0:
220,40,73490,2,0,L|146:49,1,75,0|2,0:0|0:0,0:0:0:0:
64,68,73840,5,0,0:0:0:0:
80,148,74016,1,8,0:0:0:0:
160,136,74191,1,0,0:0:0:0:
160,136,74367,2,0,P|168:174|168:232,1,75,2|0,0:0|0:0,0:0:0:0:
100,304,74718,1,8,0:0:0:0:
100,304,74893,2,0,P|92:266|92:208,1,75,0|2,0:0|0:0,0:0:0:0:
244,256,75244,5,0,0:0:0:0:
244,256,75419,2,0,P|251:297|252:360,1,75,8|0,0:0|0:0,0:0:0:0:
332,352,75770,2,0,B|324:276|348:204,1,150,2|8,0:0|0:0,0:0:0:0:
428,180,76297,1,0,0:0:0:0:
428,180,76472,2,0,B|352:188|280:164,1,150,2|8,0:0|0:0,0:0:0:0:
210,119,76998,1,8,0:0:0:0:
210,119,77174,2,0,B|134:111|62:135,1,150,2|8,0:0|0:0,0:0:0:0:
16,208,77700,5,8,0:0:0:0:
16,208,77788,1,8,0:0:0:0:
16,208,77875,2,0,P|-4:280|20:356,2,150,6|8|2,0:0|0:0|0:0,0:0:0:0:
96,224,78753,1,0,0:0:0:0:
130,149,78928,2,0,P|166:138|205:142,1,75,8|0,0:0|0:0,0:0:0:0:
248,212,79279,6,0,L|323:223,1,75,2|0,0:0|0:0,0:0:0:0:
284,296,79630,2,0,L|210:284,1,75,8|0,0:0|0:0,0:0:0:0:
156,344,79981,1,2,0:0:0:0:
76,332,80156,1,8,0:0:0:0:
76,332,80244,1,8,0:0:0:0:
76,332,80332,1,8,0:0:0:0:
46,255,80507,2,0,B|34:215|50:175,1,75,2|6,0:0|0:0,0:0:0:0:
111,127,80858,6,0,L|99:27,1,75,0|8,0:0|0:0,0:0:0:0:
184,84,81209,2,0,L|172:-16,1,75,0|2,0:0|0:0,0:0:0:0:
257,34,81560,2,0,L|269:134,1,75,0|8,0:0|0:0,0:0:0:0:
308,180,81911,2,0,L|316:236,2,37.5,8|8|2,0:0|0:0|0:0,0:0:0:0:
368,124,82261,5,0,0:0:0:0:
445,153,82437,2,0,L|461:78,2,75,8|0|2,0:0|0:0|0:0,0:0:0:0:
476,233,82963,1,8,0:0:0:0:
476,233,83051,1,8,0:0:0:0:
476,233,83139,2,0,L|476:321,1,75,2|0,0:0|0:0,0:0:0:0:
396,328,83490,6,0,B|336:380|256:348,1,150,6|8,0:0|0:0,0:0:0:0:
123,252,84016,2,0,B|183:200|263:232,1,150,0|2,0:0|0:0,0:0:0:0:
432,244,84542,1,8,0:0:0:0:
432,244,84718,2,0,L|452:164,1,75,0|2,0:0|0:0,0:0:0:0:
480,96,85068,6,0,B|440:84|408:104,1,75,0|8,0:0|0:0,0:0:0:0:
328,124,85419,2,0,B|288:136|256:116,1,75,0|2,0:0|0:0,0:0:0:0:
176,132,85770,1,0,0:0:0:0:
176,132,85946,2,0,L|92:152,1,75,8|0,0:0|0:0,0:0:0:0:
124,56,86297,6,0,B|184:4|264:36,1,150,6|8,0:0|0:0,0:0:0:0:
397,132,86823,2,0,B|337:184|257:152,1,150,0|2,0:0|0:0,0:0:0:0:
257,151,87349,1,8,0:0:0:0:
176,132,87525,2,0,L|156:212,1,75,0|2,0:0|0:0,0:0:0:0:
300,324,87875,6,0,L|319:251,1,75,0|8,0:0|0:0,0:0:0:0:
244,216,88226,2,0,L|224:296,1,75,0|2,0:0|0:0,0:0:0:0:
408,288,88577,2,0,L|390:215,1,75,0|8,0:0|0:0,0:0:0:0:
320,172,88928,5,0,0:0:0:0:
320,172,89104,2,0,B|284:96|316:24,1,150,6|8,0:0|0:0,0:0:0:0:
204,28,89630,2,0,B|240:104|208:176,1,150,0|2,0:0|0:0,0:0:0:0:
128,172,90156,1,8,0:0:0:0:
60,124,90332,1,0,0:0:0:0:
60,124,90507,2,0,L|28:212,1,75,2|0,0:0|0:0,0:0:0:0:
28,276,90858,6,0,B|16:316|40:352,1,75,8|0,0:0|0:0,0:0:0:0:
208,200,91209,2,0,B|220:160|196:124,1,75,2|0,0:0|0:0,0:0:0:0:
172,304,91560,2,0,P|244:332|340:312,1,150,8|12,0:0|0:0,0:0:0:0:
256,192,91998,12,12,94191,0:0:0:0:
96,80,94542,6,0,L|44:76,2,37.5,0|0|6,0:0|0:0|0:0,0:0:0:0:
180,108,94893,1,0,0:0:0:0:
180,108,95068,1,8,0:0:0:0:
264,108,95244,2,0,B|280:72|264:24,1,75,0|2,0:0|0:0,0:0:0:0:
356,40,95595,1,0,0:0:0:0:
356,40,95770,2,0,B|340:76|356:124,1,75,8|0,0:0|0:0,0:0:0:0:
432,132,96121,6,0,B|444:208|404:208|432:284,1,150,2|8,0:0|0:0,0:0:0:0:
384,348,96647,1,0,0:0:0:0:
384,348,96823,2,0,B|308:360|308:320|232:348,2,150,2|8|6,0:0|0:0|0:0,0:0:0:0:
344,268,97700,5,0,0:0:0:0:
344,268,97875,1,8,0:0:0:0:
260,256,98051,2,0,P|222:262|177:277,1,75,0|2,0:0|0:0,0:0:0:0:
152,348,98402,1,0,0:0:0:0:
104,280,98577,1,8,0:0:0:0:
136,204,98753,6,0,P|206:178|300:168,1,150,6|2,0:0|0:0,0:0:0:0:
360,140,99279,1,2,0:0:0:0:
296,88,99454,1,0,0:0:0:0:
372,56,99630,1,8,0:0:0:0:
436,108,99805,2,0,P|444:184|416:256,1,150,2|0,0:0|0:0,0:0:0:0:
340,228,100332,1,6,0:0:0:0:
208,172,110682,6,0,L|216:96,1,56.2500021457673,8|0,0:0|0:0,0:0:0:0:
280,76,111033,2,0,L|272:24,2,44.999998626709,0|0|0,0:0|0:0|0:0,0:0:0:0:
344,128,111560,6,0,B|420:152|500:132,2,150,6|8|2,0:0|0:0|0:0,0:0:0:0:
288,188,112437,1,0,0:0:0:0:
208,172,112612,1,8,0:0:0:0:
124,172,112788,1,0,0:0:0:0:
40,172,112963,2,0,P|20:244|40:320,1,150,2|8,0:0|0:0,0:0:0:0:
116,288,113490,6,0,P|188:268|264:288,1,150,0|0,0:0|0:0,0:0:0:0:
336,312,114016,2,0,L|356:236,1,75,8|0,0:0|0:0,0:0:0:0:
436,252,114367,2,0,B|480:184|452:108,1,150,2|8,0:0|0:0,0:0:0:0:
412,36,114893,5,0,0:0:0:0:
412,36,115068,2,0,B|360:36|360:36|316:48|316:48|256:48,1,150,2|8,0:0|0:0,0:0:0:0:
180,42,115595,1,0,0:0:0:0:
180,42,115770,2,0,B|164:78|180:118,1,75,2|0,0:0|0:0,0:0:0:0:
252,156,116121,1,8,0:0:0:0:
336,156,116297,1,0,0:0:0:0:
420,156,116472,6,0,B|456:228|432:304,1,150,2|8,0:0|0:0,0:0:0:0:
356,332,116998,1,0,0:0:0:0:
288,284,117174,1,2,0:0:0:0:
212,248,117349,6,0,P|201:288|213:326,1,75,0|8,0:0|0:0,0:0:0:0:
116,296,117700,2,0,P|126:257|115:218,1,75,0|2,0:0|0:0,0:0:0:0:
44,188,118051,2,0,P|33:228|45:266,1,75,0|8,0:0|0:0,0:0:0:0:
48,344,118402,1,0,0:0:0:0:
116,296,118577,2,0,B|172:296|172:296|208:316|208:316|280:316,1,150,2|8,0:0|0:0,0:0:0:0:
348,320,119104,1,0,0:0:0:0:
424,288,119279,2,0,B|439:329|420:360,1,75,2|0,0:0|0:0,0:0:0:0:
348,320,119630,2,0,B|333:279|352:248,1,75,8|0,0:0|0:0,0:0:0:0:
372,164,119981,6,0,B|456:148|512:204|512:204,1,150,6|8,0:0|0:0,0:0:0:0:
511,204,120507,2,0,L|484:42,1,150,6|8,0:0|0:0,0:0:0:0:
404,68,121033,2,0,B|320:84|264:28|264:28,1,150,6|8,0:0|0:0,0:0:0:0:
265,29,121560,2,0,L|292:191,1,150,12|2,0:0|0:0,0:0:0:0:
268,256,122086,5,12,0:0:0:0:
268,256,122261,2,0,P|234:267|192:264,1,75,0|2,0:0|0:0,0:0:0:0:
120,232,122612,1,0,0:0:0:0:
48,272,122788,5,8,0:0:0:0:
48,272,122963,1,8,0:0:0:0:
120,124,123314,1,8,0:0:0:0:
120,124,123490,1,8,0:0:0:0:
264,44,123840,1,8,3:0:0:0:
264,44,124016,1,8,3:0:0:0:
236,208,124367,5,8,0:0:0:0:
236,208,124542,2,0,L|248:128,1,75,8|0,0:0|0:0,0:0:0:0:
328,160,124893,2,0,L|316:235,1,75,8|2,0:0|0:0,0:0:0:0:
400,228,125244,2,0,L|388:303,1,75,12|2,0:0|0:0,0:0:0:0:
480,272,125595,5,8,0:0:0:0:
480,272,125770,1,8,0:0:0:0:
408,124,126121,1,8,3:0:0:0:
408,124,126297,1,8,3:0:0:0:
264,44,126647,1,8,0:0:0:0:
264,44,126823,1,8,0:0:0:0:
292,208,127174,5,8,3:0:0:0:
292,208,127349,2,0,L|280:128,1,75,8|0,3:0|0:0,0:0:0:0:
200,160,127700,2,0,L|211:235,1,75,8|0,0:0|0:0,0:0:0:0:
128,228,128051,2,0,L|139:303,1,75,8|0,0:0|0:0,0:0:0:0:
212,340,128402,6,0,P|259:320|328:337,1,112.500004291535,6|0,0:0|0:0,0:0:0:0:
395,341,128928,1,2,0:0:0:0:
460,299,129104,2,0,B|493:243|456:194,1,112.500004291535,8|0,0:0|0:0,0:0:0:0:
400,248,129630,2,0,B|333:256|292:205,1,112.500004291535,2|8,0:0|0:0,0:0:0:0:
248,148,130156,5,2,0:0:0:0:
248,148,130332,1,2,0:0:0:0:
212,224,130507,2,0,B|193:351,1,112.500004291535,8|8,0:0|0:0,0:0:0:0:
332,336,131209,6,2,B|316:224,1,112.500004291535,6|8,0:0|0:0,0:0:0:0:
340,148,131735,1,2,0:0:0:0:
416,164,131911,2,0,P|436:116|428:48,2,112.500004291535,8|8|12,0:0|0:0|0:0,0:0:0:0:
340,148,132788,6,0,L|300:72,1,75,0|2,0:0|0:0,0:0:0:0:
228,80,133139,2,0,P|220:40|231:4,2,75,0|8|8,0:0|0:0|0:0,0:0:0:0:
252,158,133665,1,8,0:0:0:0:
223,234,133840,1,8,0:0:0:0:
256,192,134016,12,4,135244,1:2:0:0:
380,168,135595,6,0,L|372:252,1,75
296,196,135946,1,0,0:0:0:0:
296,196,136121,2,0,L|288:280,1,75,2|2,0:0|0:0,0:0:0:0:
212,232,136472,1,0,0:0:0:0:
212,232,136647,2,0,P|209:187|220:152,1,75,0|6,0:0|0:0,0:0:0:0:
278,103,136998,5,0,0:0:0:0:
278,103,137174,2,0,B|354:119|422:71,2,150,8|2|8,0:0|0:0|0:0,0:0:0:0:
207,61,138051,1,0,0:0:0:0:
128,88,138226,1,2,0:0:0:0:
48,60,138402,5,0,0:0:0:0:
48,60,138577,2,0,L|32:148,1,75,8|0,0:0|0:0,0:0:0:0:
16,216,138928,2,0,P|16:256|32:300,2,75,2|0|8,0:0|0:0|0:0,0:0:0:0:
96,192,139454,1,0,0:0:0:0:
176,212,139630,6,0,B|260:240|320:188|320:188,1,150,2|8,0:0|0:0,0:0:0:0:
395,235,140156,1,0,0:0:0:0:
395,235,140332,2,0,B|423:319|371:379|371:379,2,150,2|8|2,0:0|0:0|0:0,0:0:0:0:
456,173,141209,1,0,0:0:0:0:
380,141,141384,2,0,B|352:57|404:-3|404:-3,2,150,8|2|8,0:0|0:0|0:0,0:0:0:0:
308,195,142261,5,8,0:0:0:0:
308,195,142349,1,8,0:0:0:0:
308,195,142437,2,0,L|140:187,1,150,6|8,0:0|0:0,0:0:0:0:
67,191,142963,1,0,0:0:0:0:
67,191,143139,2,0,B|43:267|91:339,1,150,2|8,0:0|0:0,0:0:0:0:
168,360,143665,1,0,0:0:0:0:
232,308,143840,6,0,B|284:308|284:308|324:328|324:328|384:328,1,150,2|8,0:0|0:0,0:0:0:0:
377,328,144367,1,0,0:0:0:0:
460,328,144542,2,0,B|496:264|476:180,1,150,2|8,0:0|0:0,0:0:0:0:
399,151,145068,5,8,0:0:0:0:
399,151,145156,1,8,0:0:0:0:
399,151,145244,2,0,L|319:186,1,75,6|0,0:0|0:0,0:0:0:0:
248,192,145595,1,8,0:0:0:0:
248,192,145770,2,0,B|212:124|240:40|240:40,1,150,8|2,0:0|0:0,0:0:0:0:
316,20,146297,1,8,0:0:0:0:
384,64,146472,1,0,0:0:0:0:
460,36,146647,1,2,0:0:0:0:
484,116,146823,6,0,L|523:147,2,37.5,8|8|2,0:0|0:0|0:0,0:0:0:0:
420,172,147174,2,0,L|444:214,2,37.5,8|8|2,0:0|0:0|0:0,0:0:0:0:
350,221,147525,2,0,L|370:273,2,37.5,8|8|2,0:0|0:0|0:0,0:0:0:0:
268,204,147875,5,8,0:0:0:0:
268,204,147963,1,8,0:0:0:0:
268,204,148051,2,0,B|268:280|268:280|280:316|320:340,2,150,6|8|2,0:0|0:0|0:0,0:0:0:0:
276,120,148928,1,0,0:0:0:0:
276,120,149104,2,0,P|212:96|120:108,1,150,8|2,0:0|0:0,0:0:0:0:
88,176,149630,5,0,0:0:0:0:
88,176,149805,2,0,L|96:264,1,75,8|0,0:0|0:0,0:0:0:0:
172,220,150156,2,0,L|180:308,1,75,2|0,0:0|0:0,0:0:0:0:
256,268,150507,2,0,L|264:356,1,75,8|0,0:0|0:0,0:0:0:0:
344,340,150858,6,0,B|412:312|492:348,1,150,2|8,0:0|0:0,0:0:0:0:
492,244,151384,1,0,0:0:0:0:
492,244,151560,2,0,B|424:272|344:236,1,150,2|8,0:0|0:0,0:0:0:0:
288,176,152086,5,0,0:0:0:0:
288,176,152261,2,0,L|280:80,1,75,2|0,0:0|0:0,0:0:0:0:
360,76,152612,2,0,L|367:150,1,75,8|0,0:0|0:0,0:0:0:0:
444,124,152963,1,2,0:0:0:0:
428,212,153139,1,8,0:0:0:0:
428,212,153314,1,8,0:0:0:0:
344,248,153490,5,8,0:0:0:0:
344,248,153577,1,8,0:0:0:0:
344,248,153665,2,0,B|280:248|280:248|256:264|256:264|192:264,1,150,6|8,0:0|0:0,0:0:0:0:
216,348,154191,1,0,0:0:0:0:
216,348,154367,2,0,B|280:348|280:348|304:332|304:332|368:332,1,150,2|8,0:0|0:0,0:0:0:0:
444,348,154893,5,0,0:0:0:0:
444,348,155069,2,0,B|444:284|444:284|460:260|460:260|460:196,1,150,2|8,0:0|0:0,0:0:0:0:
388,160,155595,1,0,0:0:0:0:
388,160,155770,2,0,B|316:192|240:152,1,150,2|8,0:0|0:0,0:0:0:0:
192,216,156297,5,8,0:0:0:0:
192,216,156384,1,8,0:0:0:0:
192,216,156472,2,0,L|200:312,1,75,6|0,0:0|0:0,0:0:0:0:
120,320,156823,1,8,0:0:0:0:
120,320,156998,2,0,L|114:245,1,75,8|2,0:0|0:0,0:0:0:0:
40,284,157349,2,0,L|34:209,1,75,8|2,0:0|0:0,0:0:0:0:
88,144,157700,6,0,L|163:137,1,75,8|2,0:0|0:0,0:0:0:0:
244,156,158051,1,8,0:0:0:0:
320,120,158226,1,8,0:0:0:0:
386,169,158402,2,0,L|386:216,2,37.5,8|8|2,0:0|0:0|0:0,0:0:0:0:
415,91,158753,1,0,0:0:0:0:
468,156,158928,2,0,L|508:156,4,37.5,2|0|2|0|6,0:0|0:0|0:0|0:0|0:0,0:0:0:0:
188,260,159630,5,8,0:0:0:0:
188,260,159805,2,0,B|221:187|167:120,1,150,0|2,0:0|0:0,0:0:0:0:
84,140,160331,1,8,0:0:0:0:
84,140,160507,2,0,L|64:220,1,75,0|6,0:0|0:0,0:0:0:0:
36,288,160857,6,0,B|76:300|108:280,1,75,0|8,0:0|0:0,0:0:0:0:
188,260,161208,2,0,B|228:248|260:268,1,75,0|2,0:0|0:0,0:0:0:0:
340,252,161559,1,0,0:0:0:0:
340,252,161735,2,0,L|424:232,1,75,8|0,0:0|0:0,0:0:0:0:
392,328,162086,6,0,B|332:380|252:348,1,150,6|8,0:0|0:0,0:0:0:0:
116,248,162612,2,0,B|176:196|256:228,1,150,0|2,0:0|0:0,0:0:0:0:
340,252,163138,1,8,0:0:0:0:
340,252,163314,2,0,L|360:172,1,75,0|2,0:0|0:0,0:0:0:0:
216,60,163664,6,0,L|197:133,1,75,0|8,0:0|0:0,0:0:0:0:
272,168,164015,2,0,L|292:88,1,75,0|2,0:0|0:0,0:0:0:0:
108,96,164366,2,0,L|126:169,1,75,0|8,0:0|0:0,0:0:0:0:
193,223,164717,5,0,0:0:0:0:
193,223,164893,2,0,B|229:299|197:371,1,150,6|8,0:0|0:0,0:0:0:0:
309,367,165419,2,0,B|273:291|305:219,1,150,0|2,0:0|0:0,0:0:0:0:
392,224,165945,1,8,0:0:0:0:
448,284,166121,1,0,0:0:0:0:
392,224,166296,2,0,L|420:132,1,75,2|0,0:0|0:0,0:0:0:0:
492,120,166647,6,0,B|504:80|480:44,1,75,8|0,0:0|0:0,0:0:0:0:
312,196,166998,2,0,B|300:236|324:272,1,75,2|0,0:0|0:0,0:0:0:0:
348,92,167349,2,0,P|276:64|180:84,1,150,8|12,0:0|0:0,0:0:0:0:
256,192,167788,12,6,170507,0:0:0:0:
220,224,181735,6,0,P|228:304|256:368,2,150,6|2|2,0:0|0:0|0:0,0:0:0:0:
220,224,182612,1,0,0:0:0:0:
140,208,182788,2,0,L|156:124,1,75,8|0,0:0|0:0,0:0:0:0:
116,60,183139,2,0,P|88:84|72:132,2,75,2|0|2,0:0|0:0|0:0,0:0:0:0:
200,56,183665,1,0,0:0:0:0:
280,68,183840,2,0,P|353:72|432:56,1,150,2|8,0:0|0:0,0:0:0:0:
428,57,184367,1,0,0:0:0:0:
476,136,184542,5,2,0:0:0:0:
476,136,184718,2,0,L|456:228,1,75,0|2,0:0|0:0,0:0:0:0:
380,180,185068,1,0,0:0:0:0:
380,180,185244,1,2,0:0:0:0:
296,180,185419,2,0,B|260:160|212:176,1,75,0|8,0:0|0:0,0:0:0:0:
140,184,185770,5,0,0:0:0:0:
100,112,185946,1,2,0:0:0:0:
100,112,186121,2,0,L|112:24,1,75,0|2,0:0|0:0,0:0:0:0:
28,44,186472,2,0,L|16:132,1,75,8|0,3:0|0:0,0:0:0:0:
60,192,186823,2,0,L|24:276,2,75,8|2|0,3:0|0:0|0:0,0:0:0:0:
140,184,187349,6,0,B|164:356,1,150,6|2,0:0|0:0,0:0:0:0:
244,320,187875,1,0,0:0:0:0:
244,320,188051,2,0,B|223:171,2,150,2|8|2,0:0|0:0|0:0,0:0:0:0:
316,360,188928,1,0,0:0:0:0:
316,360,189104,2,0,P|388:372|476:352,1,150,2|2,0:0|0:0,0:0:0:0:
488,280,189630,1,0,0:0:0:0:
488,280,189805,2,0,L|504:112,1,150,8|2,0:0|0:0,0:0:0:0:
256,192,190244,12,6,192963,0:0:0:0:
316,32,193314,5,2,0:0:0:0:
316,32,193490,2,0,B|236:24|184:92,1,150,8|2,0:0|0:0,0:0:0:0:
236,156,194016,1,8,0:0:0:0:
236,156,194192,2,0,B|244:236|176:288,1,150,0|8,0:0|3:0,0:0:0:0:
96,272,194718,2,0,B|176:264|228:332,1,150,0|8,0:0|0:0,0:0:0:0:
308,352,195244,1,0,0:0:0:0:
332,272,195419,1,2,0:0:0:0:
252,244,195595,5,0,0:0:0:0:
252,244,195770,2,0,P|232:164|257:84,1,150,2|0,0:0|0:0,0:0:0:0:
332,104,196297,2,0,L|496:128,1,150,8|0,3:0|0:0,0:0:0:0:
480,208,196823,2,0,L|331:186,1,150,8|2,0:0|0:0,0:0:0:0:
176,220,197349,6,0,B|140:288|184:384,1,150,8|2,0:0|0:0,0:0:0:0:
260,360,197875,2,0,B|296:292|252:196,1,150,8|2,0:0|0:0,0:0:0:0:
220,140,198402,1,0,0:0:0:0:
220,140,198577,2,0,P|144:128|72:136,1,150,2|0,0:0|0:0,0:0:0:0:
28,208,199104,6,0,B|7:277|40:360,1,150,8|2,0:0|0:0,0:0:0:0:
107,309,199630,1,8,0:0:0:0:
176,356,199805,2,0,L|268:356,1,75,0|2,0:0|0:0,0:0:0:0:
332,356,200156,2,0,P|348:284|328:208,1,150,8|2,0:0|0:0,0:0:0:0:
252,244,200682,2,0,P|180:260|104:240,1,150,8|2,0:0|0:0,0:0:0:0:
88,160,201209,5,8,3:0:0:0:
88,160,201384,2,0,P|82:123|86:67,1,75,2|8,0:0|0:0,0:0:0:0:
165,96,201735,1,0,0:0:0:0:
241,62,201911,1,2,0:0:0:0:
308,112,202086,2,0,P|318:144|322:198,1,75,8|0,0:0|0:0,0:0:0:0:
252,244,202437,1,2,0:0:0:0:
252,244,202612,2,0,L|264:332,1,75,8|2,0:0|0:0,0:0:0:0:
180,332,202963,6,0,L|162:379,2,37.5,8|0|0,0:0|0:0|0:0,0:0:0:0:
104,300,203314,1,2,0:0:0:0:
100,216,203490,1,8,0:0:0:0:
100,216,203665,1,2,0:0:0:0:
160,160,203840,1,0,0:0:0:0:
160,160,204016,2,0,L|332:168,1,150,8|8,0:0|0:0,0:0:0:0:
460,176,204542,1,12,0:0:0:0:
460,176,205068,6,0,P|456:207|448:244,2,56.2500021457673,0|0|0,0:0|0:0|0:0,0:0:0:0:
412,108,205595,2,0,P|416:77|424:40,2,56.2500021457673,2|2|0,0:0|0:0|0:0,0:0:0:0:
340,156,206121,1,0,0:0:0:0:
340,156,206297,1,6,0:0:0:0:
256,192,206384,12,0,208051,0:0:0:0:
240,140,208402,6,0,L|232:60,2,75,0|0|8,0:0|0:0|3:0,0:0:0:0:
264,220,208928,1,2,0:0:0:0:
264,220,209104,1,6,0:0:0:0:
256,192,209191,12,12,210507,0:0:0:0:
260,128,211033,6,0,L|252:48,2,75,8|8|8,3:0|3:0|3:0,0:0:0:0:
268,212,211560,1,8,0:0:0:0:
284,292,211735,1,2,0:0:0:0:
284,292,211911,2,0,B|345:344|428:324,1,150,6|2,0:0|0:0,0:0:0:0:
502,294,212437,5,0,0:0:0:0:
469,218,212612,1,2,0:0:0:0:
469,218,212788,1,0,0:0:0:0:
388,198,212963,1,2,0:0:0:0:
388,198,213139,1,0,0:0:0:0:
304,196,213314,2,0,L|280:116,1,75,2|0,0:0|0:0,0:0:0:0:
202,141,213665,6,0,P|175:139|154:131,3,37.5,8|8|8|8,0:0|0:0|0:0|0:0,0:0:0:0:
124,133,214016,2,0,P|91:137|76:145,3,37.5,8|8|8|8,0:0|0:0|0:0|0:0,0:0:0:0:
51,157,214367,2,0,P|41:183|39:205,3,37.5,8|8|8|8,0:0|0:0|0:0|0:0,0:0:0:0:
29,232,214718,2,0,P|37:271|54:316,1,75,2|2,0:0|0:0,0:0:0:0:
244,208,215244,6,0,P|236:260|247:308,2,97.4999955368044,0|0|0,0:0|0:0|0:0,0:0:0:0:
296,142,216121,1,12,0:0:0:0:
260,67,216297,1,0,0:0:0:0:
260,67,216472,2,0,L|203:77,1,48.7499977684022,2|12,0:0|0:0,0:0:0:0:
136,36,216823,1,2,0:0:0:0:
88,104,216998,1,8,0:0:0:0:
88,104,217174,1,12,0:0:0:0:
121,186,217349,5,8,0:0:0:0:
121,186,217437,1,8,0:0:0:0:
121,186,217525,2,0,P|129:246|89:334,2,150,6|8|2,0:0|0:0|0:0,0:0:0:0:
212,204,218402,1,0,0:0:0:0:
212,204,218577,2,0,L|236:300,2,75,8|0|2,0:0|0:0|0:0,0:0:0:0:
236,124,219104,5,0,0:0:0:0:
308,80,219279,1,8,0:0:0:0:
384,116,219454,2,0,P|393:79|384:40,2,75,0|2|0,0:0|0:0|0:0,0:0:0:0:
428,188,219981,1,8,0:0:0:0:
428,188,220156,2,0,P|419:225|428:264,2,75,0|6|0,0:0|0:0|0:0,0:0:0:0:
337,216,220682,6,0,L|257:216,1,75,8|0,0:0|0:0,0:0:0:0:
183,241,221033,2,0,L|103:241,1,75,2|0,0:0|0:0,0:0:0:0:
88,160,221384,2,0,L|168:160,1,75,8|0,0:0|0:0,0:0:0:0:
184,80,221735,2,0,L|104:80,1,75,2|0,0:0|0:0,0:0:0:0:
28,96,222086,5,8,0:0:0:0:
88,160,222261,1,0,0:0:0:0:
44,228,222437,2,0,P|24:312|56:384,1,150,2|8,0:0|0:0,0:0:0:0:
134,369,222963,1,8,0:0:0:0:
134,369,223051,1,8,0:0:0:0:
134,369,223139,2,0,L|170:297,1,75,6|0,0:0|0:0,0:0:0:0:
224,240,223489,6,0,B|200:212|152:212,1,75,8|0,0:0|0:0,0:0:0:0:
224,240,223840,2,0,P|296:244|384:240,1,150,2|8,0:0|0:0,0:0:0:0:
420,164,224367,1,0,0:0:0:0:
420,164,224542,2,0,P|348:160|260:164,1,150,2|8,0:0|0:0,0:0:0:0:
186,160,225068,1,0,0:0:0:0:
104,176,225244,2,0,P|88:120|98:55,1,112.5,8|8,0:0|0:0,0:0:0:0:
94,66,225595,2,0,L|188:60,1,75,2|8,0:0|0:0,0:0:0:0:
252,76,225946,5,6,0:0:0:0:
332,104,226121,2,0,P|335:60|321:27,1,75,0|8,0:0|0:0,0:0:0:0:
412,28,226472,2,0,P|410:71|423:105,1,75,0|2,0:0|0:0,0:0:0:0:
416,184,226823,2,0,P|373:181|339:195,1,75,0|2,0:0|0:0,0:0:0:0:
272,232,227174,1,8,0:0:0:0:
344,272,227349,5,2,0:0:0:0:
284,344,227525,1,8,0:0:0:0:
284,344,227700,1,8,0:0:0:0:
206,300,227875,1,8,0:0:0:0:
133,337,228051,2,0,P|97:345|59:338,2,75,2|0|2,0:0|0:0|0:0,0:0:0:0:
136,254,228577,1,0,0:0:0:0:
54,254,228753,1,6,0:0:0:0:
72,56,229104,5,8,0:0:0:0:
72,56,229279,2,0,P|112:48|152:56,1,75,0|2,0:0|0:0,0:0:0:0:
227,37,229630,2,0,P|256:65|272:103,1,75,0|8,0:0|0:0,0:0:0:0:
268,180,229981,2,0,P|260:220|268:260,1,75,0|2,0:0|0:0,0:0:0:0:
312,324,230332,2,0,P|352:332|392:324,2,75,0|8|0,0:0|0:0|0:0,0:0:0:0:
232,344,230858,5,2,0:0:0:0:
156,316,231033,1,0,0:0:0:0:
76,340,231209,2,0,L|64:256,1,75,8|0,0:0|0:0,0:0:0:0:
128,156,231560,2,0,L|140:240,1,75,6|0,0:0|0:0,0:0:0:0:
224,260,231911,5,8,0:0:0:0:
224,260,232086,2,0,L|232:176,1,75,0|2,0:0|0:0,0:0:0:0:
244,104,232437,2,0,P|288:88|316:88,1,75,0|8,0:0|0:0,0:0:0:0:
400,96,232788,2,0,P|393:49|399:22,1,75,0|2,0:0|0:0,0:0:0:0:
472,56,233139,2,0,P|480:102|474:129,1,75,0|8,0:0|0:0,0:0:0:0:
500,208,233489,2,0,L|460:280,1,75,8|2,0:0|0:0,0:0:0:0:
380,264,233840,2,0,P|344:256|296:260,1,75,0|8,0:0|0:0,0:0:0:0:
256,192,234191,5,8,0:0:0:0:
256,192,234279,1,8,0:0:0:0:
256,192,234367,2,0,L|256:100,2,75,6|0|8,0:0|0:0|0:0,0:0:0:0:
256,276,234893,1,0,0:0:0:0:
324,324,235068,1,2,0:0:0:0:
380,264,235244,6,0,L|496:256,1,112.5,8|8,0:0|0:0,0:0:0:0:
493,255,235595,2,0,P|496:220|494:178,1,75,0|8,0:0|0:0,0:0:0:0:
408,152,235946,1,0,0:0:0:0:
408,152,236033,1,8,0:0:0:0:
408,152,236121,2,0,P|405:116|407:74,1,75,2|8,0:0|0:0,0:0:0:0:
328,48,236472,2,0,L|324:-4,2,37.5,2|8|0,0:0|0:0|0:0,0:0:0:0:
260,96,236823,2,0,P|264:131|262:173,1,75,8|8,0:0|0:0,0:0:0:0:
188,208,237174,5,12,0:0:0:0:
108,216,237349,2,0,L|86:218|64:220,2,37.5,8|8|8,0:0|0:0|0:0,0:0:0:0:
140,140,237700,1,12,0:0:0:0:
188,208,237875,2,0,P|188:232|183:259,2,37.5,8|8|8,0:0|0:0|0:0,0:0:0:0:
268,180,238226,1,12,0:0:0:0:
348,196,238401,2,0,P|366:209|381:231,2,37.5,8|8|8,0:0|0:0|0:0,0:0:0:0:
297,261,238753,5,12,0:0:0:0:
364,309,238928,1,8,0:0:0:0:
441,278,239104,2,0,P|471:254|490:211,1,75,8|8,0:0|0:0,0:0:0:0:
425,168,239454,2,0,P|417:128|425:76,2,75,8|8|8,0:0|0:0|0:0,0:0:0:0:
