osu file format v13

[General]
AudioFilename: SAOPII.mp3
AudioLeadIn: 0
PreviewTime: 53341
Countdown: 0
SampleSet: Soft
StackLeniency: 0.7
Mode: 0
LetterboxInBreaks: 0
WidescreenStoryboard: 1

[Editor]
DistanceSpacing: 1.15
BeatDivisor: 4
GridSize: 4
TimelineZoom: 1.5

[Metadata]
Title:IGNITE
TitleUnicode:IGNITE
Artist:Aoi Eir
ArtistUnicode:藍井エイル
Creator:CXu
Version:Hard
Source:ソードアート・オンラインⅡ
Tags:SWORD ART ONLINE II SAO SAOII Sinon Shinon Phantom Bullet Opening GGO Gun Gale Kirito Asuna KinomiCandy TV Size
BeatmapID:453046
BeatmapSetID:190213

[Difficulty]
HPDrainRate:6
CircleSize:4
OverallDifficulty:7
ApproachRate:8
SliderMultiplier:1.65
SliderTickRate:1

[Events]
//Background and Video events
Video,0,"willbereplaced.avi"
0,0,"Sinonononononononononon.jpg",0,0
//Break Periods
//Storyboard Layer 0 (Background)
//Storyboard Layer 1 (Fail)
//Storyboard Layer 2 (Pass)
//Storyboard Layer 3 (Foreground)
//Storyboard Sound Samples
//Background Colour Transformations
3,100,163,162,255

[TimingPoints]
-157,350.877192982456,4,2,0,100,1,0
18,-133.333333333333,4,2,1,30,0,0
1246,-133.333333333333,4,2,1,50,0,0
11246,-133.333333333333,4,2,2,55,0,0
11421,-133.333333333333,4,2,2,60,0,0
11597,-133.333333333333,4,2,2,65,0,0
11772,-133.333333333333,4,2,2,70,0,0
12299,-133.333333333333,4,2,1,70,0,0
12474,-100,4,2,2,70,0,0
18088,-133.333333333333,4,2,2,60,0,0
18176,-133.333333333333,4,2,3,50,0,0
27737,-133.333333333333,4,2,3,30,0,0
27913,-133.333333333333,4,2,3,35,0,0
28088,-133.333333333333,4,2,3,40,0,0
28264,-133.333333333333,4,2,3,45,0,0
28439,-133.333333333333,4,2,3,50,0,0
28614,-133.333333333333,4,2,3,30,0,0
29141,-114.942528735632,4,2,1,60,0,0
29316,-100,4,2,2,70,0,0
33351,-100,4,2,1,50,0,0
33527,-100,4,2,2,70,0,0
36158,-100,4,2,1,50,0,0
36334,-100,4,2,2,70,0,0
37737,-83.3333333333333,4,2,2,80,0,0
38244,-100,4,2,2,80,0,0
38790,-83.3333333333333,4,2,2,80,0,0
39316,-100,4,2,2,80,0,0
42474,-100,4,2,1,50,0,0
42650,-100,4,2,2,80,0,0
46158,-125,4,2,2,60,0,0
50369,-100,4,2,2,70,0,0
51948,-100,4,2,1,70,0,0
52474,-100,4,2,3,70,0,0
52562,-100,4,2,1,70,0,0
52825,-100,4,2,3,70,0,0
52913,-100,4,2,1,70,0,0
53000,-200,4,2,1,70,0,0
53176,-100,4,2,0,5,0,0
53878,-133.333333333333,4,2,2,70,0,0
54228,-133.333333333333,4,2,1,60,0,0
54579,-100,4,2,2,100,0,1
63527,-100,4,2,1,100,0,1
64053,-100,4,2,2,100,0,1
70018,-100,4,2,2,100,0,1
74755,-100,4,2,1,100,0,1
75281,-100,4,2,2,100,0,1
88263,-100,4,2,2,100,0,0

[Colours]
Combo1 : 136,120,66
Combo2 : 79,114,20
Combo3 : 83,116,193
Combo4 : 177,69,69

[HitObjects]
292,152,18,6,0,L|348:124,2,61.875002360344,2|2|0,0:0|0:0|0:0,0:0:0:0:
220,152,544,2,0,L|164:124,2,61.875002360344,2|2|0,0:0|0:0|0:0,0:0:0:0:
256,216,1071,1,0,0:0:0:0:
256,216,1246,2,0,P|240:272|176:296,2,123.750004720688,2|0|2,0:0|0:0|0:0,0:0:0:0:
328,216,2123,2,0,L|392:228,1,61.875002360344,0|2,0:0|0:0,0:0:0:0:
460,244,2474,1,0,0:0:0:0:
416,108,2825,5,2,0:0:0:0:
416,108,3000,2,0,P|400:72|400:40,1,61.875002360344,0|0,0:0|0:0,0:0:0:0:
328,32,3351,2,0,L|256:24,2,61.875002360344,2|0|2,0:0|0:0|0:0,0:0:0:0:
340,104,3878,1,0,0:0:0:0:
340,104,4053,6,0,P|304:152|232:176,1,123.750004720688,2|0,0:0|0:0,0:0:0:0:
112,220,4755,2,0,P|172:280|192:344,1,123.750004720688,2|0,0:0|0:0,0:0:0:0:
325,314,5457,2,0,P|353:260|400:220,1,123.750004720688,2|0,0:0|0:0,0:0:0:0:
404,77,6158,2,0,P|376:131|329:171,1,123.750004720688,2|0,0:0|0:0,0:0:0:0:
185,171,6860,6,0,P|138:131|111:77,1,123.750004720688,2|0,0:0|0:0,0:0:0:0:
72,212,7562,2,0,L|120:352,1,123.750004720688,2|0,0:0|0:0,0:0:0:0:
256,328,8264,2,0,L|256:200,1,123.750004720688,2|0,0:0|0:0,0:0:0:0:
440,212,8965,2,0,L|392:352,1,123.750004720688,2|0,0:0|0:0,0:0:0:0:
256,328,9667,6,0,P|208:336|180:348,1,61.875002360344,2|0,0:0|0:0,0:0:0:0:
84,252,10193,2,0,P|72:200|84:128,1,123.750004720688,2|0,0:0|0:0,0:0:0:0:
164,16,10895,1,2,0:0:0:0:
232,44,11071,6,0,P|268:48|304:40,1,61.875002360344,0|8,0:0|0:0,0:0:0:0:
340,96,11421,2,0,P|376:100|412:92,1,61.875002360344,8|8,0:0|0:0,0:0:0:0:
464,128,11772,5,8,0:0:0:0:
464,256,11948,1,8,0:0:0:0:
336,192,12299,5,2,0:0:0:0:
336,192,12386,1,2,0:0:0:0:
336,192,12474,2,0,B|296:192|296:192|256:172|256:172|204:164|180:200,1,165,6|8,0:2|0:0,0:0:0:0:
104,176,13000,2,0,B|128:116|192:96|192:96|156:48,1,165,0|0,0:0|0:0,0:0:0:0:
84,64,13527,2,0,P|48:100|32:144,1,82.5,8|0,0:0|0:0,0:0:0:0:
36,212,13878,6,0,P|52:272|40:320,1,82.5,2|0,0:0|0:0,0:0:0:0:
104,356,14228,2,0,P|147:312|195:298,1,82.5,8|0,0:0|0:0,0:0:0:0:
194,225,14579,2,0,P|134:208|98:174,1,82.5,2|0,0:0|0:0,0:0:0:0:
240,160,14930,2,0,P|299:176|335:210,1,82.5,8|0,0:0|0:0,0:0:0:0:
372,248,15281,6,0,B|432:264|472:216|472:216|448:152,1,165,4|8,0:0|0:0,0:0:0:0:
332,52,15983,1,0,0:0:0:0:
256,76,16158,2,0,P|200:80|164:64,2,82.5,0|8|8,0:0|0:0|0:3,0:0:0:0:
116,164,16860,2,0,L|80:252,1,82.5,2|2,0:0|0:0,0:0:0:0:
152,308,17211,2,0,L|188:220,1,82.5,2|8,0:0|0:0,0:0:0:0:
256,168,17562,1,8,0:0:0:0:
376,244,18088,6,0,B|408:260|456:248|456:248|448:296,1,123.750004720688,4|2,0:0|0:0,0:0:0:0:
449,289,18614,1,2,0:0:0:0:
428,168,19141,6,0,P|388:160|360:140,1,61.875002360344,2|0,0:0|0:0,0:0:0:0:
316,104,19492,2,0,P|257:116|196:104,1,123.750004720688,2|0,0:0|0:0,0:0:0:0:
148,160,20018,2,0,B|172:184|208:188|208:188|180:240,1,123.750004720688,0|2,0:0|0:0,0:0:0:0:
176,308,20544,1,0,0:0:0:0:
244,280,20720,5,8,0:0:0:0:
244,280,20895,2,0,B|264:252|264:252|300:288|352:280,1,123.750004720688,8|2,0:0|0:0,0:0:0:0:
416,280,21421,1,2,0:0:0:0:
416,280,21597,2,0,L|448:148,2,123.750004720688,0|0|0,0:0|0:0|0:0,0:0:0:0:
256,192,22650,1,2,0:0:0:0:
96,280,23000,2,0,P|56:232|52:168,1,123.750004720688,0|2,0:0|0:0,0:0:0:0:
88,36,23702,6,0,L|144:72,1,61.875002360344,8|0,0:0|0:0,0:0:0:0:
256,152,24228,2,0,B|296:144|304:104|304:104|332:88|364:100,2,123.750004720688,2|2|8,0:0|0:0|0:0,0:0:0:0:
196,192,25106,2,0,P|184:232|220:304,1,123.750004720688,8|2,0:0|0:0,0:0:0:0:
368,272,25807,2,0,P|339:241|259:236,1,123.750004720688,0|0,0:0|0:0,0:0:0:0:
296,312,26334,1,8,0:0:0:0:
296,312,26509,1,8,0:0:0:0:
440,320,26860,6,0,P|452:284|448:252,1,61.875002360344,2|2,0:0|0:0,0:0:0:0:
404,204,27211,2,0,P|380:164|400:72,1,123.750004720688,0|0,0:0|0:0,0:0:0:0:
256,192,27737,12,2,28614,0:0:0:0:
256,120,29141,5,2,0:0:0:0:
256,120,29228,1,2,0:0:0:0:
256,120,29316,2,0,P|188:152|96:108,1,165,6|2,0:0|0:0,0:0:0:0:
40,56,29842,1,0,0:0:0:0:
28,152,30018,2,0,B|44:184|80:208|80:208|56:256|56:256|80:312,1,165,2|8,0:0|0:0,0:0:0:0:
128,360,30544,1,0,0:0:0:0:
212,312,30720,6,0,B|192:272|140:260|140:260|188:192,1,165,2|2,0:0|0:0,0:0:0:0:
329,200,31246,2,0,B|372:260|372:260|320:272|300:312,1,165,0|0,0:0|0:0,0:0:0:0:
388,352,31772,2,0,P|428:364|468:364,1,82.5,8|0,0:3|0:0,0:0:0:0:
472,268,32123,6,0,B|424:200|424:200|464:112,1,165,2|2,0:0|0:0,0:0:0:0:
408,44,32650,1,0,0:0:0:0:
408,44,32825,2,0,L|372:120,1,82.5,2|0,0:0|0:0,0:0:0:0:
332,204,33176,1,8,0:0:0:0:
288,288,33351,5,2,0:0:0:0:
288,288,33439,1,2,0:0:0:0:
288,288,33527,2,0,P|216:312|136:264,1,165,2|8,0:0|0:0,0:0:0:0:
84,196,34053,1,8,0:0:0:0:
141,112,34228,2,0,P|211:72|288:96,1,165,2|8,0:0|0:0,0:0:0:0:
452,192,34930,6,0,L|352:192,1,82.5,2|0,0:0|0:0,0:0:0:0:
296,252,35281,1,2,0:0:0:0:
224,316,35457,2,0,B|168:344|128:316|128:316|140:268|120:224,1,165,0|0,0:0|0:0,0:0:0:0:
56,192,35983,1,8,0:0:0:0:
116,120,36158,5,2,0:0:0:0:
116,120,36246,1,2,0:0:0:0:
116,120,36334,2,0,L|296:88,1,165,2|2,0:0|0:0,0:0:0:0:
372,72,36860,1,8,0:0:0:0:
372,72,37035,2,0,P|416:120|416:220,1,165,2|4,0:0|0:0,0:0:0:0:
256,344,37737,6,0,B|180:344|180:344|140:320|140:320|60:320,1,197.99999395752,2|8,0:0|0:0,0:0:0:0:
64,320,38264,1,6,0:0:0:0:
256,264,38614,5,2,0:0:0:0:
256,264,38790,2,0,B|332:264|332:264|372:240|372:240|452:240,1,197.99999395752,8|2,0:0|0:0,0:0:0:0:
447,240,39317,1,4,0:0:0:0:
460,52,39667,6,0,P|420:96|408:132,2,82.5,2|8|0,0:0|0:0|0:0,0:0:0:0:
344,68,40193,2,0,P|331:126|338:163,1,82.5,8|2,0:0|0:0,0:0:0:0:
256,204,40544,5,8,0:0:0:0:
256,204,40720,1,8,0:0:0:0:
69,240,41071,1,8,0:0:0:0:
69,240,41246,1,8,0:0:0:0:
33,53,41597,1,8,0:0:0:0:
33,53,41773,1,8,0:0:0:0:
219,17,42124,1,8,0:0:0:0:
219,17,42299,1,8,0:0:0:0:
292,56,42474,5,2,0:0:0:0:
292,56,42562,1,2,0:0:0:0:
292,56,42650,2,0,P|340:76|384:72,1,82.5,0|2,0:0|0:0,0:0:0:0:
428,132,43000,2,0,P|380:152|336:148,1,82.5,8|0,0:0|0:0,0:0:0:0:
268,136,43351,5,8,0:0:0:0:
268,136,43527,1,8,0:0:0:0:
305,323,43878,1,8,0:0:0:0:
305,323,44053,1,8,0:0:0:0:
491,287,44404,1,8,0:0:0:0:
491,287,44580,1,8,0:0:0:0:
455,100,44930,1,8,0:0:0:0:
455,100,45105,1,8,0:0:0:0:
408,168,45281,5,2,0:0:0:0:
408,168,45369,1,8,0:0:0:0:
408,168,45457,2,0,L|360:244,1,82.5,2|0,0:0|0:0,0:0:0:0:
284,212,45807,2,0,L|196:256,1,82.5,2|2,0:0|0:0,0:0:0:0:
136,252,46158,6,0,P|96:220|80:136,1,132,4|0,0:0|0:0,0:0:0:0:
124,84,46685,1,2,0:0:0:0:
196,76,46860,2,0,L|348:64,1,132,8|0,0:0|0:0,0:0:0:0:
380,116,47386,2,0,B|380:180|332:180|332:236,1,132,0|8,0:0|0:0,0:0:0:0:
368,300,47913,2,0,P|392:320|424:332,2,66,0|2|8,0:0|0:0|0:0,0:0:0:0:
296,304,48439,1,2,0:0:0:0:
256,364,48614,1,4,0:0:0:0:
144,260,48965,6,0,B|120:208|128:156|128:156|96:128,1,132,2|0,0:0|0:0,0:0:0:0:
48,188,49492,1,2,0:0:0:0:
48,188,49667,2,0,B|48:240|68:284|68:284|40:320,1,132,8|8,0:0|0:0,0:0:0:0:
124,340,50193,5,2,0:0:0:0:
124,340,50369,2,0,P|184:336|204:320,1,82.5,8|0,0:0|0:0,0:0:0:0:
256,244,50720,1,2,0:0:0:0:
311,323,50895,2,0,P|347:343|388:340,1,82.5,2|2,0:0|0:0,0:0:0:0:
460,280,51246,1,0,0:0:0:0:
456,184,51421,1,8,0:0:0:0:
392,116,51597,1,8,0:0:0:0:
308,164,51772,5,8,0:0:0:0:
256,84,51948,2,0,L|256:32,2,41.25,0|10|10,0:0|0:0|0:0,0:0:0:0:
204,164,52299,1,10,0:0:0:0:
120,116,52474,1,10,0:0:0:0:
56,184,52650,1,10,0:0:0:0:
52,280,52825,1,10,0:0:0:0:
124,340,53000,1,10,0:0:0:0:
256,292,53878,5,8,0:0:0:0:
256,292,54053,1,2,0:0:0:0:
316,232,54228,2,0,P|352:220|388:220,1,61.875002360344,2|0,0:0|0:0,0:0:0:0:
456,240,54579,6,0,P|492:184|452:88,2,165,6|8|2,0:0|0:0|0:0,0:0:0:0:
384,180,55457,1,0,0:0:0:0:
296,156,55632,2,0,P|240:168|208:196,1,82.5,8|0,0:0|0:0,0:0:0:0:
148,240,55983,2,0,P|132:200|136:160,2,82.5,2|0|8,0:0|0:0|0:0,0:0:0:0:
200,316,56509,1,0,0:0:0:0:
276,364,56685,2,0,L|360:364,1,82.5,2|0,0:0|0:0,0:0:0:0:
424,276,57035,2,0,L|340:276,1,82.5,8|0,0:0|0:0,0:0:0:0:
256,212,57386,6,0,B|256:124|256:124|288:100|328:120,1,165,2|8,0:0|0:0,0:0:0:0:
404,68,57913,1,0,0:0:0:0:
404,68,58088,2,0,B|352:32|300:28|300:28|360:0,1,165,2|8,0:0|0:0,0:0:0:0:
408,176,58790,2,0,L|396:344,1,165,2|8,0:0|0:0,0:0:0:0:
308,364,59316,1,0,0:0:0:0:
308,364,59492,2,0,L|320:196,1,165,2|8,0:0|0:0,0:0:0:0:
256,136,60018,5,8,0:0:0:0:
256,136,60106,1,8,0:0:0:0:
256,136,60193,2,0,B|212:124|176:144|176:144|140:116|96:116,1,165,6|8,0:0|0:0,0:0:0:0:
68,200,60720,1,0,0:0:0:0:
68,200,60895,2,0,P|120:208|144:312,1,165,2|8,0:0|0:0,0:0:0:0:
363,304,61597,6,0,P|370:226|444:200,1,165,2|8,0:0|0:0,0:0:0:0:
472,112,62123,1,0,0:0:0:0:
472,112,62299,2,0,B|408:100|360:120|360:120|324:80,1,165,2|8,0:0|0:0,0:0:0:0:
152,28,63000,5,6,0:0:0:0:
152,28,63176,2,0,P|88:76|96:168,2,165,0|2|2,0:0|0:0|0:0,0:0:0:0:
168,116,64053,2,0,L|236:168,1,82.5,2|8,0:0|0:0,0:0:0:0:
308,216,64404,1,2,0:0:0:0:
360,288,64579,1,8,0:0:0:0:
312,364,64755,1,0,0:0:0:0:
264,288,64930,1,8,0:0:0:0:
308,216,65106,2,0,P|344:200|400:212,1,82.5,2|2,0:0|0:0,0:0:0:0:
468,168,65457,2,0,L|480:120,3,41.25,8|8|8|8,0:0|0:0|0:0|0:0,0:0:0:0:
448,96,65807,6,0,B|396:48|328:56|328:56|292:104,1,165,6|8,0:0|0:0,0:0:0:0:
256,160,66334,1,0,0:0:0:0:
204,83,66509,2,0,B|184:56|184:56|116:48|64:96,1,165,2|8,0:0|0:0,0:0:0:0:
80,276,67211,6,0,B|124:232|124:232|216:288,1,165,2|8,0:0|0:0,0:0:0:0:
292,332,67737,1,0,0:0:0:0:
292,240,67913,2,0,L|212:192,2,82.5,2|0|8,0:0|0:0|0:0,0:0:0:0:
372,284,68439,1,0,0:0:0:0:
372,192,68614,6,0,B|296:140|296:140|296:56,1,165,2|8,0:0|0:0,0:0:0:0:
216,67,69141,1,0,0:0:0:0:
216,67,69316,2,0,B|216:140|216:140|140:192,1,165,2|8,0:0|0:0,0:0:0:0:
52,352,70018,6,0,P|96:344|128:316,1,82.5,2|0,0:0|0:0,0:0:0:0:
196,264,70369,2,0,P|240:272|272:300,1,82.5,8|8,0:0|0:0,0:0:0:0:
336,356,70720,2,0,P|396:332|424:232,1,165,2|8,0:0|0:0,0:0:0:0:
436,152,71246,5,8,0:0:0:0:
436,152,71334,1,8,0:0:0:0:
436,152,71421,2,0,L|272:152,1,165,6|8,0:0|0:0,0:0:0:0:
132,32,72123,2,0,L|296:32,1,165,2|8,0:0|0:0,0:0:0:0:
364,76,72650,5,0,0:0:0:0:
364,76,72825,2,0,P|392:128|336:220,1,165,2|8,0:0|0:0,0:0:0:0:
164,215,73527,2,0,P|118:149|146:75,1,165,2|2,0:0|0:0,0:0:0:0:
256,220,74228,5,6,0:0:0:0:
204,296,74404,2,0,L|40:324,2,165,0|2|2,0:0|0:0|0:0,0:0:0:0:
296,296,75281,2,0,P|344:316|368:336,1,82.5,8|8,0:0|0:0,0:0:0:0:
456,312,75632,2,0,L|496:288,2,41.25,2|8|0,0:0|0:0|0:0,0:0:0:0:
400,240,75983,1,2,0:0:0:0:
400,148,76158,1,8,0:0:0:0:
456,72,76334,2,0,L|408:28,3,41.25,8|0|0|8,0:0|0:0|0:0|0:0,0:0:0:0:
380,56,76685,2,0,L|312:28,3,41.25,2|8|8|0,0:0|0:0|0:0|0:0,0:0:0:0:
300,28,77035,6,0,B|232:28|232:28|192:56|140:56,1,165,6|8,0:0|0:0,0:0:0:0:
68,108,77562,2,0,B|116:148|184:136|184:136|168:184,1,165,0|0,0:0|0:0,0:0:0:0:
140,260,78088,1,8,0:0:0:0:
228,240,78264,2,0,L|252:160,1,82.5,0|2,0:0|0:0,0:0:0:0:
320,220,78614,2,0,L|338:300,1,82.5,0|8,0:0|0:0,0:0:0:0:
412,240,78965,2,0,L|430:159,1,82.5,0|2,0:0|0:0,0:0:0:0:
268,80,79492,2,0,P|196:68|168:76,1,82.5,8|0,0:0|0:0,0:0:0:0:
100,96,79842,6,0,B|116:140|160:156|160:156|140:196|140:196|172:236,1,165,6|8,0:0|0:0,0:0:0:0:
76,256,80369,2,0,B|44:224|52:180|52:180|16:144|12:100,1,165,0|0,0:0|0:0,0:0:0:0:
44,24,80895,1,8,0:0:0:0:
100,96,81071,2,0,P|136:120|176:120,1,82.5,0|2,0:0|0:0,0:0:0:0:
244,180,81421,2,0,P|287:175|317:149,1,82.5,0|8,0:0|0:0,0:0:0:0:
408,151,81772,2,0,P|437:119|444:80,1,82.5,8|2,0:0|0:0,0:0:0:0:
356,76,82123,2,0,L|508:168,1,165,0|0,0:0|0:0,0:0:0:0:
468,248,82650,6,0,B|392:280|392:280|316:248,1,165,6|8,0:0|0:0,0:0:0:0:
332,160,83176,2,0,B|256:128|256:128|180:160,1,165,0|0,0:0|0:0,0:0:0:0:
132,240,83702,2,0,L|52:284,1,82.5,8|0,0:0|0:0,0:0:0:0:
8,204,84053,6,0,B|64:176|64:176|76:116|32:84,1,165,2|8,0:0|0:0,0:0:0:0:
108,32,84579,1,0,0:0:0:0:
108,32,84667,1,0,0:0:0:0:
108,32,84755,2,0,P|136:72|152:120,1,82.5,2|0,0:0|0:0,0:0:0:0:
216,164,85106,2,0,P|256:171|296:164,1,82.5,8|0,0:0|0:0,0:0:0:0:
363,103,85457,6,0,P|379:65|404:32,2,82.5,6|0|2,0:0|0:0|0:0,0:0:0:0:
380,192,85983,2,0,P|405:224|421:262,2,82.5,8|2|0,0:0|0:0|0:0,0:0:0:0:
296,164,86509,2,0,P|256:171|216:164,1,82.5,6|8,0:0|0:0,0:0:0:0:
140,112,86860,5,2,0:0:0:0:
144,204,87035,2,0,P|152:248|176:284,1,82.5,8|8,0:0|0:0,0:0:0:0:
256,312,87386,1,8,0:0:0:0:
340,279,87562,2,0,P|361:244|368:204,1,82.5,2|8,0:0|0:0,0:0:0:0:
256,57,87913,2,0,L|256:140,1,82.5,2|4,0:0|0:0,0:0:0:0:
