osu file format v13

[General]
AudioFilename: SAOPII.mp3
AudioLeadIn: 0
PreviewTime: 53341
Countdown: 0
SampleSet: Soft
StackLeniency: 0.7
Mode: 0
LetterboxInBreaks: 0
WidescreenStoryboard: 1

[Editor]
DistanceSpacing: 1
BeatDivisor: 4
GridSize: 4
TimelineZoom: 1.5

[Metadata]
Title:IGNITE
TitleUnicode:IGNITE
Artist:Aoi Eir
ArtistUnicode:藍井エイル
Creator:CXu
Version:Easy
Source:ソードアート・オンラインⅡ
Tags:SWORD ART ONLINE II SAO SAOII Sinon Shinon Phantom Bullet Opening GGO Gun Gale Kirito Asuna KinomiCandy TV Size
BeatmapID:453151
BeatmapSetID:190213

[Difficulty]
HPDrainRate:2
CircleSize:3
OverallDifficulty:2
ApproachRate:3
SliderMultiplier:1.2
SliderTickRate:1

[Events]
//Background and Video events
Video,0,"willbereplaced.avi"
0,0,"Sinonononononononononon.jpg",0,0
//Break Periods
//Storyboard Layer 0 (Background)
//Storyboard Layer 1 (Fail)
//Storyboard Layer 2 (Pass)
//Storyboard Layer 3 (Foreground)
//Storyboard Sound Samples
//Background Colour Transformations
3,100,163,162,255

[TimingPoints]
-157,350.877192982456,4,2,0,100,1,0
18,-100,4,2,1,30,0,0
1246,-100,4,2,1,50,0,0
11246,-100,4,2,2,55,0,0
11421,-100,4,2,2,60,0,0
11597,-100,4,2,2,65,0,0
11772,-100,4,2,2,70,0,0
12299,-100,4,2,1,70,0,0
12474,-100,4,2,2,70,0,0
18088,-100,4,2,2,60,0,0
18176,-100,4,2,3,50,0,0
27737,-100,4,2,3,30,0,0
27913,-100,4,2,3,35,0,0
28088,-100,4,2,3,40,0,0
28264,-100,4,2,3,45,0,0
28439,-100,4,2,3,50,0,0
28614,-100,4,2,3,30,0,0
29141,-100,4,2,1,60,0,0
29316,-100,4,2,2,70,0,0
33351,-100,4,2,1,50,0,0
33527,-100,4,2,2,70,0,0
36158,-100,4,2,1,50,0,0
36334,-100,4,2,2,70,0,0
37737,-100,4,2,2,80,0,0
38244,-100,4,2,2,80,0,0
39316,-100,4,2,2,80,0,0
42474,-100,4,2,1,50,0,0
43000,-100,4,2,2,80,0,0
46158,-100,4,2,2,60,0,0
50369,-100,4,2,2,70,0,0
51948,-100,4,2,1,70,0,0
52474,-100,4,2,3,70,0,0
52562,-100,4,2,1,70,0,0
52825,-100,4,2,3,70,0,0
52913,-100,4,2,1,70,0,0
53000,-100,4,2,1,70,0,0
53176,-100,4,2,0,5,0,0
53878,-100,4,2,2,70,0,0
54228,-100,4,2,1,60,0,0
54579,-100,4,2,2,100,0,1
63176,-100,4,2,1,100,0,1
64228,-100,4,2,2,100,0,1
74404,-100,4,2,1,100,0,1
75457,-100,4,2,2,100,0,1
77562,-100,4,2,1,100,0,1
79492,-100,4,2,2,100,0,1
80369,-100,4,2,1,100,0,1
82650,-100,4,2,2,100,0,1
88263,-100,4,2,2,100,0,0

[Colours]
Combo1 : 136,120,66
Combo2 : 79,114,20
Combo3 : 83,116,193
Combo4 : 177,69,69

[HitObjects]
156,112,1246,6,0,P|254:56|356:112,2,240,2|2|0,0:0|0:0|0:0,0:0:0:0:
256,180,3000,2,0,B|248:220|248:220|268:260|268:260|256:296,2,120,0|2|2,0:0|0:0|0:0,0:0:0:0:
328,84,4053,6,0,P|440:76|400:160,1,240,2|2,0:0|0:0,0:0:0:0:
183,83,5457,2,0,P|86:56|101:156,1,240,2|2,0:0|0:0,0:0:0:0:
304,284,6860,6,0,B|320:228|376:192|376:192|320:156|304:100,2,240,2|2|2,0:0|0:0|0:0,0:0:0:0:
84,192,8965,2,0,L|212:192,1,120,2|0,0:0|0:0,0:0:0:0:
256,84,9667,2,0,P|296:80|328:92,1,60,2|0,0:0|0:0,0:0:0:0:
388,192,10193,1,2,0:0:0:0:
314,298,10544,1,0,0:0:0:0:
194,298,10895,6,0,P|256:191|313:302,1,300,2|8,0:0|0:0,0:0:0:0:
108,180,12474,6,0,P|150:132|208:104,1,120,6|8,0:2|0:0,0:0:0:0:
321,110,13176,2,0,B|360:124|384:158|384:158|424:140,1,120,2|8,0:0|0:0,0:0:0:0:
448,256,13878,2,0,B|396:288|396:288|336:288,1,120,2|8,0:0|0:0,0:0:0:0:
217,288,14579,2,0,B|158:288|158:288|106:256,1,120,2|8,0:0|0:0,0:0:0:0:
28,164,15281,6,0,B|56:100|56:100|160:124|212:48,1,240,4|0,0:0|0:0,0:0:0:0:
328,53,16334,2,0,L|396:53,1,60,8|8,0:0|0:3,0:0:0:0:
448,156,16860,2,0,L|380:156,1,60,2|2,0:0|0:0,0:0:0:0:
328,259,17386,2,0,L|396:259,1,60,8|8,0:0|0:0,0:0:0:0:
228,340,18088,6,0,B|144:340|144:340|80:304|80:304|-4:304,1,240,4|0,0:0|0:0,0:0:0:0:
68,208,19141,1,2,0:0:0:0:
68,208,19492,2,0,B|104:208|104:208|172:244|172:244|208:244|208:244|240:216,1,180,2|0,0:0|0:0,0:0:0:0:
304,128,20369,2,0,P|364:136|440:240,1,180,2|8,0:0|0:0,0:0:0:0:
376,324,21246,1,2,0:0:0:0:
256,344,21597,6,0,B|148:340|148:340|168:272|140:208,1,240,0|0,0:0|0:0,0:0:0:0:
24,220,22650,2,0,P|48:276|24:344,2,120,2|0|2,0:0|0:0|0:0,0:0:0:0:
88,120,23702,6,0,L|116:60,1,60,8|0,0:0|0:0,0:0:0:0:
228,100,24228,2,0,B|272:116|308:96|308:96|348:128,1,120,2|2,0:0|0:0,0:0:0:0:
416,212,24930,2,0,P|408:300|312:352,1,180,8|2,0:0|0:0,0:0:0:0:
217,350,25807,2,0,B|153:350|153:350|85:310,1,120,0|0,0:0|0:0,0:0:0:0:
40,220,26509,2,0,P|44:156|156:88,1,180,8|2,0:0|0:0,0:0:0:0:
256,192,27211,12,2,28614,0:0:0:0:
160,192,29316,6,0,B|184:232|172:272|172:272|224:264|256:308|256:308|288:264|340:272|340:272|328:232|352:192,1,360,6|8,0:0|0:0,0:0:0:0:
456,132,30720,2,0,P|380:76|292:88,1,180,2|0,0:0|0:0,0:0:0:0:
208,160,31597,2,0,P|120:166|50:112,2,180,0|2|0,0:0|0:0|0:0,0:0:0:0:
268,172,32825,2,0,P|280:220|252:304,1,120,2|8,0:0|0:0,0:0:0:0:
380,324,33527,6,0,L|508:352,1,120,2|8,0:0|0:0,0:0:0:0:
440,244,34228,2,0,P|412:192|420:124,1,120,2|8,0:0|0:0,0:0:0:0:
348,36,34930,2,0,P|324:64|312:92,1,60,2|0,0:0|0:0,0:0:0:0:
292,204,35457,2,0,B|268:224|256:252|256:252|244:224|220:204,1,120,0|0,0:0|0:0,0:0:0:0:
197,84,36158,2,0,P|184:58|164:36,1,60,2|2,0:0|0:0,0:0:0:0:
80,124,36685,5,2,0:0:0:0:
180,192,37035,1,2,0:0:0:0:
80,260,37386,1,4,0:0:0:0:
184,324,37737,6,0,P|256:348|352:276,1,180,2|6,0:0|0:0,0:0:0:0:
412,132,38790,2,0,P|340:108|244:180,1,180,8|4,0:0|0:0,0:0:0:0:
100,68,39842,2,0,L|32:68,2,60,8|0|8,0:0|0:0|0:0,0:0:0:0:
160,172,40544,6,0,P|168:220|156:256,1,60,8|8,0:0|0:0,0:0:0:0:
256,152,41071,2,0,L|256:84,1,60,8|8,0:0|0:0,0:0:0:0:
352,172,41597,2,0,P|344:220|356:256,1,60,8|8,0:0|0:0,0:0:0:0:
256,308,42123,2,0,L|256:368,1,60,8|8,0:0|0:0,0:0:0:0:
200,248,42650,6,0,P|256:228|312:248,1,120,2|8,0:0|0:0,0:0:0:0:
424,292,43351,6,0,L|424:208,1,60,8|8,0:0|0:0,0:0:0:0:
316,176,43878,2,0,L|316:104,1,60,8|8,0:0|0:0,0:0:0:0:
195,116,44404,2,0,L|195:176,1,60,8|8,0:0|0:0,0:0:0:0:
88,232,44930,2,0,L|88:292,1,60,8|8,0:0|0:0,0:0:0:0:
200,340,45457,6,0,P|256:360|312:340,1,120,2|2,0:0|0:0,0:0:0:0:
392,252,46158,5,4,0:0:0:0:
256,56,46860,1,8,0:0:0:0:
120,256,47562,2,0,P|116:228|120:196,1,60,2|8,0:0|0:0,0:0:0:0:
236,228,48088,2,0,P|240:256|236:288,1,60,2|8,0:0|0:0,0:0:0:0:
148,372,48614,1,4,0:0:0:0:
268,372,48965,6,0,B|325:340|327:271|327:271|391:262|425:212,1,240,2|8,0:0|0:0,0:0:0:0:
488,112,50018,1,8,0:0:0:0:
388,44,50369,2,0,L|324:44,1,60,8|0,0:0|0:0,0:0:0:0:
256,140,50895,1,2,0:0:0:0:
184,44,51246,2,0,L|124:44,1,60,0|8,0:0|0:0,0:0:0:0:
256,192,51597,12,8,53000,0:0:0:0:
100,136,54579,6,0,B|100:156|100:156|148:172|156:232|156:232|188:188|232:184|232:184|256:196|256:196|280:184|280:184|324:188|356:232|356:232|364:172|412:156|412:156|412:136,1,480,6|2,0:0|0:0,0:0:0:0:
316,64,56334,2,0,B|284:64|256:76|256:76|228:64|196:64,1,120,8|2,0:0|0:0,0:0:0:0:
88,24,57035,1,8,0:0:0:0:
32,132,57386,6,0,B|20:196|52:252|52:252|112:216|180:260,3,240,2|2|2|2,0:0|0:0|0:0|0:0,0:0:0:0:
260,300,59842,1,8,0:0:0:0:
376,336,60193,6,0,B|428:328|428:280|428:280|428:112,1,240,6|2,0:0|0:0,0:0:0:0:
428,4,61246,1,8,0:0:0:0:
307,4,61597,2,0,B|255:12|255:60|255:60|255:228,1,240,2|2,0:0|0:0,0:0:0:0:
255,335,62650,1,8,0:0:0:0:
148,280,63000,6,0,P|100:284|76:296,1,60,6|2,0:0|0:0,0:0:0:0:
20,192,63527,1,2,0:0:0:0:
84,92,63878,2,0,P|140:112|208:96,1,120,0|8,0:0|0:0,0:0:0:0:
308,56,64579,6,0,L|380:56,1,60,2|8,0:0|0:0,0:0:0:0:
464,132,65106,1,2,0:0:0:0:
464,252,65457,1,8,0:0:0:0:
368,324,65807,6,0,B|308:344|156:276|156:180|256:144|356:180|356:276|204:344|144:324,1,480,6|2,0:0|0:0,0:0:0:0:
124,204,67562,2,0,P|148:152|200:112,1,120,8|2,0:0|0:0,0:0:0:0:
336,112,68264,2,0,P|383:149|409:203,2,120,8|2|8,0:0|0:0|0:0,0:0:0:0:
256,216,69316,6,0,L|256:360,1,120,2|8,0:0|0:0,0:0:0:0:
148,280,70018,2,0,L|148:136,1,120,2|8,0:0|0:0,0:0:0:0:
256,108,70720,2,0,B|308:108|336:144|336:144|364:124,1,120,2|8,0:0|0:0,0:0:0:0:
472,164,71421,6,0,B|376:240|376:240|376:360,1,240,6|2,0:0|0:0,0:0:0:0:
256,356,72474,1,8,0:0:0:0:
136,357,72825,2,0,B|136:240|136:240|40:164,1,240,2|2,0:0|0:0,0:0:0:0:
20,44,73878,1,8,0:0:0:0:
124,104,74228,6,0,L|172:140,1,60,6|2,0:0|0:0,0:0:0:0:
256,228,74755,1,2,0:0:0:0:
356,160,75106,1,0,0:0:0:0:
364,281,75457,2,0,P|184:324|171:140,1,420,8|2,0:0|0:0,0:0:0:0:
256,56,77035,5,6,0:0:0:0:
364,104,77386,2,0,P|380:136|384:184,1,60,8|2,0:0|0:0,0:0:0:0:
364,280,77913,1,2,0:0:0:0:
256,336,78264,2,0,B|216:332|216:332|176:304|176:304|132:304,1,120,0|2,0:0|0:0,0:0:0:0:
24,304,78965,2,0,L|24:120,1,180,2|8,0:0|0:0,0:0:0:0:
116,48,79842,5,6,0:0:0:0:
228,92,80193,2,0,P|256:101|284:92,1,60,8|2,0:0|0:0,0:0:0:0:
396,48,80720,1,2,0:0:0:0:
352,160,81071,2,0,B|328:192|284:200|284:200|284:244,1,120,0|2,0:0|0:0,0:0:0:0:
172,276,81772,2,0,B|172:315|172:315|128:323|104:355,2,120,8|2|0,0:0|0:0|0:0,0:0:0:0:
148,220,82650,6,0,B|148:180|108:152|108:152|148:116|204:144|204:144|256:116|308:144|308:144|364:116|404:152|404:152|364:180|364:220,1,480,6|2,0:0|0:0,0:0:0:0:
320,332,84404,1,8,0:0:0:0:
256,232,84755,1,2,0:0:0:0:
192,332,85106,1,8,0:0:0:0:
256,192,85457,12,4,88088,0:0:0:0:
