osu file format v14

[General]
AudioFilename: aldnoahzero2ed.mp3
AudioLeadIn: 1500
PreviewTime: 42852
Countdown: 0
SampleSet: Soft
StackLeniency: 0.7
Mode: 0
LetterboxInBreaks: 0
WidescreenStoryboard: 0

[Editor]
DistanceSpacing: 1
BeatDivisor: 4
GridSize: 4
TimelineZoom: 1.1

[Metadata]
Title:GENESIS (TV size)
TitleUnicode:GENESIS(TV size)
Artist:Aoi Eir
ArtistUnicode:藍井エイル
Creator:xxdeathx
Version:Normal
Source:Aldnoah.Zero
Tags:aldnoah zero season 2 ending s2 ed inaho slaine アルドノア・ゼロ koreapenguin
BeatmapID:608651
BeatmapSetID:265097

[Difficulty]
HPDrainRate:3
CircleSize:3.5
OverallDifficulty:3
ApproachRate:4.5
SliderMultiplier:1.24
SliderTickRate:1

[Events]
//Background and Video events
Video,0,"video.avi"
0,0,"bg.jpg",0,0
//Break Periods
//Storyboard Layer 0 (Background)
//Storyboard Layer 1 (Fail)
//Storyboard Layer 2 (Pass)
//Storyboard Layer 3 (Foreground)
//Storyboard Sound Samples

[TimingPoints]
506,461.538461538462,4,2,1,30,1,0
4198,-100,4,2,1,60,0,0
11582,-100,4,2,1,40,0,0
26352,-100,4,2,1,50,0,0
37429,-100,4,2,1,60,0,0
42967,-100,4,2,1,70,0,1
76198,-100,4,2,1,50,0,0
87506,-100,4,2,1,20,0,0
89352,-100,4,2,1,5,0,0

[Colours]
Combo1 : 0,112,193
Combo2 : 0,130,0
Combo3 : 17,255,255
Combo4 : 206,206,208
Combo5 : 90,220,3

[HitObjects]
129,65,506,6,0,P|185:85|261:69,1,124,2|0,0:0|0:0,0:0:0:0:
301,45,1198,2,0,L|441:41,2,124,2|2|0,0:0|0:0|0:0,0:0:0:0:
248,76,2352,1,2,0:0:0:0:
297,189,2813,2,0,B|341:245|301:305|301:305|337:305|357:285,1,186,2|2,0:0|0:0,0:0:0:0:
449,125,4198,6,0,L|461:21,2,93,12|8|8,0:0|0:0|0:0,0:0:0:0:
420,180,5121,2,0,P|364:192|308:156,1,124,8|8,0:0|0:0,0:0:0:0:
213,77,6044,2,0,L|109:65,2,93,12|8|8,0:0|0:0|0:0,0:0:0:0:
261,117,6967,2,0,P|281:177|245:233,1,124,8|8,0:0|0:0,0:0:0:0:
144,284,7890,6,0,L|124:380,2,93,12|8|8,0:0|0:0|0:0,0:0:0:0:
124,224,8813,2,0,B|80:200|32:224|32:224|52:192,1,124,8|8,0:0|0:0,0:0:0:0:
108,92,9736,2,0,B|136:60|136:60|176:56|224:88,1,124,12|0,0:0|0:0,0:0:0:0:
304,168,10659,2,0,B|356:168|393:134|393:134|372:108,1,124,8|0,0:0|0:0,0:0:0:0:
296,20,11582,5,2,0:0:0:0:
212,108,12044,1,0,0:0:0:0:
212,108,12275,2,0,B|209:197|209:197|172:240,2,124,2|2|0,0:0|0:0|0:0,0:0:0:0:
176,56,13429,1,2,0:0:0:0:
64,108,13890,2,0,B|22:123|22:123|6:172|36:192|88:192|128:148,1,186,2|0,0:0|0:0,0:0:0:0:
172,144,14813,2,0,P|200:136|244:152,1,62,2|0,0:0|0:0,0:0:0:0:
280,180,15275,6,0,B|300:208|300:208|296:312,1,124,2|0,0:0|0:0,0:0:0:0:
260,348,15967,1,2,0:0:0:0:
152,288,16429,2,0,L|88:280,2,62,2|2|0,0:0|0:0|0:0,0:0:0:0:
212,272,17121,2,0,P|256:260|336:296,1,124,2|2,0:0|0:0,0:0:0:0:
372,328,17813,1,0,0:0:0:0:
412,376,18044,2,0,L|456:256,1,124,2|2,0:0|0:0,0:0:0:0:
336,228,18967,6,0,B|288:209|260:168|260:168|300:148,1,124,2|0,0:0|0:0,0:0:0:0:
344,140,19659,2,0,P|384:104|376:40,1,124,2|0,0:0|0:0,0:0:0:0:
312,36,20352,2,0,L|244:32,2,62,2|0|2,0:0|0:0|0:0,0:0:0:0:
432,68,21275,1,0,0:0:0:0:
432,68,21506,2,0,L|452:196,1,124,2|0,0:0|0:0,0:0:0:0:
448,252,22198,2,0,P|428:288|400:300,1,62,2|0,0:0|0:0,0:0:0:0:
348,276,22659,6,0,B|308:248|256:268|256:268|248:308,1,124,2|0,0:0|0:0,0:0:0:0:
232,356,23352,2,0,P|188:376|120:336,1,124,2|0,0:0|0:0,0:0:0:0:
100,288,24044,1,2,0:0:0:0:
88,164,24506,2,0,B|81:73|81:73|100:36,1,124,2|0,0:0|0:0,0:0:0:0:
152,20,25198,2,0,B|188:12|216:36|216:64|196:88|160:92|160:92|168:164,1,186,8|8,0:0|0:0,0:0:0:0:
176,264,26352,5,4,0:0:0:0:
268,180,26813,1,0,0:0:0:0:
268,180,27044,2,0,P|320:196|388:172,1,124,2|2,0:0|0:0,0:0:0:0:
432,132,27736,2,0,L|424:48,1,62,8|0,0:0|0:0,0:0:0:0:
376,36,28198,2,0,P|324:20|256:44,1,124,2|2,0:0|0:0,0:0:0:0:
172,128,29121,2,0,P|104:146|49:128,1,124,2|8,0:0|0:0,0:0:0:0:
111,22,30044,5,2,0:0:0:0:
232,48,30506,1,2,0:0:0:0:
232,48,30736,2,0,B|324:52|324:52|300:96,1,124,0|2,0:0|0:0,0:0:0:0:
276,132,31429,1,8,0:0:0:0:
336,240,31890,2,0,P|409:260|464:228,2,124,2|2|2,0:0|0:0|0:0,0:0:0:0:
276,132,33275,1,8,0:0:0:0:
176,208,33736,6,0,L|164:304,2,93,4|8|0,0:0|0:0|0:0,0:0:0:0:
140,160,34659,2,0,P|104:152|80:160,2,62,2|0|8,0:0|0:0|0:0,0:0:0:0:
256,120,35582,2,0,L|268:24,2,93,2|8|0,0:0|0:0|0:0,0:0:0:0:
292,168,36505,2,0,P|328:176|352:168,2,62,2|0|8,0:0|0:0|0:0,0:0:0:0:
172,132,37429,5,4,0:0:0:0:
104,236,37890,1,2,0:0:0:0:
200,316,38352,1,2,0:0:0:0:
312,264,38813,1,8,0:0:0:0:
296,140,39275,2,0,L|280:20,2,93,12|12|8,0:0|0:0|0:0,0:0:0:0:
252,184,40198,2,0,P|188:200|112:164,1,124,2|8,0:0|0:0,0:0:0:0:
44,100,41121,5,2,0:0:0:0:
140,76,42967,6,0,P|92:76|48:36,2,93,12|8|8,0:0|0:0|0:0,0:0:0:0:
200,64,43890,2,0,L|212:196,1,124,8|8,0:0|0:0,0:0:0:0:
280,292,44813,2,0,P|328:292|372:332,2,93,12|8|8,0:0|0:0|0:0,0:0:0:0:
220,304,45736,2,0,L|208:172,1,124,8|8,0:0|0:0,0:0:0:0:
88,160,46659,6,0,P|40:160|-4:200,2,93,12|8|8,0:0|0:0|0:0,0:0:0:0:
120,212,47582,2,0,P|168:224|240:184,1,124,8|8,0:0|0:0,0:0:0:0:
332,120,48505,2,0,P|373:144|391:200,2,93,12|8|8,0:0|0:0|0:0,0:0:0:0:
272,136,49428,2,0,B|236:160|184:156|184:156|208:120,1,124,8|8,0:0|0:0,0:0:0:0:
272,28,50352,6,0,P|328:12|396:40,1,124,4|8,0:0|0:0,0:0:0:0:
404,92,51044,1,0,0:0:0:0:
404,92,51275,2,0,B|388:128|404:188|404:188|384:188|364:176,1,124,2|8,0:0|0:0,0:0:0:0:
268,124,52198,2,0,B|212:100|172:132|172:132|184:172,1,124,2|8,0:0|0:0,0:0:0:0:
196,212,52890,1,0,0:0:0:0:
196,212,53121,2,0,P|132:236|68:212,1,124,2|8,0:0|0:0,0:0:0:0:
0,128,54044,5,4,0:0:0:0:
92,44,54506,1,8,0:0:0:0:
216,48,54967,1,2,0:0:0:0:
308,132,55429,1,8,0:0:0:0:
264,248,55890,2,0,L|284:352,2,93,4|12|0,0:0|0:0|0:0,0:0:0:0:
216,208,56813,1,4,0:0:0:0:
36,48,57736,6,0,B|84:28|132:32|132:32|132:52|112:68,1,124,4|8,0:0|0:0,0:0:0:0:
96,112,58429,1,0,0:0:0:0:
96,112,58659,2,0,P|52:168|72:228,1,124,2|8,0:0|0:0,0:0:0:0:
168,280,59582,2,0,L|308:260,1,124,2|8,0:0|0:0,0:0:0:0:
352,276,60275,1,0,0:0:0:0:
352,276,60506,2,0,B|412:256|416:204|416:204|372:196,1,124,2|8,0:0|0:0,0:0:0:0:
276,168,61429,6,0,P|240:124|252:60,1,124,4|8,0:0|0:0,0:0:0:0:
312,48,62121,1,0,0:0:0:0:
312,48,62352,2,0,B|368:36|400:52|400:52|396:100,1,124,2|8,0:0|0:0,0:0:0:0:
376,208,63275,2,0,L|352:360,1,124,2|8,0:0|0:0,0:0:0:0:
296,344,63967,1,0,0:0:0:0:
296,344,64198,2,0,B|264:320|236:344|208:368|160:336,1,124,2|8,0:0|0:0,0:0:0:0:
132,232,65121,6,0,B|126:141|126:141|148:96,1,124,4|8,0:0|0:0,0:0:0:0:
188,68,65813,1,0,0:0:0:0:
188,68,66044,2,0,B|232:40|280:56|280:56|272:96,1,124,2|8,0:0|0:0,0:0:0:0:
256,204,66967,2,0,P|314:216|379:178,1,124,4|8,0:0|0:0,0:0:0:0:
380,128,67659,1,0,0:0:0:0:
380,128,67890,2,0,P|336:88|260:88,1,124,2|8,0:0|0:0,0:0:0:0:
208,188,68813,6,0,L|192:256,2,62,4|0|8,0:0|0:0|0:0,0:0:0:0:
152,76,69736,2,0,L|140:12,2,62,2|0|8,0:0|0:0|0:0,0:0:0:0:
68,168,70659,2,0,B|36:196|44:232|44:232|52:264|84:248|84:248|116:232|144:248,1,186,4|0,0:0|0:0,0:0:0:0:
196,276,71582,2,0,L|208:372,2,93,12|12|12,0:0|0:0|0:0,0:0:0:0:
236,228,72506,5,4,0:0:0:0:
352,276,72967,1,8,0:0:0:0:
448,196,73429,2,0,L|520:204,2,62,8|0|8,0:0|0:0|0:0,0:0:0:0:
352,120,74352,2,0,P|352:80|388:32,2,93,4|0|0,0:0|0:0|0:0,0:0:0:0:
364,180,75275,2,0,P|364:220|328:268,2,93,4|4|4,0:0|0:0|0:0,0:0:0:0:
304,160,76198,5,6,0:0:0:0:
256,192,76429,12,8,78967,0:0:0:0:
364,44,79890,6,0,P|412:32|456:44,2,93,12|8|8,0:0|0:0|0:0,0:0:0:0:
316,84,80813,2,0,B|272:104|220:84|220:84|236:128,1,124,8|8,0:0|0:0,0:0:0:0:
264,228,81736,2,0,P|224:236|168:212,2,93,12|8|8,0:0|0:0|0:0,0:0:0:0:
320,204,82659,2,0,B|368:236|364:292|364:292|324:304,1,124,8|8,0:0|0:0,0:0:0:0:
232,352,83582,6,0,L|120:336,2,93,12|8|8,0:0|0:0|0:0,0:0:0:0:
292,344,84506,2,0,L|416:316,1,124,8|8,0:0|0:0,0:0:0:0:
452,200,85429,2,0,B|440:144|384:132|384:132|364:144,1,124,4|8,0:0|0:0,0:0:0:0:
296,244,86352,2,0,L|220:228,1,62,8|8,0:0|0:0,0:0:0:0:
184,268,86813,2,0,L|108:252,1,62,8|8,0:0|0:0,0:0:0:0:
64,276,87275,5,4,0:0:0:0:
256,192,87506,12,0,89352,0:0:0:0:
