osu file format v14

[General]
AudioFilename: aldnoahzero2ed.mp3
AudioLeadIn: 1500
PreviewTime: 42852
Countdown: 0
SampleSet: Soft
StackLeniency: 0.7
Mode: 0
LetterboxInBreaks: 0
WidescreenStoryboard: 0

[Editor]
DistanceSpacing: 1.5
BeatDivisor: 4
GridSize: 4
TimelineZoom: 2.4

[Metadata]
Title:GENESIS (TV size)
TitleUnicode:GENESIS(TV size)
Artist:Aoi Eir
ArtistUnicode:藍井エイル
Creator:xxdeathx
Version:K.Penguin's Hard
Source:Aldnoah.Zero
Tags:aldnoah zero season 2 ending s2 ed inaho slaine アルドノア・ゼロ koreapenguin
BeatmapID:605813
BeatmapSetID:265097

[Difficulty]
HPDrainRate:5
CircleSize:4
OverallDifficulty:5.5
ApproachRate:7
SliderMultiplier:1.4
SliderTickRate:1

[Events]
//Background and Video events
0,0,"bg.jpg",0,0
Video,0,"video.avi"
//Break Periods
//Storyboard Layer 0 (Background)
//Storyboard Layer 1 (Fail)
//Storyboard Layer 2 (Pass)
//Storyboard Layer 3 (Foreground)
//Storyboard Sound Samples

[TimingPoints]
506,461.538461538462,4,2,1,30,1,0
506,-133.333333333333,4,2,1,30,0,0
3736,-133.333333333333,4,2,1,50,0,0
4198,-100,4,2,18,60,0,0
11582,-117.647058823529,4,2,1,40,0,0
26352,-100,4,2,18,50,0,0
37429,-100,4,2,18,60,0,0
42506,-100,4,2,1,60,0,0
42967,-100,4,2,18,70,0,1
76198,-100,4,2,18,50,0,0
87390,-100,4,2,18,20,0,0
89352,-100,4,2,1,5,0,0

[Colours]
Combo1 : 0,112,193
Combo2 : 0,130,0
Combo3 : 17,255,255
Combo4 : 206,206,208
Combo5 : 90,220,3

[HitObjects]
364,105,506,6,0,L|372:213,1,105.000004005432,2|2,0:0|0:0,0:0:0:0:
332,289,1198,1,2,0:0:0:0:
228,193,1659,1,2,0:0:0:0:
156,317,2121,1,2,0:0:0:0:
84,265,2352,6,0,L|88:156,1,105.000004005432,2|2,0:0|0:0,0:0:0:0:
28,44,3044,2,0,L|27:97,1,52.5000020027161
88,160,3506,1,2,0:0:0:0:
172,128,3736,2,0,L|208:124,3,26.2500010013581,0|0|0|0,0:0|0:0|0:0|0:0,0:0:0:0:
228,88,4198,6,0,P|284:96|348:72,2,105,6|2|2,0:0|0:0|0:0,0:0:0:0:
148,20,5121,1,2,0:0:0:0:
111,57,5236,2,0,L|114:126,1,70,8|2,0:0|0:0,0:0:0:0:
156,160,5582,2,0,L|152:236,1,70,8|2,0:0|0:0,0:0:0:0:
144,336,6044,5,6,0:0:0:0:
20,240,6390,1,2,0:0:0:0:
156,160,6736,1,2,0:0:0:0:
236,232,6967,2,2,L|228:276,3,35,0|0|0|2,0:0|0:0|0:0|0:0,0:0:0:0:
264,300,7429,2,0,L|268:376,1,70,8|2,0:0|0:0,0:0:0:0:
408,372,7890,6,0,L|403:268,1,105,6|2,0:0|0:0,0:0:0:0:
424,224,8352,1,0,0:0:0:0:
348,164,8582,1,2,0:0:0:0:
392,77,8813,2,0,P|443:64|494:77,1,105,2|8,0:0|0:0,0:0:0:0:
493,76,9275,2,0,L|508:160,1,70,2|8,0:0|0:0,0:0:0:0:
424,224,9736,6,0,L|420:264,3,35,6|2|8|2,0:0|0:0|0:3|0:0,0:0:0:0:
376,280,10198,2,0,L|373:246,3,35,2|2|4|2,0:0|0:0|0:3|0:0,0:0:0:0:
328,224,10659,2,0,L|248:228,1,70,8|4,0:0|0:3,0:0:0:0:
220,196,11006,1,0,0:0:0:0:
220,196,11121,1,4,0:3:0:0:
148,264,11352,1,4,0:3:0:0:
64,224,11582,6,0,P|44:168|54:110,1,119.000002269745,2|0,0:0|0:0,0:0:0:0:
128,52,12275,2,0,B|156:64|156:64|252:60,1,119.000002269745,2|0,0:0|0:0,0:0:0:0:
332,24,12967,1,0,0:0:0:0:
388,100,13198,6,0,P|400:160|304:112,1,238.00000453949,2|0,0:0|0:0,0:0:0:0:
303,113,14582,1,0,0:0:0:0:
228,56,14813,1,0,0:0:0:0:
172,136,15044,6,0,B|125:160|73:136|73:136|29:116|0:129,1,178.500003404617,2|0,0:0|0:0,0:0:0:0:
24,220,15967,2,0,P|8:280|28:340,1,119.000002269745,2|0,0:0|0:0,0:0:0:0:
108,376,16659,1,0,0:0:0:0:
173,307,16890,6,0,P|256:278|338:307,1,178.500003404617,2|2,0:0|0:0,0:0:0:0:
339,307,18044,2,0,L|418:311,1,59.5000011348725,2|0,0:0|0:0,0:0:0:0:
436,220,18506,2,0,L|376:223,1,59.5000011348725,2|0,0:0|0:0,0:0:0:0:
292,176,18967,6,0,P|279:118|299:63,1,119.000002269745,2|0,0:0|0:0,0:0:0:0:
389,32,19659,2,0,B|416:40|416:40|452:80|440:123,1,119.000002269745,2|0,0:0|0:0,0:0:0:0:
380,200,20352,1,0,0:0:0:0:
372,296,20582,6,0,P|438:361|449:263,1,238.00000453949,2|2,0:0|0:0,0:0:0:0:
449,263,21967,1,0,0:0:0:0:
388,192,22198,1,0,0:0:0:0:
472,148,22429,6,0,B|508:80|464:12|464:12|424:8,1,178.500003404617,2|0,0:0|0:0,0:0:0:0:
344,52,23352,2,0,L|220:48,1,119.000002269745,2|0,0:0|0:0,0:0:0:0:
164,120,24044,1,0,0:0:0:0:
212,204,24275,6,0,L|330:207,1,119.000002269745,2|0,0:0|0:0,0:0:0:0:
420,236,24967,1,0,0:0:0:0:
468,152,25198,1,4,0:3:0:0:
468,152,25313,1,0,0:0:0:0:
468,152,25429,2,0,L|512:160,6,29.7500005674362,4|4|4|4|8|4|4,3:0|3:0|3:0|3:0|0:0|3:0|3:0,0:0:0:0:
376,124,26352,6,0,B|340:136|340:136|232:124,1,140,6|0,0:0|0:0,0:0:0:0:
156,60,27044,1,0,0:0:0:0:
156,60,27159,2,0,P|134:105|150:179,1,105,0|0,0:0|0:0,0:0:0:0:
204,240,27736,2,0,L|200:332,1,70,8|0,0:0|0:0,0:0:0:0:
64,364,28198,6,0,L|57:225,1,140,2|0,0:0|0:0,0:0:0:0:
136,156,28890,1,2,0:0:0:0:
204,240,29121,2,0,B|240:256|276:240|276:240|312:224|341:235,1,140,0|8,0:0|0:0,0:0:0:0:
456,56,30044,6,0,L|448:140,1,70,2|0,0:0|0:0,0:0:0:0:
504,216,30506,1,0,0:0:0:0:
456,308,30736,1,2,0:0:0:0:
456,308,30852,2,0,L|332:312,1,105,0|2,0:0|0:0,0:0:0:0:
276,240,31429,2,0,L|207:237,1,70,8|0,0:0|0:0,0:0:0:0:
154,245,31775,1,0,0:0:0:0:
113,277,31890,6,0,P|102:327|110:379,2,105,2|2|2,0:0|0:0|0:0,0:0:0:0:
209,234,32813,2,0,L|205:142,1,70,0|2,0:0|0:0,0:0:0:0:
216,60,33275,1,8,0:0:0:0:
112,56,33506,1,0,3:0:0:0:
112,56,33621,1,8,0:0:0:0:
112,56,33736,6,0,L|0:64,2,105,6|8|2,0:0|0:0|0:0,0:0:0:0:
200,112,34659,2,0,L|340:122,1,140,0|8,0:0|0:0,0:0:0:0:
416,48,35352,1,0,0:0:0:0:
508,96,35582,6,0,L|512:212,1,105,2|8,0:0|0:0,0:0:0:0:
472,236,36044,2,0,L|468:324,2,70,0|2|0,0:0|0:0|0:0,0:0:0:0:
398,162,36736,1,2,0:0:0:0:
328,240,36967,2,0,L|330:274,2,35,8|0|0,0:0|0:0|0:0,0:0:0:0:
243,171,37429,6,0,P|231:121|245:71,1,105,6|2,0:0|0:0,0:0:0:0:
288,40,37890,2,0,L|364:44,1,70,0|2,0:0|0:0,0:0:0:0:
460,68,38352,1,8,0:0:0:0:
460,68,38467,1,8,0:0:0:0:
460,172,38698,2,0,L|425:174,1,35,2|8,0:0|0:0,0:0:0:0:
328,220,39044,1,2,0:0:0:0:
380,312,39275,6,0,P|429:327|484:320,2,105,6|8|2,0:0|0:0|0:0,0:0:0:0:
344,212,40198,2,0,L|300:216,2,35,2|8|8,0:0|0:0|0:0,0:0:0:0:
404,128,40659,2,0,L|448:132,3,35,2|4|8|0,0:0|0:3|0:0|0:0,0:0:0:0:
480,98,41121,5,2,0:0:0:0:
328,56,42506,6,0,L|268:48,3,35,2|0|0|0,0:0|0:0|0:0|0:0,0:0:0:0:
248,76,42967,6,0,L|132:84,1,105,6|2,0:0|0:0,0:0:0:0:
96,60,43429,1,0,0:0:0:0:
20,132,43659,1,2,0:0:0:0:
96,204,43890,2,0,P|104:256|80:328,1,105,2|2,0:0|0:0,0:0:0:0:
60,348,44352,2,0,L|148:356,1,70,8|0,0:0|0:0,0:0:0:0:
224,304,44813,6,0,L|356:292,2,105,6|2|2,0:0|0:0|0:0,0:0:0:0:
147,231,45736,2,0,P|148:166|173:129,1,105,2|0,0:0|0:0,0:0:0:0:
219,117,46198,2,0,L|316:125,1,70,8|2,0:0|0:0,0:0:0:0:
416,180,46659,6,0,L|421:75,2,105,6|2|2,0:0|0:0|0:0,0:0:0:0:
444,280,47582,2,0,P|396:304|320:288,1,105,2|2,0:0|0:0,0:0:0:0:
300,276,48044,2,0,L|296:352,1,70,8|2,0:0|0:0,0:0:0:0:
198,255,48506,6,0,L|192:360,2,105,6|2|8,0:0|0:0|0:0,0:0:0:0:
148,164,49429,2,0,P|160:116|144:52,1,105,2|2,0:0|0:0,0:0:0:0:
104,36,49890,1,8,0:0:0:0:
28,108,50121,1,2,0:0:0:0:
120,212,50352,6,0,L|268:204,1,140,6|8,0:0|0:0,0:0:0:0:
340,136,51044,1,0,0:0:0:0:
440,168,51275,2,0,P|456:232|432:316,1,140,2|8,0:0|0:0,0:0:0:0:
348,356,51967,1,0,0:0:0:0:
260,264,52198,6,0,L|164:268,1,70,6|2,0:0|0:0,0:0:0:0:
108,332,52659,1,8,0:0:0:0:
108,332,52890,1,0,0:0:0:0:
36,256,53121,2,0,L|30:291,2,35,2|0|2,0:0|0:0|0:0,0:0:0:0:
112,184,53582,1,8,0:0:0:0:
40,108,53813,1,0,0:0:0:0:
140,8,54044,6,0,L|284:16,1,140,6|8,0:0|0:0,0:0:0:0:
324,112,54736,1,0,0:0:0:0:
260,196,54967,2,0,L|264:272,2,70,2|2|8,0:0|0:0|0:0,0:0:0:0:
380,24,55890,5,6,0:0:0:0:
228,60,56236,1,6,0:0:0:0:
324,184,56582,1,6,0:0:0:0:
412,124,56813,2,0,L|447:127,3,35,2|0|0|2,0:0|0:0|0:0|0:0,0:0:0:0:
428,176,57275,2,0,L|394:179,3,35,0|4|4|4,0:0|0:3|0:3|0:3,0:0:0:0:
356,216,57736,6,0,P|340:284|372:352,1,140,6|8,0:0|0:0,0:0:0:0:
443,274,58429,1,0,0:0:0:0:
357,216,58659,2,0,L|245:220,1,105,2|0,0:0|0:0,0:0:0:0:
208,248,59121,2,0,L|212:164,1,70,8|0,0:0|0:0,0:0:0:0:
136,104,59582,6,0,L|64:108,2,70,2|2|8,0:0|0:0|0:0,0:0:0:0:
212,32,60275,1,0,0:0:0:0:
296,96,60506,2,0,P|372:108|444:72,1,140,2|8,0:0|0:0,0:0:0:0:
429,85,61429,6,0,L|433:190,1,105,6|0,0:0|0:0,0:0:0:0:
400,232,61890,2,0,L|488:240,1,70,8|0,0:0|0:0,0:0:0:0:
512,336,62352,1,2,0:0:0:0:
512,336,62582,1,2,0:0:0:0:
416,376,62813,2,0,L|347:370,1,70,8|0,0:0|0:0,0:0:0:0:
256,316,63275,6,0,B|244:280|256:248|256:248|272:212|258:180,1,140,2|8,0:0|0:0,0:0:0:0:
176,112,63967,1,0,0:0:0:0:
84,164,64198,2,0,L|44:160,2,35,2|8|2,0:0|0:0|0:0,0:0:0:0:
124,260,64659,2,0,L|164:256,3,35,8|2|2|2,0:0|0:0|0:0|0:0,0:0:0:0:
208,236,65121,6,0,L|200:344,2,105,6|0|0,0:0|0:0|0:0,0:0:0:0:
280,160,66044,1,2,0:0:0:0:
108,40,66506,1,8,0:0:0:0:
40,120,66736,1,0,0:0:0:0:
88,212,66967,6,0,P|136:228|208:212,1,105,6|0,0:0|0:0,0:0:0:0:
228,184,67429,1,8,0:0:0:0:
256,84,67659,1,0,0:0:0:0:
332,156,67890,2,0,B|332:208|332:208|316:240|316:240|316:293,1,140,2|8,0:0|0:0,0:0:0:0:
404,352,68582,1,0,0:0:0:0:
496,296,68813,6,0,L|492:220,1,70,6|2,0:0|0:0,0:0:0:0:
428,144,69275,1,8,0:0:0:0:
468,48,69506,2,0,L|516:56,2,35,0|8|2,0:0|0:0|0:0,0:0:0:0:
364,32,69967,1,2,0:0:0:0:
292,108,70198,1,8,0:0:0:0:
200,56,70429,1,0,0:0:0:0:
200,56,70544,1,0,0:0:0:0:
200,56,70659,6,0,P|186:127|232:196,1,140,6|8,0:0|0:0,0:0:0:0:
319,206,71352,1,2,0:0:0:0:
388,128,71582,5,12,0:0:0:0:
468,264,71929,1,12,0:0:0:0:
320,312,72275,1,12,0:0:0:0:
228,256,72506,6,0,L|136:264,1,70,6|2,0:0|0:0,0:0:0:0:
68,212,72967,1,8,0:0:0:0:
68,212,73198,1,0,0:0:0:0:
96,112,73429,2,0,L|92:56,2,35,2|8|2,0:0|0:0|0:0,0:0:0:0:
196,140,73890,2,0,L|200:84,3,35,8|4|4|4,0:0|0:3|0:3|0:3,0:0:0:0:
236,72,74352,6,0,L|324:64,2,70,6|0|0,0:0|0:0|0:0,0:0:0:0:
148,12,75044,1,0,0:0:0:0:
52,52,75275,2,0,P|36:104|52:180,2,105,4|6|6,0:0|0:0|0:0,0:0:0:0:
148,12,76198,5,6,0:0:0:0:
148,32,78736,6,0,L|156:72,2,35,2|2|8,0:0|0:0|0:0,0:0:0:0:
60,92,79198,1,2,0:0:0:0:
112,184,79429,2,0,L|104:224,3,35,2|8|8|8,0:0|0:0|0:0|0:0,0:0:0:0:
68,256,79890,6,0,P|80:312|60:376,2,105,6|2|2,0:0|0:0|0:0,0:0:0:0:
4,172,80813,2,0,L|10:137,1,35,2|8,0:0|0:0,0:0:0:0:
88,68,81159,1,2,0:0:0:0:
88,68,81275,2,0,L|176:64,1,70,8|2,0:0|0:0,0:0:0:0:
244,124,81736,6,0,P|260:72|252:16,2,105,12|2|8,0:0|0:0|0:0,0:0:0:0:
192,216,82659,2,0,L|226:217,3,35,2|8|0|2,0:0|0:0|0:0|0:0,0:0:0:0:
268,252,83121,2,0,L|340:244,1,70,8|2,0:0|0:0,0:0:0:0:
408,321,83582,5,6,0:0:0:0:
444,167,83929,1,10,0:0:0:0:
479,13,84275,1,10,0:0:0:0:
396,80,84506,2,0,P|340:84|276:52,1,105,2|8,0:0|0:0,0:0:0:0:
264,28,84967,2,0,L|260:108,1,70,2|8,0:0|0:0,0:0:0:0:
176,160,85429,6,0,L|132:152,2,35,6|2|8,0:0|0:0|0:0,0:0:0:0:
252,232,85890,2,0,L|296:224,2,35,2|4|2,0:0|0:3|0:0,0:0:0:0:
192,316,86352,1,8,0:0:0:0:
92,283,86582,1,4,0:3:0:0:
92,178,86813,1,4,0:3:0:0:
192,146,87044,1,4,0:3:0:0:
253,231,87275,5,6,0:0:0:0:
256,192,87390,12,0,89352,0:0:0:0:
